<?xml version="1.0" standalone="no"?>
<!DOCTYPE svg PUBLIC "-//W3C//DTD SVG 1.1//EN" "http://www.w3.org/Graphics/SVG/1.1/DTD/svg11.dtd" >
<svg xmlns="http://www.w3.org/2000/svg">
<metadata>Generated by IcoMoon</metadata>
<defs>
<font id="icomoon" horiz-adv-x="1024">
<font-face units-per-em="1024" ascent="960" descent="-64" />
<missing-glyph horiz-adv-x="1024" />
<glyph unicode="&#x20;" horiz-adv-x="512" d="" />
<glyph unicode="&#xe900;" glyph-name="arrow" horiz-adv-x="594" d="M15.643 479.853l466.068 462.121q31.655 35.847 67.147 0l27.647-27.858q31.662-31.853 0-67.734l-402.854-398.416 402.854-398.416c23.7-23.898 23.7-46.567 0-67.734l-27.647-27.858q-35.554-35.847-67.147 0l-466.068 462.121c-21.044 21.303-21.044 42.47 0 63.774v0z" />
<glyph unicode="&#xe901;" glyph-name="chat" d="M608 742.4h-384c-0.27 0.008-0.587 0.013-0.905 0.013-17.673 0-32-14.327-32-32s14.327-32 32-32c0.318 0 0.635 0.005 0.951 0.014l-0.046-0.001h384c0.27-0.008 0.587-0.013 0.905-0.013 17.673 0 32 14.327 32 32s-14.327 32-32 32c-0.318 0-0.635-0.005-0.951-0.014l0.046 0.001zM480 614.4h-256c-0.27 0.008-0.587 0.013-0.905 0.013-17.673 0-32-14.327-32-32s14.327-32 32-32c0.318 0 0.635 0.005 0.951 0.014l-0.046-0.001h256c0.27-0.008 0.587-0.013 0.905-0.013 17.673 0 32 14.327 32 32s-14.327 32-32 32c-0.318 0-0.635-0.005-0.951-0.014l0.046 0.001zM704 960h-576c-70.657-0.066-127.92-57.319-128-127.967v-640.008c0-0.015 0-0.032 0-0.050 0-12.74 7.454-23.738 18.239-28.872l0.193-0.083c3.98-1.878 8.643-2.98 13.563-2.995h0.005c7.815 0.004 14.975 2.808 20.53 7.465l-0.050-0.041 183.101 152.576h468.419c70.665 0.068 127.932 57.335 128 127.993v384.007c-0.080 70.655-57.343 127.909-127.994 127.974h-0.006zM768 448.026c-0.032-35.333-28.667-63.968-63.997-64h-480.003c-7.815-0.006-14.974-2.81-20.53-7.465l0.050 0.041-139.52-116.301v571.725c0.041 35.33 28.67 63.959 63.996 64h576.004c35.329-0.042 63.958-28.671 64-63.996v-384.004zM896 704.026c-17.673 0-32-14.327-32-32s14.327-32 32-32v0c35.329-0.042 63.958-28.671 64-63.996v-541.393l-108.032 86.4c-5.432 4.331-12.393 6.952-19.966 6.963h-448.002c-35.337 0.045-63.969 28.686-64 64.023v31.977c0 17.673-14.327 32-32 32s-32-14.327-32-32v0-31.974c0.066-70.671 57.331-127.946 127.992-128.026h436.744l151.235-121.011c5.449-4.339 12.433-6.963 20.029-6.963v0c5.047 0.009 9.823 1.16 14.087 3.208l-0.196-0.085c10.803 5.316 18.106 16.243 18.109 28.876v0 608c-0.079 70.661-57.339 127.921-127.992 128h-0.008z" />
<glyph unicode="&#xe902;" d="M333 494.204h661v-393.34h-661z" />
<glyph unicode="&#xe903;" d="M333 155.864h661v-55h-661z" />
<glyph unicode="&#xe904;" d="M622.72 554.804c0.18-4.1-1.32-8.060-4.16-11.020h-106.12c-2.82 2.96-4.34 6.92-4.16 11.020l10 240.96h94.44z" />
<glyph unicode="&#xe905;" d="M622.72 554.804c0.18-4.1-1.32-8.060-4.16-11.020h-36c2.84 2.96 4.34 6.92 4.16 11.020l-10 240.96h36z" />
<glyph unicode="&#xe906;" d="M652.74 554.164v-59.96h-174.48v59.96c0 8.3 6.72 15 15 15h144.48c8.28 0 15-6.7 15-15z" />
<glyph unicode="&#xe907;" d="M652.74 554.164v-59.96h-43.98v59.96c0 8.3-6.72 15-15 15h43.98c8.28 0 15-6.7 15-15z" />
<glyph unicode="&#xe908;" d="M617.74 810.142h-104.474c-8.284 0-15-6.716-15-15s6.716-15 15-15h104.474c8.284 0 15 6.716 15 15s-6.716 15-15 15z" />
<glyph unicode="&#xe909;" d="M846.72 554.804c0.18-4.1-1.32-8.060-4.16-11.020h-106.12c-2.82 2.96-4.34 6.92-4.16 11.020l10 240.96h94.44z" />
<glyph unicode="&#xe90a;" d="M846.72 554.804c0.18-4.1-1.32-8.060-4.16-11.020h-36c2.84 2.96 4.34 6.92 4.16 11.020l-10 240.96h36z" />
<glyph unicode="&#xe90b;" d="M876.74 554.164v-59.96h-174.48v59.96c0 8.3 6.72 15 15 15h144.48c8.28 0 15-6.7 15-15z" />
<glyph unicode="&#xe90c;" d="M876.74 554.164v-59.96h-43.98v59.96c0 8.3-6.72 15-15 15h43.98c8.28 0 15-6.7 15-15z" />
<glyph unicode="&#xe90d;" d="M841.738 810.142h-104.474c-8.284 0-15-6.716-15-15s6.716-15 15-15h104.474c8.284 0 15 6.716 15 15s-6.714 15-15 15z" />
<glyph unicode="&#xe90e;" d="M333 494.204h661v-55h-661z" />
<glyph unicode="&#xe90f;" d="M1009 509.208h-660.996c-8.284 0-15-6.716-15-15s6.716-15 15-15h660.996c8.284 0 15 6.716 15 15s-6.716 15-15 15z" />
<glyph unicode="&#xe910;" d="M422.388 360.174h78.808c8.284 0 15 6.716 15 15s-6.716 15-15 15h-78.808c-8.284 0-15-6.716-15-15s6.716-15 15-15z" />
<glyph unicode="&#xe911;" d="M516.2 315.184v-214.32h-108.82v214.32c0 8.28 6.72 15 15 15h78.82c8.28 0 15-6.72 15-15z" />
<glyph unicode="&#xe912;" d="M516.2 315.184v-60h-108.82v60c0 8.28 6.72 15 15 15h78.82c8.28 0 15-6.72 15-15z" />
<glyph unicode="&#xe913;" d="M566.862 360.174h78.808c8.284 0 15 6.716 15 15s-6.716 15-15 15h-78.808c-8.284 0-15-6.716-15-15s6.716-15 15-15z" />
<glyph unicode="&#xe914;" d="M660.68 315.184v-214.32h-108.82v214.32c0 8.28 6.72 15 15 15h78.82c8.28 0 15-6.72 15-15z" />
<glyph unicode="&#xe915;" d="M660.676 315.184v-60h-108.82v60c0 8.28 6.72 15 15 15h78.82c8.28 0 15-6.72 15-15z" />
<glyph unicode="&#xe916;" d="M711.336 360.174h78.808c8.284 0 15 6.716 15 15s-6.716 15-15 15h-78.808c-8.284 0-15-6.716-15-15s6.716-15 15-15z" />
<glyph unicode="&#xe917;" d="M805.14 315.184v-214.32h-108.82v214.32c0 8.28 6.72 15 15 15h78.82c8.28 0 15-6.72 15-15z" />
<glyph unicode="&#xe918;" d="M805.148 315.184v-60h-108.82v60c0 8.28 6.72 15 15 15h78.82c8.28 0 15-6.72 15-15z" />
<glyph unicode="&#xe919;" d="M855.81 360.174h78.808c8.284 0 15 6.716 15 15s-6.716 15-15 15h-78.808c-8.284 0-15-6.716-15-15s6.716-15 15-15z" />
<glyph unicode="&#xe91a;" d="M949.62 315.184v-214.32h-108.82v214.32c0 8.28 6.72 15 15 15h78.82c8.28 0 15-6.72 15-15z" />
<glyph unicode="&#xe91b;" d="M949.622 315.184v-60h-108.82v60c0 8.28 6.72 15 15 15h78.82c8.28 0 15-6.72 15-15z" />
<glyph unicode="&#xe91c;" d="M407.38 155.864h108.82v-55h-108.82z" />
<glyph unicode="&#xe91d;" d="M551.86 155.864h108.82v-55h-108.82z" />
<glyph unicode="&#xe91e;" d="M696.32 155.864h108.82v-55h-108.82z" />
<glyph unicode="&#xe91f;" d="M840.8 155.864h108.82v-55h-108.82z" />
<glyph unicode="&#xe920;" d="M30 662.524h333v-561.66h-333z" />
<glyph unicode="&#xe921;" d="M30 155.864h333v-55h-333z" />
<glyph unicode="&#xe922;" d="M30 662.524h333v-55h-333z" />
<glyph unicode="&#xe923;" d="M180.6 214.104v-113.24h-30v113.24c0 8.28 6.72 15 15 15s15-6.72 15-15z" />
<glyph unicode="&#xe924;" d="M241.94 214.104v-113.24h-30v113.24c0 8.28 6.7 15 15 15 8.28 0 15-6.72 15-15z" />
<glyph unicode="&#xe925;" d="M104.972 556.732c-8.284 0-15-6.716-15-15v-43.122c0-8.284 6.716-15 15-15s15 6.716 15 15v43.122c0 8.284-6.716 15-15 15z" />
<glyph unicode="&#xe926;" d="M166.306 556.732c-8.284 0-15-6.716-15-15v-43.122c0-8.284 6.716-15 15-15s15 6.716 15 15v43.122c0 8.284-6.716 15-15 15z" />
<glyph unicode="&#xe927;" d="M227.64 556.732c-8.284 0-15-6.716-15-15v-43.122c0-8.284 6.716-15 15-15s15 6.716 15 15v43.122c0 8.284-6.716 15-15 15z" />
<glyph unicode="&#xe928;" d="M288.974 556.732c-8.284 0-15-6.716-15-15v-43.122c0-8.284 6.716-15 15-15s15 6.716 15 15v43.122c0 8.284-6.716 15-15 15z" />
<glyph unicode="&#xe929;" d="M104.502 374.55c8.284 0 15 6.716 15 15v43.122c0 8.284-6.716 15-15 15s-15-6.716-15-15v-43.122c0-8.284 6.716-15 15-15z" />
<glyph unicode="&#xe92a;" d="M165.834 374.55c8.284 0 15 6.716 15 15v43.122c0 8.284-6.716 15-15 15s-15-6.716-15-15v-43.122c0-8.284 6.716-15 15-15z" />
<glyph unicode="&#xe92b;" d="M227.168 374.55c8.284 0 15 6.716 15 15v43.122c0 8.284-6.716 15-15 15s-15-6.716-15-15v-43.122c0-8.284 6.716-15 15-15z" />
<glyph unicode="&#xe92c;" d="M288.502 374.55c8.284 0 15 6.716 15 15v43.122c0 8.284-6.716 15-15 15s-15-6.716-15-15v-43.122c0-8.284 6.716-15 15-15z" />
<glyph unicode="&#xe92d;" d="M104.738 338.156c-8.284 0-15-6.716-15-15v-43.122c0-8.284 6.716-15 15-15s15 6.716 15 15v43.122c0 8.284-6.716 15-15 15z" />
<glyph unicode="&#xe92e;" d="M166.072 338.156c-8.284 0-15-6.716-15-15v-43.122c0-8.284 6.716-15 15-15s15 6.716 15 15v43.122c0 8.284-6.716 15-15 15z" />
<glyph unicode="&#xe92f;" d="M227.404 338.156c-8.284 0-15-6.716-15-15v-43.122c0-8.284 6.716-15 15-15s15 6.716 15 15v43.122c0 8.284-6.716 15-15 15z" />
<glyph unicode="&#xe930;" d="M288.738 338.156c-8.284 0-15-6.716-15-15v-43.122c0-8.284 6.716-15 15-15s15 6.716 15 15v43.122c0 8.284-6.716 15-15 15z" />
<glyph unicode="&#xe931;" d="M104.266 229.098c-8.284 0-15-6.716-15-15v-43.122c0-8.284 6.716-15 15-15s15 6.716 15 15v43.122c0 8.284-6.716 15-15 15z" />
<glyph unicode="&#xe932;" d="M288.266 229.098c-8.284 0-15-6.716-15-15v-43.122c0-8.284 6.716-15 15-15s15 6.716 15 15v43.122c0 8.284-6.716 15-15 15z" />
<glyph unicode="&#xe933;" d="M150.6 155.864h30v-55h-30z" />
<glyph unicode="&#xe934;" d="M211.94 155.864h30v-55h-30z" />
<glyph unicode="&#xe935;" d="M1009 115.858h-994c-8.284 0-15-6.716-15-15s6.716-15 15-15h994c8.284 0 15 6.716 15 15s-6.716 15-15 15z" />
<glyph unicode="&#xe936;" d="M378.004 677.516h-363.004c-8.284 0-15-6.716-15-15s6.716-15 15-15h363.004c8.284 0 15 6.716 15 15s-6.716 15-15 15z" />
<glyph unicode="&#xe937;" glyph-name="icon-1" horiz-adv-x="791" d="M246.303 781.964c12.8 9.309 27.41 16.549 42.925 19.523 29.349 4.267 58.958-3.232 85.721-14.998 23.661-10.473 46.158-23.531 66.715-39.176 10.602-0.129 21.333-0.129 31.935-0.129 19.265 14.093 36.331 31.16 56.113 44.347 19.006 1.164 38.141 0.259 57.147 0.388 1.293-0.517 3.749-1.552 5.042-2.069 4.137-7.111 1.81-15.644 1.422-23.402-1.422-8.663 0.129-18.101-4.137-26.117-15.257-1.681-30.642 0-45.899-1.034-7.24-3.362-11.248-11.119-17.455-15.903 2.457-6.723 5.301-13.446 6.077-20.687 1.681-10.861-1.81-21.721-6.335-31.547 5.947-5.172 10.343-12.412 17.067-16.291 13.834-0.517 27.669 0.388 41.503-0.259 3.491 0.388 5.43-2.844 7.628-5.042 0-14.093 3.232-28.057 2.198-42.149-2.069-3.232-5.689-5.56-9.568-5.172-16.808-0.129-33.487 0-50.295-0.129-4.525-0.646-8.145 2.457-11.378 5.042-16.291 13.317-32.582 26.505-48.743 39.952-33.745 0.129-67.362 0.517-101.107-0.259-36.461-34.392-73.826-67.62-110.287-101.883 39.176-35.556 78.61-70.853 117.139-106.925 36.978-4.655 75.119-13.705 105.115-36.978 16.808-12.671 30.513-32.711 28.315-54.691-1.293-22.885-18.36-41.115-36.59-53.269-32.711-20.945-71.887-29.349-110.158-31.677-48.226-1.939-98.651 5.042-140.412 30.642-20.17 12.671-39.176 33.358-38.271 58.699 0 27.022 21.592 48.226 43.83 60.38-31.935 30.255-65.034 59.216-97.228 89.212-19.135 17.713-23.919 48.485-11.119 71.111 7.37 14.739 21.98 23.402 33.099 34.78 6.465 6.594 13.446 12.541 20.299 18.618 2.457 1.81 3.491 4.784 4.267 7.628 7.37 25.988 14.352 51.976 21.075 78.093 7.37 27.669 21.98 53.527 44.347 71.37zM278.626 780.671c-30.513-11.636-50.941-40.857-59.345-71.499-4.913-19.523-10.473-39.046-15.386-58.57 28.444 25.859 56.76 51.846 84.945 78.093 9.051 10.731 22.368 18.23 36.59 18.489 28.703 0.517 57.535-0.259 86.238 0.388-19.523 12.541-40.21 23.143-62.19 30.642-22.626 6.982-48.097 12.024-70.853 2.457zM531.135 771.749c-10.861-9.051-21.98-17.713-32.711-27.022 5.689-2.586 11.248-5.689 16.937-8.404 6.335 6.723 12.541 13.964 19.782 19.653 13.446 1.034 27.022 0 40.598 0.517 0.259 6.077 0.646 12.024 0.905 18.101-12.671-0.129-25.341 0-38.012 0-2.974 0.517-5.43-0.905-7.499-2.844zM294.917 696.113c0.388-16.162 14.093-31.289 30.513-31.418 53.010-0.129 106.020-0.129 159.16 0 17.196 0 31.935 16.679 30.772 33.616 0.129 13.446-9.826 24.824-21.592 30.255-6.206 1.034-12.412 1.681-18.618 1.552-49.131-0.129-98.392 0.129-147.523-0.129-17.842 0.646-33.875-16.032-32.711-33.875zM248.76 668.444c-23.402-21.592-46.545-43.442-70.594-64.388 7.37-1.81 15.127-2.586 22.109-6.077 10.602-4.396 18.489-13.059 26.893-20.428 7.37-6.465 14.739-13.059 21.463-20.299 7.499 4.267 13.059 11.119 19.653 16.549 26.505 24.566 53.269 48.873 79.774 73.438-9.956 0.388-19.911 0-29.867 0.517-21.98 4.913-40.21 24.695-40.339 47.709-9.438-9.051-19.135-18.23-29.091-27.022zM498.166 649.18c12.671-9.309 24.436-19.782 36.719-29.479 13.964 0.129 27.798 0 41.762 0.129-0.259 6.077-0.646 12.154-1.034 18.23-13.446 0.259-27.022-0.517-40.469 0.259-7.628 5.56-13.446 13.317-19.911 20.17-5.689-3.232-11.378-6.335-17.067-9.309zM166.012 585.18c-19.135-4.525-34.263-23.531-32.711-43.442-0.129-14.739 9.438-27.41 20.558-36.073 53.010-48.226 105.762-96.582 158.901-144.679 13.576-13.705 36.848-15.774 52.622-4.784 15.644 9.697 23.661 30.772 17.584 48.356-3.362 13.059-14.481 21.592-24.048 30.125-51.459 46.933-102.917 93.867-154.376 140.671-10.343 9.309-25.083 12.929-38.529 9.826zM396.154 418.651c6.853-17.196 8.016-37.236-0.905-53.915-9.956-19.782-31.677-33.099-53.915-32.582-16.291-0.129-31.935 7.24-43.184 18.747-17.713 16.162-35.426 32.194-53.010 48.356-11.119-5.56-21.463-13.059-29.737-22.368-8.404-9.956-13.964-24.178-9.18-37.107 6.723-20.816 26.764-32.97 45.382-42.020 48.485-21.592 103.952-24.048 155.669-13.834 25.6 5.689 51.2 14.869 71.24 32.065 9.956 8.792 18.36 21.075 18.101 34.78-0.517 14.998-10.343 27.669-21.721 36.59-22.885 17.584-50.941 26.117-78.739 31.289v0z" />
<glyph unicode="&#xe938;" glyph-name="icon-2" horiz-adv-x="791" d="M385.552 688.873c23.661 19.523 60.897 18.618 83.782-1.552 20.558 4.267 43.184-3.103 57.277-18.877 8.921-9.18 13.964-21.333 16.549-33.745 19.006 1.552 38.788-5.947 51.071-20.816 18.489-21.075 20.040-54.691 3.62-77.446-10.473-15.515-28.832-25.471-47.58-25.341-56.63 0-113.261 0-169.891 0-21.592 1.293-43.83-6.206-59.345-21.463-3.491-0.129-7.628-0.776-9.956 2.457-2.457 6.206-0.776 13.059-0.776 19.523 0.646 16.42 4.655 32.582 9.826 48.097-16.937-0.259-34.651 1.034-50.683-5.301-9.697-3.491-18.618-9.051-26.376-15.903-2.844-2.974-7.111-1.164-10.602-1.034-4.008 7.37-2.198 15.903-1.81 23.79 1.939 24.954 8.145 50.424 23.402 70.853 15.515 22.109 41.503 34.651 67.749 38.4 12.8 12.412 30.642 19.135 48.356 17.842 4.913-0.776 11.248-4.137 15.386 0.517zM388.396 670.513c-1.164-0.388-3.362-1.164-4.525-1.681-13.446 5.56-29.608 5.56-42.020-2.457-6.465-3.232-10.343-11.248-18.23-11.507-19.653-2.586-39.046-10.99-52.364-26.117-16.679-18.489-23.402-43.701-25.083-68.008 15.774 8.533 33.358 14.481 51.459 14.222 61.414 0.129 122.958 0 184.501 0 9.697-0.129 19.394 2.974 27.022 9.051 19.653 14.481 25.341 44.089 12.8 65.034-8.533 15.515-26.376 25.6-44.089 23.402-5.43-0.259-11.636-3.62-16.032 1.034-11.119 10.473-26.893 15.644-42.149 13.446-12.283-1.164-23.014-8.016-31.289-16.42zM543.677 618.537c-1.81-24.307-17.842-47.321-41.115-55.596-7.887-2.974-16.42-3.62-24.824-3.491-46.675 0.129-93.349-0.129-139.895 0.129-7.628-14.222-10.343-30.384-12.283-46.158 14.481 7.111 29.996 12.929 46.287 13.059 59.475 0 118.949 0 178.295 0 10.343 0 20.558 4.008 28.057 10.99 16.291 14.222 19.911 40.081 9.309 58.699-8.145 15.644-26.376 24.954-43.83 22.368v0zM200.792 518.723c1.164 0.388 3.62 1.293 4.784 1.681 20.17 0 40.469 0.129 60.638 0 3.879 0.259 7.628-2.198 8.404-6.206 1.293-12.154 0.129-24.566 2.457-36.59 12.8 0.388 25.6 0.388 38.529 0.129 5.042 0.388 7.499-5.172 7.24-9.438 0.517-17.584 2.069-35.038 2.715-52.622 81.842-0.129 163.685 0 245.657 0 2.974 0 5.947-0.388 8.921-0.776 1.681-3.491 2.844-7.111 2.586-11.119-0.129-55.208 0.129-110.416-0.129-165.624 5.042-0.905 10.085-0.905 15.257-0.905 0-5.042 0-10.085 0-15.127-142.481 0.259-284.962-0.129-427.442 0.129 0 4.913 0 9.826 0 14.739 5.43 0.129 10.861 0.517 16.162 1.293 3.749 90.376 8.275 180.881 12.283 271.257-0.517 3.362 0.646 6.335 1.939 9.18zM213.721 504.501c-3.879-88.307-7.887-176.614-12.283-264.921 1.164-3.62 5.818-1.681 8.663-2.198 48.356 0.129 96.84-0.129 145.196 0.129 70.335-0.259 140.8 0.129 211.135-0.259 1.293 25.729 0 51.459 0.646 77.059-0.388 28.574 0.646 57.277-0.517 85.98-95.547-0.388-191.095-0.129-286.772-0.129 1.681-29.349 2.844-58.57 4.008-87.919-5.042 0-10.214-0.129-15.257-0.259-1.034 17.455-1.81 35.038-2.198 52.622l-0.905 1.422c-1.422 46.287-3.62 92.444-6.335 138.602-14.998-0.129-30.255 0.129-45.382-0.129zM279.273 415.547c10.343 0.129 20.687-0.129 31.030 0.259-1.681 15.515-1.81 31.16-2.457 46.675-10.214 0-20.428-0.129-30.513 0.129 0-15.644 1.164-31.289 1.939-47.063v0zM352.453 377.535c2.974 2.974 7.37 1.939 11.119 2.198 15.903-0.129 31.806 0 47.709 0 3.362 0.259 6.465-1.034 9.438-2.198 1.034-3.62 1.552-7.37 1.422-11.119-0.129-15.903 0-31.806 0-47.709 0-3.232-1.034-6.206-1.81-9.309-11.119-2.844-22.626-1.034-33.875-1.552-11.378 0.517-22.885-1.164-34.133 1.293-1.293 3.103-2.457 6.206-2.198 9.568 0 16.549 0 33.099 0 49.648 0.259 3.232-0.388 6.982 2.327 9.18zM366.028 363.96c0-13.446-0.129-27.022 0-40.469 13.446 0 26.893-0.129 40.339 0.129 0 13.446 0.129 26.893-0.129 40.339-6.723 0-13.317 0-19.911 0.129-6.723-0.129-13.446-0.129-20.299-0.129v0zM451.232 372.622c-0.388 3.232 2.715 5.172 4.655 7.24 19.782-0.259 39.564 0.129 59.345-0.129 4.913 0.646 8.016-4.655 7.37-9.051 0-18.618 0.259-37.236-0.129-55.984 0.388-5.172-5.301-6.982-9.568-6.723-17.325 0-34.651 0-51.846 0-4.267-0.388-10.214 1.293-9.826 6.594-0.259 19.394 0 38.659 0 58.053zM466.36 363.96c0.129-13.446 0.129-26.893 0-40.339 13.705-0.129 27.281-0.129 40.986 0-0.129 13.317-0.259 26.634 0.129 39.822-3.103 0.388-6.077 0.646-9.051 1.034-6.206-0.646-12.541-0.517-18.747-0.388-4.396 0-8.792-0.129-13.317-0.129v0z" />
<glyph unicode="&#xe939;" glyph-name="icon-3" horiz-adv-x="791" d="M376.501 785.455c23.531 0.388 47.192 0.388 70.723 0.129 6.594 0.259 7.758-6.853 9.309-11.766 31.418-8.275 58.958-29.091 76.541-56.242 16.162-24.436 22.756-54.432 21.075-83.523 10.861-2.974 23.531-6.982 28.574-18.101 3.62-9.18 2.198-21.333-5.818-27.927-9.956-8.792-23.919-10.343-36.59-12.154-0.905-32.97-11.636-66.069-32.97-91.539-2.198-3.103-5.818-5.818-5.56-9.956-1.034-19.523 3.62-39.176 12.671-56.501 47.709-11.636 94.901-35.168 124.897-75.119 20.558-26.764 29.737-60.509 30.642-93.867-6.206-0.517-12.412-0.517-18.489-0.259 0.776 38.012-14.998 76.154-43.313 101.754-14.352 13.964-31.547 24.307-49.39 32.97-15.515 7.111-31.677 12.929-48.356 16.808-19.523-20.040-39.564-39.564-59.216-59.475-9.568-9.18-18.36-19.265-28.703-27.798-1.81-21.463-0.388-42.925-0.776-64.388-6.077-0.129-12.154-0.129-18.23-0.129-0.129 21.075 0.129 42.279-0.129 63.354-29.867 29.479-59.216 59.475-89.212 88.954-32.453-8.792-64.776-21.851-90.634-43.96-32.194-25.859-50.554-66.974-49.648-108.089-6.077-0.129-12.154-0.129-18.23-0.129 0.129 33.358 9.568 67.232 29.867 93.996 30.125 40.598 77.834 64.259 126.061 75.636 8.921 18.23 13.576 38.659 12.154 59.087-25.212 26.246-38.271 62.836-38.4 98.909-14.998 2.715-32.97 4.913-42.149 18.747-3.749 8.275-3.879 19.135 2.586 26.117 6.335 7.628 16.42 10.473 25.6 13.188-2.069 29.349 5.042 59.345 21.333 84.040 17.455 27.022 45.253 47.063 76.154 55.725 0.776 4.655 1.81 11.119 7.628 11.507zM379.087 658.489c-5.689 1.552-11.507 2.844-17.196 4.396 6.206 30.384 10.602 61.543 8.533 92.444-49.778-14.352-85.333-65.939-80.549-117.657 11.766 1.293 23.531 2.586 35.426 3.232 70.206 2.586 140.541 3.749 210.489-3.232 4.525 51.846-31.16 104.081-81.584 117.657-1.164-31.547 3.62-62.836 9.18-93.737-5.689-0.646-11.378-1.939-17.196-1.939-8.663 35.038-10.861 71.499-9.309 107.442-16.032 1.422-32.065 0.259-48.097 0.776 1.164-36.461-0.776-73.568-9.697-109.382zM332.154 618.537c-12.671-3.62-24.695-13.317-27.022-26.893-4.267-25.859 1.422-53.010 13.188-76.154 8.016-14.481 18.36-28.057 32.065-37.883 27.927-21.98 67.749-27.539 100.461-13.705 48.485 19.911 77.059 75.507 69.818 126.707-2.327 12.283-11.636 22.626-23.531 26.505-26.634 9.697-55.337 6.853-83.006 7.499-27.281-0.646-55.337 2.069-81.972-6.077zM258.586 609.358c0.646-2.198-0.388-5.689 2.327-6.982 7.499-5.689 17.325-6.723 26.376-7.758 1.81 9.826 6.723 18.747 13.317 25.988-14.352-1.422-29.608-3.103-42.020-11.248zM524.8 620.477c6.982-7.499 11.507-16.937 13.705-26.893 8.275 1.681 16.937 2.457 24.436 6.594 3.491 1.681 4.396 5.172 3.491 8.663-11.895 8.921-27.41 10.214-41.632 11.636zM414.384 438.691c-25.859-0.905-51.588 7.628-72.404 22.756-1.034-17.325-6.594-33.745-12.671-49.648 27.539-28.057 55.855-55.337 83.006-83.523 28.057 27.798 56.372 55.337 83.523 83.911-5.689 16.032-11.119 32.323-12.541 49.519-20.040-14.352-44.089-23.402-68.913-23.014v0z" />
<glyph unicode="&#xe93a;" glyph-name="icon-4" horiz-adv-x="791" d="M288.323 589.834c4.913 0 9.826 0 14.61 0 0.259-36.331 0-72.663 0.129-108.994 81.972 0 163.943-0.129 245.786 0.129-0.129 36.331-0.129 72.663 0 108.994 4.784 0 9.568-0.129 14.481-0.129 0-57.665 0-115.459 0-173.253-0.129-6.853 0.646-14.093-2.457-20.558-3.749-9.309-12.929-15.515-22.497-17.325-6.077-0.517-12.154-0.129-18.101-0.646-5.042-32.453-17.455-63.871-35.297-91.539-12.024-17.842-27.927-35.426-49.778-40.469-17.455-3.749-35.168 4.008-47.838 15.774-19.523 17.972-32.323 41.891-42.149 66.069-6.335 16.291-11.636 33.099-14.222 50.424-9.051 0.259-18.747-1.164-27.022 3.362-9.826 5.042-16.291 16.032-15.903 27.022 0.259 60.38 0.129 120.76 0.259 181.139zM303.192 465.713c-0.388-19.006-0.129-38.012-0.129-57.147-0.517-8.404 7.37-16.291 15.774-15.257 71.24 0 142.481 0 213.592 0 4.137-0.388 8.016 1.422 11.636 3.103 1.552 2.715 3.103 5.43 4.655 8.145 0.259 20.299 0 40.598 0.129 60.897-81.842 0.517-163.685 0-245.657 0.259zM345.859 378.053c7.37-33.875 19.911-67.362 41.632-94.772 9.697-11.378 22.238-22.885 38.141-23.531 16.032 0.259 28.703 11.766 38.529 23.402 21.98 27.41 34.651 61.156 41.891 95.16-41.891 0.129-83.782 0-125.802 0.129 4.784-26.505 15.644-52.105 32.323-73.309 2.069-2.844 0.259-6.465 0-9.697-3.362-0.646-6.982-3.232-10.085-0.517-5.947 5.43-10.085 12.412-14.222 19.135-11.507 19.782-19.394 41.632-23.402 64.259-6.335 0.129-12.671 0.259-19.006-0.259v0zM623.58 343.402c4.396 3.232 11.766-0.259 11.507-5.947 0.517-7.111-9.568-11.766-14.739-7.111-4.008 4.137-1.81 10.99 3.232 13.059v0zM249.406 330.214c3.749 0.517 8.016 1.164 11.119-1.681 4.267-2.327 3.491-7.758 2.069-11.636-4.784-2.974-11.766-2.457-14.61 2.844-2.715 3.362 0.259 7.24 1.422 10.473v0zM288.453 328.275c3.491 1.164 8.016 3.491 11.119 0 17.067-15.515 32.711-32.582 49.907-47.968 1.164-3.491 0.388-6.982-0.388-10.473-3.491-0.776-7.887-2.715-10.731 0.517-16.549 15.644-32.84 31.547-49.131 47.451-2.844 2.844-1.034 7.111-0.776 10.473v0zM551.822 328.404c4.008 2.715 10.473 2.327 12.024-2.974 2.069-3.103-0.388-6.594-2.715-8.792-15.515-15.257-31.030-30.642-46.804-45.77-3.103-3.62-8.016-1.939-11.895-0.905-0.388 3.362-2.198 7.37 0.388 10.214 16.032 16.42 32.84 31.935 49.002 48.226v0zM219.281 290.909c2.327 3.879 7.37 2.715 10.861 1.422 34.909-12.541 69.947-24.954 104.857-37.624 5.818-1.939 5.042-8.921 2.457-13.188-3.62-0.259-7.37-0.905-10.861 0.517-34.78 12.541-69.689 24.824-104.339 37.366-4.525 1.681-6.335 8.016-2.974 11.507v0zM619.701 291.685c3.879 1.422 9.438 3.749 12.412-0.388 3.491-3.103 1.81-8.275-0.776-11.378-31.547-10.861-62.966-22.368-94.513-33.616-7.499-2.457-14.998-6.982-23.014-4.396-0.776 3.749-1.034 7.499-0.517 11.248 35.168 13.705 70.982 25.471 106.408 38.529v0zM194.974 263.758c1.81 3.62 6.335 3.362 9.697 3.62 4.267-2.198 8.921-7.37 5.042-12.154-2.844-5.56-9.568-2.715-14.093-1.422-1.293 3.103-3.103 6.853-0.646 9.956v0zM631.725 258.457c-1.552 8.663 12.024 11.636 16.291 5.172 1.422-3.103 0.129-6.335-0.259-9.568-3.62-1.164-7.37-2.198-11.119-2.844-1.939 2.327-4.913 4.008-4.913 7.24v0zM178.424 229.883c165.107-0.129 330.085 0 495.192-0.129 0-4.784 0-9.568 0-14.352-71.499-0.259-142.869-0.129-214.238-0.129-93.737 0-187.475 0-281.212 0.129 0 4.784 0 9.697 0.259 14.481v0z" />
<glyph unicode="&#xe93b;" glyph-name="icon-5" horiz-adv-x="791" d="M575.224 696.242h-54.82v-102.917l-258.457-34.909v52.364h-114.554v-137.956h114.683v56.242l118.562 16.032v-35.297h-28.574l-60.121-309.010h206.352l-60.121 309.010h-28.574v39.305l110.804 14.998v-98.909h54.82c14.352 0 27.539 4.525 38.529 12.024v-277.463h29.091c0 21.204 0 407.402 0 428.865 0 37.236-30.255 67.62-67.62 67.62v0zM367.321 364.089l61.156 43.701 16.937-87.014-78.093 43.313zM433.907 293.754l-104.21-52.105 19.265 99.297 84.945-47.192zM371.329 229.883l83.523 41.762 8.145-41.762h-91.669zM422.271 439.079l-62.966-44.994 16.808 86.368h38.141l8.016-41.374z" />
<glyph unicode="&#xe93c;" glyph-name="icon-6" horiz-adv-x="791" d="M259.879 277.851h326.077v-78.093h-326.077v78.093zM276.687 520.016c7.111-55.079 45.64-100.461 96.84-117.657-11.895 31.16-18.23 74.343-19.653 117.657h-77.188zM409.212 395.378c6.465-0.388 13.188-0.388 19.653 0 18.36 29.608 24.824 89.212 25.988 124.638h-71.628c1.164-35.426 7.628-95.16 25.988-124.638v0zM428.865 681.762c-6.206 0.388-13.059 0.517-19.653 0-19.265-31.16-25.471-95.030-26.117-132.396h72.016c-0.776 37.624-7.111 101.366-26.246 132.396v0zM562.166 549.236c-4.396 58.57-43.96 107.442-97.616 125.414 12.541-33.099 19.006-79.644 19.782-125.414h77.834zM377.018 328.792v-21.721h91.798v23.402c36.202 8.663 69.689 26.634 97.358 52.881l10.99 10.343-50.424 50.036c18.36 20.945 30.901 47.192 34.651 76.154h-77.188c-1.422-43.313-7.758-86.368-19.653-117.657 14.739 4.913 28.574 12.283 40.727 21.463l29.479-29.22c-30.513-24.695-66.586-38.141-103.176-40.727h-24.824c-144.42 9.826-227.426 180.493-131.362 299.83l29.091-29.091c-16.032-21.333-26.376-47.192-28.444-75.378h77.834c0.905 45.77 7.24 92.315 19.782 125.414-18.36-6.206-35.038-15.903-49.261-28.444l-50.166 50.166-10.343-10.99c-79.257-83.911-77.964-216.048 4.008-297.891 30.125-30.255 68.008-50.295 109.123-58.57v0z" />
<glyph unicode="&#xe93d;" glyph-name="icon-7" horiz-adv-x="791" d="M795.41 379.087h-42.279l-26.634 387.103c-0.517 7.24-6.465 12.8-13.834 12.8h-82.747c-7.24 0-13.317-5.56-13.834-12.8l-26.634-387.103h-28.444v82.747c0 7.628-6.206 13.834-13.834 13.834-3.103 0-6.206-1.034-8.663-2.974l-115.459-92.444v81.584c0 7.628-6.206 13.834-13.834 13.834-3.103 0-6.206-1.034-8.663-2.974l-115.459-92.444v81.584c0 7.628-6.206 13.834-13.834 13.834-3.103 0-6.206-1.034-8.663-2.974l-115.459-92.444v81.584c0 7.628-6.206 13.834-13.834 13.834-2.457 0-4.913-0.646-7.111-1.939l-137.956-82.747c-4.137-2.457-6.723-6.982-6.723-11.766v-330.99c0-7.628 6.206-13.834 13.834-13.834h799.935c7.628 0 13.834 6.206 13.834 13.834v317.026c0.129 7.628-6.077 13.834-13.705 13.834v0zM642.844 751.451h57.018l25.729-372.364h-108.347l25.6 372.364zM450.586 61.802v165.495h82.747v-165.495h-82.747zM781.576 61.802h-220.574v179.329c0 7.628-6.206 13.834-13.834 13.834h-110.287c-7.628 0-13.834-6.206-13.834-13.834v-179.329h-413.737v309.398l110.287 66.198v-85.98c0-7.628 6.206-13.834 13.834-13.834 3.103 0 6.206 1.034 8.663 2.974l115.459 92.444v-81.584c0-7.628 6.206-13.834 13.834-13.834 3.103 0 6.206 1.034 8.663 2.974l115.459 92.444v-81.584c0-7.628 6.206-13.834 13.834-13.834 3.103 0 6.206 1.034 8.663 2.974l115.459 92.444v-67.749c0-7.628 6.206-13.834 13.834-13.834h234.408l-0.129-289.616zM450.586 834.198c5.042-2.715 9.568-6.206 13.446-10.343 7.758-9.438 18.747-15.515 30.772-17.196 12.671 1.681 24.307 8.016 32.453 17.972 3.491 3.62 7.37 6.853 11.636 9.697 2.844-0.129 10.214-7.111 14.222-10.861 7.499-9.18 18.101-15.257 29.867-16.808 13.576 1.681 25.988 8.533 34.651 19.006 3.362 3.232 8.533 8.016 9.438 8.533 7.37 0 9.051-2.457 13.705-9.051 5.947-11.248 17.713-18.489 30.513-18.618 7.628 0 13.834 6.206 13.834 13.834s-6.206 13.834-13.834 13.834c-2.715 0-3.362 0.129-7.758 6.723-7.37 13.059-21.333 21.075-36.331 20.816-11.119-1.552-21.333-7.24-28.315-16.032-4.525-4.267-12.283-11.507-15.127-11.636-4.267 2.586-8.145 5.689-11.636 9.309-8.275 10.085-20.17 16.679-33.099 18.23-11.895-1.681-22.885-7.758-30.513-17.067-3.879-4.137-8.275-7.758-13.188-10.602-4.655 2.586-8.792 5.947-12.412 9.826-8.016 9.826-19.523 16.162-32.065 17.842-7.628 0-13.834-6.077-13.834-13.705-0.259-7.499 5.947-13.705 13.576-13.705v0zM133.43 227.297h-55.208c-7.628 0-13.834-6.206-13.834-13.834v-82.747c0-7.628 6.206-13.834 13.834-13.834h55.208c7.628 0 13.834 6.206 13.834 13.834v82.747c0 7.758-6.206 13.834-13.834 13.834v0zM119.596 144.549h-27.539v55.208h27.539v-55.208zM243.717 227.297h-55.208c-7.628 0-13.834-6.206-13.834-13.834v-82.747c0-7.628 6.206-13.834 13.834-13.834h55.208c7.628 0 13.834 6.206 13.834 13.834v82.747c0 7.758-6.206 13.834-13.834 13.834v0zM230.012 144.549h-27.539v55.208h27.539v-55.208zM354.133 227.297h-55.208c-7.628 0-13.834-6.206-13.834-13.834v-82.747c0-7.628 6.206-13.834 13.834-13.834h55.208c7.628 0 13.834 6.206 13.834 13.834v82.747c-0.129 7.758-6.206 13.834-13.834 13.834v0zM340.299 144.549h-27.539v55.208h27.539v-55.208z" />
<glyph unicode="&#xe93e;" glyph-name="icon-8" horiz-adv-x="791" d="M809.244 351.418v193.164h-82.747c-6.982 24.048-16.679 47.192-28.703 69.172l58.57 58.57-136.533 136.404-58.57-58.57c-21.98 12.154-45.123 21.721-69.172 28.703v82.877h-193.164v-82.747c-24.048-6.982-47.192-16.679-69.172-28.703l-58.57 58.57-136.533-136.533 58.57-58.57c-12.154-21.98-21.721-45.123-28.703-69.172h-82.747v-193.034h82.747c6.982-24.048 16.679-47.192 28.703-69.172l-58.57-58.57 136.533-136.533 58.57 58.57c21.98-12.154 45.123-21.721 69.172-28.703v-82.747h193.034v82.747c24.048 6.982 47.192 16.679 69.172 28.703l58.57-58.57 136.533 136.533-58.57 58.57c12.154 21.98 21.721 45.123 28.703 69.172h82.877zM702.707 368.743c-7.37-28.703-18.877-56.113-33.875-81.584l-5.56-9.18 54.044-54.044-97.616-97.616-54.044 54.044-9.18-5.56c-25.471-15.127-53.010-26.505-81.584-33.875l-10.343-2.715v-76.283h-138.085v76.283l-10.343 2.715c-28.703 7.37-56.113 18.877-81.584 33.875l-9.18 5.56-54.044-54.174-97.616 97.616 54.044 54.044-5.56 9.18c-15.127 25.471-26.505 53.010-33.875 81.584l-2.715 10.343h-76.283v137.956h76.283l2.715 10.343c7.37 28.703 18.877 56.113 33.875 81.584l5.56 9.18-54.044 54.174 97.616 97.616 54.044-54.044 9.18 5.56c25.471 15.127 53.010 26.505 81.584 33.875l10.343 2.715v76.283h137.956v-76.283l10.343-2.715c28.703-7.37 56.113-18.877 81.584-33.875l9.18-5.56 54.044 54.174 97.616-97.616-53.915-54.174 5.56-9.18c15.127-25.471 26.505-53.010 33.875-81.584l2.715-10.343h76.283v-137.956h-76.283l-2.715-10.343zM395.507 682.408c-129.422 0.129-234.408-104.857-234.408-234.149 0-92.186 53.915-175.838 137.956-213.721v-0.259l8.533-3.491h0.129l19.006-7.628v0.905c22.368-6.982 45.64-10.473 68.913-10.473 4.655 0 9.18 0.129 13.834 0.388v-0.646l15.515 1.939 12.154 1.422v0.646c127.095 22.885 211.911 144.549 189.156 272.032-19.911 111.709-117.269 193.164-230.788 193.034v0zM326.465 252.897v136.404l-4.655 4.137c-45.382 40.598-49.261 110.287-8.663 155.669 20.945 23.402 50.812 36.719 82.23 36.719 4.008 0 8.145-0.259 12.154-0.646l-64.129-64.129 12.283-85.333 85.333-12.283 64.129 64.129c0.388-4.008 0.646-8.016 0.646-12.024-0.259-51.459-35.685-95.935-85.851-107.572l-10.731-2.457v-123.992c-28.057-1.81-56.113 2.069-82.747 11.378v0zM436.881 245.269v98.78c57.277 18.36 96.194 71.499 96.582 131.62 0 14.998-2.327 29.867-7.24 44.089l-7.24 20.816-87.661-87.661-51.2 7.37-7.37 51.2 87.661 87.661-20.945 7.111c-14.222 4.784-29.091 7.24-44.089 7.24-76.154 0-137.826-61.673-137.956-137.826 0-37.107 14.869-72.533 41.374-98.521v-112.226c-100.978 53.398-139.636 178.424-86.238 279.402 53.269 100.978 178.424 139.636 279.402 86.238 100.978-53.269 139.636-178.424 86.238-279.402-28.703-54.562-80.679-93.479-141.317-105.891v0z" />
<glyph unicode="&#xe93f;" glyph-name="icon-9" horiz-adv-x="791" d="M422.788 547.814c-2.844 2.844-7.499 2.844-10.343 0l-8.016-8.016c-2.844-2.844-2.844-7.499 0-10.343 1.422-1.422 3.232-2.069 5.172-2.069 1.81 0 3.749 0.646 5.172 2.069l8.016 8.016c2.844 2.844 2.844 7.499 0 10.343v0zM429.382 507.604c1.81 0 3.749 0.646 5.172 2.069l8.016 8.016c2.844 2.844 2.844 7.499 0 10.343s-7.499 2.844-10.343 0l-8.016-8.016c-2.844-2.844-2.844-7.499 0-10.343 1.552-1.422 3.362-2.069 5.172-2.069v0zM452.137 508.121l-8.016-8.016c-2.844-2.844-2.844-7.499 0-10.343 1.422-1.422 3.232-2.069 5.172-2.069 1.81 0 3.749 0.646 5.172 2.069l8.016 8.016c2.844 2.844 2.844 7.499 0 10.343-2.974 2.844-7.499 2.844-10.343 0v0zM463.903 469.98c1.422-1.422 3.232-2.069 5.172-2.069 1.81 0 3.749 0.646 5.172 2.069l8.016 8.016c2.844 2.844 2.844 7.499 0 10.343s-7.499 2.844-10.343 0l-8.016-8.016c-2.844-2.844-2.844-7.499 0-10.343v0zM207.386 283.281l-13.446-13.446c-2.844-2.844-2.844-7.499 0-10.343s7.499-2.844 10.343 0l13.446 13.446c2.844 2.844 2.844 7.499 0 10.343s-7.499 2.844-10.343 0v0zM485.624 337.842l-43.442 25.083c-4.913 2.844-10.861 2.844-15.774 0l-43.442-25.083c-4.913-2.844-7.887-8.016-7.887-13.705v-50.166c0-5.56 2.974-10.861 7.887-13.705l43.442-25.083c2.457-1.422 5.172-2.069 7.887-2.069s5.43 0.646 7.887 2.069l43.442 25.083c4.913 2.844 7.887 8.016 7.887 13.705v50.166c0 5.689-2.974 10.861-7.887 13.705v0zM478.901 273.972c0-0.388-0.259-0.905-0.646-1.034l-43.442-25.083c-0.388-0.259-0.905-0.259-1.293 0l-43.442 25.083c-0.388 0.259-0.646 0.646-0.646 1.034v50.166c0 0.388 0.259 0.905 0.646 1.034l43.442 25.083c0.129 0.129 0.388 0.129 0.646 0.129s0.388 0 0.646-0.129l43.572-25.083c0.388-0.259 0.646-0.646 0.646-1.034v-50.166zM434.295 325.947c-14.739 0-26.893-12.024-26.893-26.893 0-14.739 12.024-26.893 26.893-26.893s26.893 12.024 26.893 26.893c-0.129 14.869-12.154 26.893-26.893 26.893v0zM434.295 286.772c-6.723 0-12.283 5.56-12.283 12.283s5.56 12.283 12.283 12.283 12.283-5.56 12.283-12.283c0-6.723-5.56-12.283-12.283-12.283v0zM557.77 357.754c0-14.739 12.024-26.893 26.893-26.893 14.739 0 26.893 12.024 26.893 26.893 0 14.739-12.024 26.893-26.893 26.893s-26.893-12.154-26.893-26.893v0zM596.945 357.754c0-6.723-5.56-12.283-12.283-12.283s-12.283 5.56-12.283 12.283c0 6.723 5.56 12.283 12.283 12.283s12.283-5.56 12.283-12.283v0zM635.992 396.541l-43.442 25.083c-4.913 2.844-10.861 2.844-15.774 0l-43.442-25.083c-4.913-2.844-7.887-8.016-7.887-13.705v-50.166c0-5.56 2.974-10.861 7.887-13.705l43.442-25.083c2.457-1.422 5.172-2.069 7.887-2.069s5.43 0.646 7.887 2.069l15.644 9.051c3.491 2.069 4.655 6.465 2.715 9.956-2.069 3.491-6.465 4.655-9.956 2.715l-15.644-9.051c-0.388-0.259-0.905-0.259-1.293 0l-43.442 25.083c-0.388 0.259-0.646 0.646-0.646 1.034v50.166c0 0.388 0.259 0.905 0.646 1.034l43.442 25.083c0.388 0.259 0.905 0.259 1.293 0l43.442-25.083c0.388-0.259 0.646-0.646 0.646-1.034v-50.166c0-0.388-0.259-0.905-0.646-1.034l-2.586-1.552c-3.491-2.069-4.655-6.465-2.715-9.956 2.069-3.491 6.465-4.655 9.956-2.715l2.586 1.552c4.913 2.844 7.887 8.016 7.887 13.705v50.166c0 5.56-2.974 10.861-7.887 13.705v0zM460.154 424.598c43.055-8.921 87.531 4.137 118.82 35.426 36.848 36.848 47.321 90.505 30.384 137.051-0.905 2.327-2.844 4.137-5.301 4.655s-4.913-0.259-6.723-1.939l-59.733-59.733-49.778 13.317-13.317 49.907 7.111 7.111c2.844 2.844 2.844 7.499 0 10.343s-7.499 2.844-10.343 0l-10.085-10.085c-1.81-1.81-2.586-4.525-1.939-6.982l15.515-57.923c0.646-2.457 2.586-4.525 5.172-5.172l57.923-15.515c2.457-0.646 5.172 0 6.982 1.939l54.174 54.174c9.956-39.305-1.422-81.584-30.384-110.545-27.669-27.669-67.232-39.434-105.632-31.547-21.204 4.396-43.055-2.844-57.277-18.877l-154.246-174.933c0 0 0 0-0.129-0.129-4.784-5.56-10.602-9.956-17.325-13.059-3.62-1.681-5.301-5.947-3.62-9.697 1.681-3.62 5.947-5.301 9.697-3.62 8.533 3.879 16.032 9.568 22.238 16.679l154.376 174.675c10.731 12.412 27.41 17.842 43.442 14.481v0zM208.679 227.685c-12.024 1.034-23.273 6.206-31.806 14.739-20.816 20.816-19.782 55.079 2.844 74.602 0 0 0 0 0.129 0.129l174.804 154.505c16.032 14.093 23.273 36.073 18.877 57.277-8.016 38.4 3.749 77.964 31.547 105.632 28.962 28.962 71.24 40.339 110.545 30.384l-23.531-23.531c-2.844-2.844-2.844-7.499 0-10.343s7.499-2.844 10.343 0l32.065 32.065c1.81 1.81 2.457 4.267 1.939 6.723s-2.327 4.396-4.655 5.301c-46.416 16.937-100.202 6.465-137.051-30.255-31.16-31.16-44.477-75.636-35.426-118.82 3.362-16.032-2.069-32.711-14.222-43.442l-174.933-154.764c-28.832-24.824-30.513-68.913-3.62-95.806 10.99-10.99 25.471-17.713 40.857-18.877 4.008-0.259 7.499 2.586 7.887 6.723 0.388 3.879-2.586 7.37-6.594 7.758v0z" />
<glyph unicode="&#xe940;" glyph-name="icon-10" horiz-adv-x="791" d="M526.481 638.578h25.212c10.602 0 19.265-8.663 19.265-19.265v-10.214c0-10.602-8.663-19.265-19.265-19.265-14.093 0-25.6-11.507-25.6-25.6v-10.602c0-4.008 3.232-7.24 7.24-7.24s7.24 3.232 7.24 7.24v10.602c0 6.077 4.913 11.119 11.119 11.119 18.618 0 33.745 15.127 33.745 33.745v10.214c0 18.618-15.127 33.745-33.745 33.745h-25.212c-6.206 0-11.378 5.042-11.378 11.378v24.436c0 4.008-3.232 7.24-7.24 7.24s-7.24-3.232-7.24-7.24v-24.436c-0.129-14.222 11.507-25.859 25.859-25.859v0zM489.115 581.43c4.913 0 8.921-4.008 8.921-8.921v-11.766c0-4.008 3.232-7.24 7.24-7.24s7.24 3.232 7.24 7.24v11.766c0 12.929-10.602 23.531-23.531 23.531-4.913 0-8.921 4.008-8.921 8.921v15.774c0 4.008-3.232 7.24-7.24 7.24s-7.24-3.232-7.24-7.24v-15.774c0.129-12.929 10.602-23.531 23.531-23.531v0zM542.901 667.798c4.008 0 7.24 3.232 7.24 7.24v13.834c0 4.008-3.232 7.24-7.24 7.24s-7.24-3.232-7.24-7.24v-13.834c0-4.008 3.232-7.24 7.24-7.24v0zM442.958 257.681c-4.008 0-7.24-3.232-7.24-7.24v-6.853c0-4.008 3.232-7.24 7.24-7.24s7.24 3.232 7.24 7.24v6.853c0 4.008-3.232 7.24-7.24 7.24v0zM488.339 257.681c-4.008 0-7.24-3.232-7.24-7.24v-6.853c0-4.008 3.232-7.24 7.24-7.24s7.24 3.232 7.24 7.24v6.853c0.129 4.008-3.232 7.24-7.24 7.24v0zM533.851 257.681c-4.008 0-7.24-3.232-7.24-7.24v-6.853c0-4.008 3.232-7.24 7.24-7.24s7.24 3.232 7.24 7.24v6.853c0 4.008-3.232 7.24-7.24 7.24v0zM579.232 257.681c-4.008 0-7.24-3.232-7.24-7.24v-6.853c0-4.008 3.232-7.24 7.24-7.24s7.24 3.232 7.24 7.24v6.853c0 4.008-3.232 7.24-7.24 7.24v0zM636.638 214.238h-9.438v49.778c0 11.636-9.568 21.204-21.204 21.204h-28.962c0 0.129-20.428 240.097-20.428 240.485-0.517 6.077-5.689 10.861-11.766 10.861h-38.659c-6.206 0-11.248-4.655-11.766-10.861-23.661-279.143 0.517 5.56-14.352-169.115h-70.465v25.083c0 2.974-1.81 5.689-4.655 6.723l-13.705 5.301c-3.749 1.422-8.016-0.388-9.438-4.137s0.388-8.016 4.137-9.438l9.051-3.491v-162.521h-52.493v41.891c0 4.008-3.232 7.24-7.24 7.24h-96.84c-4.008 0-7.24-3.232-7.24-7.24v-41.891h-52.493v246.562l178.166-69.042c3.749-1.422 8.016 0.388 9.438 4.137s-0.388 8.016-4.137 9.438l-136.404 52.881v52.105c0 4.008-3.232 7.24-7.24 7.24s-7.24-3.232-7.24-7.24v-46.545l-37.107 14.352c-2.198 0.905-4.784 0.517-6.723-0.776-1.939-1.422-3.103-3.62-3.103-5.947v-257.034h-9.438c-4.008 0-7.24-3.232-7.24-7.24s3.232-7.24 7.24-7.24h482.004c4.008 0 7.24 3.232 7.24 7.24s-3.491 7.24-7.499 7.24v0zM409.6 285.349v24.178h66.457l-2.069-24.178h-64.388zM562.424 285.349h-73.826c1.034 12.8 3.362 40.21 4.137 48.356h18.36c4.008 0 7.24 3.232 7.24 7.24s-3.232 7.24-7.24 7.24h-17.196c0.388 4.396 3.749 43.83 4.137 48.356h55.079l4.137-48.356h-17.067c-4.008 0-7.24-3.232-7.24-7.24s3.232-7.24 7.24-7.24h18.36l3.879-48.356zM551.822 411.022h-52.622l4.137 48.356h44.347l4.137-48.356zM508.638 522.214h33.745l4.137-48.356h-41.891l4.008 48.356zM478.772 342.238l-1.552-18.23h-67.749v18.23h69.301zM245.657 214.238v34.651h82.36v-34.651h-82.36zM409.6 214.238v56.501h196.396c3.62 0 6.594-2.974 6.594-6.594v-49.778h-202.99zM212.558 421.883c-2.198 0.776-4.655 0.388-6.594-0.905-1.939-1.422-3.103-3.62-3.103-5.947v-41.632c0-4.008 3.232-7.24 7.24-7.24s7.24 3.232 7.24 7.24v31.418l37.366-13.188v-73.956h-37.366v26.634c0 4.008-3.232 7.24-7.24 7.24s-7.24-3.232-7.24-7.24v-34.004c0-4.008 3.232-7.24 7.24-7.24h153.341c4.008 0 7.24 3.232 7.24 7.24v50.554c0 3.103-1.939 5.818-4.913 6.853l-153.212 54.174zM269.446 386.457l34.78-12.283v-56.501h-34.78v68.784zM356.202 317.673h-37.366v51.329l37.366-13.188v-38.141z" />
<glyph unicode="&#xe941;" glyph-name="icon-11" horiz-adv-x="791" d="M619.96 637.802h-146.101c-13.188 0-23.919-10.731-23.919-23.919v-110.416c0-23.661-9.18-46.028-25.988-62.707l-32.582-32.582c-11.636-11.636-11.636-30.384 0-42.020 11.636-11.507 30.384-11.507 42.020 0l12.283 12.283c1.552 1.552 4.267 0.517 4.267-1.81v-115.329c0-16.42 13.317-29.737 29.737-29.737 5.43 0 10.602 1.422 15.127 4.137v-5.818c0-16.291 13.188-30.255 29.737-30.255 16.291 0 29.608 13.188 29.608 29.737v14.093c4.396-2.586 9.568-4.137 15.127-4.137 16.42 0 29.737 13.188 29.737 29.737v8.533c4.396-2.586 9.568-4.137 15.127-4.137 16.42 0 29.737 13.188 29.737 29.737v140.412c0 4.008-3.232 7.24-7.24 7.24s-7.24-3.232-7.24-7.24v-140.412c0-8.404-6.853-15.127-15.127-15.127-8.404 0-15.127 6.723-15.127 15.127 0 0 0 0 0 0v63.741c0 4.008-3.232 7.24-7.24 7.24s-7.24-3.232-7.24-7.24v-97.875c0-8.404-6.853-15.127-15.127-15.127-8.404 0-15.127 6.723-15.127 15.127 0 0 0 0 0 0v88.954c0 4.008-3.232 7.24-7.24 7.24s-7.24-3.232-7.24-7.24v-128.646c0-8.533-6.982-15.386-15.644-15.127-8.016 0.259-14.61 7.37-14.61 15.644v120.501c0 4.008-3.232 7.24-7.24 7.24s-7.24-3.232-7.24-7.24v-89.083c0 0 0 0 0-0.129 0-8.404-6.853-15.127-15.127-15.127-8.404 0-15.127 6.853-15.127 15.127v115.329c0 15.127-18.36 22.885-29.22 12.024l-12.283-12.283c-5.947-5.947-15.515-5.947-21.463 0s-5.947 15.515 0 21.463l32.582 32.582c19.523 19.523 30.255 45.382 30.255 73.051v15.127h164.848v-45.899c0-4.008 3.232-7.24 7.24-7.24s7.24 3.232 7.24 7.24c0 15.903 0 125.414 0 141.188-0.259 13.317-10.99 24.048-24.178 24.048v0zM464.549 613.883c0 5.172 4.267 9.438 9.438 9.438h145.972c5.172 0 9.438-4.267 9.438-9.438v-47.321h-164.848v47.321zM464.549 533.204v18.747h164.848v-18.747h-164.848zM399.903 529.842c-11.636 11.507-30.384 11.507-42.020 0l-12.283-12.283c-1.552-1.552-4.267-0.517-4.267 1.81v58.958c0 4.008-3.232 7.24-7.24 7.24s-7.24-3.232-7.24-7.24v-58.958c0-15.127 18.489-22.885 29.22-12.024l12.283 12.283c5.947 5.947 15.515 5.947 21.463 0s5.947-15.515 0-21.463l-32.582-32.582c-19.523-19.523-30.255-45.382-30.255-73.051v-15.127h-165.107v215.402c0 8.404 6.853 15.127 15.127 15.127 8.404 0 15.127-6.723 15.127-15.127v-63.741c0-4.008 3.232-7.24 7.24-7.24s7.24 3.232 7.24 7.24v63.741c0 0 0 0 0 0v34.133c0 8.404 6.853 15.127 15.127 15.127 8.404 0 15.127-6.723 15.127-15.127 0 0 0 0 0 0v-88.954c0-4.008 3.232-7.24 7.24-7.24s7.24 3.232 7.24 7.24v88.954c0 0 0 0 0 0v39.564c0 8.663 7.111 15.386 15.644 15.127 8.016-0.259 14.61-7.37 14.61-15.644v-31.289c0 0 0 0 0 0v-89.212c0-4.008 3.232-7.24 7.24-7.24s7.24 3.232 7.24 7.24v89.212c0 0 0 0 0 0 0 8.404 6.853 15.127 15.127 15.127 8.404 0 15.127-6.853 15.127-15.127v-27.281c0-4.008 3.232-7.24 7.24-7.24s7.24 3.232 7.24 7.24v27.281c0 16.42-13.317 29.737-29.737 29.737-5.43 0-10.602-1.422-15.127-4.137v5.818c0 16.162-12.8 29.608-28.574 30.255-16.808 0.646-30.772-12.8-30.772-29.608v-14.093c-4.396 2.586-9.568 4.137-15.127 4.137-16.291 0-29.737-13.188-29.737-29.737v-8.533c-4.396 2.586-9.568 4.137-15.127 4.137-16.42 0-29.737-13.188-29.737-29.737v-310.691c0-13.188 10.731-23.919 23.919-23.919h145.972c13.188 0 23.919 10.731 23.919 23.919 0 34.651 0 75.766 0 110.416 0 23.661 9.18 46.028 25.988 62.707l32.582 32.582c12.283 11.507 12.283 30.384 0.646 41.891v0zM317.414 272.679h-146.101c-5.172 0-9.438 4.267-9.438 9.438v47.321h23.014c4.008 0 7.24 3.232 7.24 7.24s-3.232 7.24-7.24 7.24h-23.014v18.747h164.848v-18.747h-112.743c-4.008 0-7.24-3.232-7.24-7.24s3.232-7.24 7.24-7.24h112.743v-47.321c0-5.172-4.137-9.438-9.309-9.438v0z" />
<glyph unicode="&#xe942;" glyph-name="icon-12" horiz-adv-x="791" d="M624.097 261.43h-3.62v209.455c0 4.008-3.232 7.24-7.24 7.24s-7.24-3.232-7.24-7.24v-209.455h-40.469c0 30.513 0 243.846 0 276.945 0 3.879 3.103 6.982 7.111 6.982h26.376c3.879 0 7.111-3.103 7.111-6.982v-38.529c0-4.008 3.232-7.24 7.24-7.24s7.24 3.232 7.24 7.24v38.529c0 11.895-9.697 21.592-21.592 21.592h-5.947v8.533c0 8.533 6.982 15.515 15.515 15.515h28.057c4.008 0 7.24 3.232 7.24 7.24s-3.232 7.24-7.24 7.24h-28.057c-16.549 0-29.996-13.446-29.996-29.996v-8.533h-5.947c-11.895 0-21.592-9.697-21.592-21.592v-30.642h-58.958v92.186c0 1.164 0 2.327-0.129 3.62-0.259 4.008-3.749 6.982-7.758 6.723s-6.982-3.749-6.723-7.758c0.129-1.034 0.129-1.81 0.129-2.586v-338.489h-21.075v95.16c0 16.679-13.576 30.255-30.255 30.255h-19.653v162.392c0 16.549-13.446 29.996-29.996 29.996h-49.002v20.687c0 18.489 14.998 33.487 33.487 33.487h83.265c8.663 0 16.808-3.232 23.014-9.309 2.844-2.715 7.499-2.715 10.343 0.259 2.715 2.844 2.715 7.499-0.259 10.343-7.887 7.499-17.713 12.024-28.444 13.059v17.842c0 8.404-6.853 15.257-15.257 15.257h-62.19c-8.404 0-15.257-6.853-15.257-15.257v-17.842c-24.307-2.327-43.313-22.885-43.313-47.709v-20.687h-40.339c-16.549 0-29.996-13.446-29.996-29.996v-36.978h-11.507v36.978c0 16.549-13.446 29.996-29.996 29.996h-46.158c-4.008 0-7.24-3.232-7.24-7.24s3.232-7.24 7.24-7.24h46.158c8.533 0 15.515-6.982 15.515-15.515v-36.978h-2.457c-20.558 0-37.366-16.808-37.366-37.366v-213.463h-9.309c-10.861 0-19.782-8.921-19.782-19.782v-20.040c0-4.008 3.232-7.24 7.24-7.24h39.822c4.008 0 7.24 3.232 7.24 7.24s-3.232 7.24-7.24 7.24h-32.582v12.541c0 2.844 2.327 5.301 5.301 5.301h456.921c2.844 0 5.301-2.327 5.301-5.301v-12.541h-406.109c-4.008 0-7.24-3.232-7.24-7.24s3.232-7.24 7.24-7.24h412.962c4.008 0 7.24 3.232 7.24 7.24v19.782c0 10.99-8.921 19.911-19.782 19.911v0zM370.554 665.471c0 0.388 0.259 0.646 0.646 0.646h62.19c0.388 0 0.646-0.259 0.646-0.646v-17.713h-63.612v17.713zM272.42 564.752h40.339v-303.321h-18.489v213.463c0 20.558-16.679 37.366-37.236 37.366v36.978c0 8.533 6.853 15.515 15.386 15.515v0zM191.095 261.43v213.463c0 12.541 10.214 22.885 22.885 22.885h42.925c12.541 0 22.885-10.214 22.885-22.885v-213.463h-88.695zM327.37 564.752h49.002c8.533 0 15.515-6.982 15.515-15.515v-162.392h-19.653c-16.679 0-30.255-13.576-30.255-30.255v-95.16h-14.61v303.321zM356.461 261.43v95.16c0 8.663 7.111 15.644 15.644 15.644h53.915c8.663 0 15.644-7.111 15.644-15.644v-95.16h-85.204zM491.96 464.679h58.958v-25.341h-58.958v25.341zM491.96 424.727h58.958v-14.093h-58.958v14.093zM550.917 493.253v-14.093h-58.958v14.093h58.958zM491.96 396.154h58.958v-134.723h-58.958v134.723z" />
<glyph unicode="&#xe943;" glyph-name="icon-13" horiz-adv-x="791" d="M643.879 413.091c0 32.84-14.998 63.095-40.986 83.006-14.739 11.378-23.661 29.349-23.661 48.226v24.307h7.499c8.792 0 15.903 7.111 15.903 15.903v9.826c0 8.792-7.111 15.903-15.903 15.903h-94.901c-8.792 0-15.903-7.111-15.903-15.903v-9.826c0-8.792 7.111-15.903 15.903-15.903h7.499v-23.661c0-19.265-8.921-37.624-23.79-49.131-12.412-9.568-22.626-21.851-29.608-35.814-2.715 10.861-4.137 22.109-4.137 33.487v95.677h6.465c7.24 0 13.059 5.947 13.059 13.059v15.386c0 7.24-5.818 13.059-13.059 13.059h-58.57c-4.008 0-7.24-3.232-7.24-7.24s3.232-7.24 7.24-7.24h57.147v-12.541c-13.059 0-92.315 0-102.529 0v12.541h16.291c4.008 0 7.24 3.232 7.24 7.24s-3.232 7.24-7.24 7.24h-17.713c-7.24 0-13.059-5.818-13.059-13.059v-15.386c0-7.24 5.818-13.059 13.059-13.059h6.465v-95.677c0-11.378-1.422-22.497-4.137-33.358-7.111 13.964-17.325 26.246-29.737 35.943-14.739 11.378-23.661 29.349-23.661 48.226v24.307h7.499c8.792 0 15.903 7.111 15.903 15.903v9.826c0 8.792-7.111 15.903-15.903 15.903h-94.901c-8.792 0-15.903-7.111-15.903-15.903v-9.826c0-8.792 7.111-15.903 15.903-15.903h7.499v-23.661c0-19.265-8.921-37.624-23.79-49.131-25.341-19.523-40.21-49.002-40.857-80.937-0.646-30.901 12.541-60.38 35.943-80.808 1.422-1.164 3.103-1.81 4.784-1.81 2.069 0 4.008 0.776 5.43 2.457 2.586 2.974 2.327 7.628-0.646 10.214-20.17 17.713-31.547 43.055-31.030 69.56 0.517 27.539 13.317 52.881 35.168 69.689 18.489 14.222 29.479 36.848 29.479 60.638v23.661h50.812v-24.307c0-23.402 10.99-45.77 29.349-59.863 14.998-11.378 25.988-27.41 31.418-45.382-2.327-5.301-4.913-10.343-7.887-15.386-2.844 20.558-13.446 39.046-30.255 51.976-3.491 2.715-6.853 5.689-9.826 8.921-3.62 3.749-8.663 5.947-13.834 5.947h-48.614c-5.301 0-10.343-2.198-13.964-5.947-3.103-3.232-6.335-6.206-9.826-8.921-19.135-14.739-30.384-36.978-30.901-61.156-0.388-21.075 7.499-41.115 22.368-56.501 15.774-16.291 37.883-25.6 61.931-24.048-2.198-3.491-3.749-7.24-4.913-11.119-13.188 0-25.471 2.715-36.719 7.758-3.62 1.681-8.016 0-9.568-3.749-1.681-3.62 0-8.016 3.62-9.568 12.541-5.56 26.117-8.792 40.986-8.921 0.259-5.818 1.681-11.507 4.267-17.067 7.628-16.42 23.531-26.505 41.503-26.505h198.335c18.101 0 34.004 10.214 41.503 26.505 2.586 5.56 4.008 11.378 4.267 17.067 27.152 0.259 52.752 10.99 72.145 30.125 20.17 20.17 31.289 46.545 31.289 74.731v0zM204.541 583.37c-0.776 0-1.293 0.646-1.293 1.293v9.826c0 0.776 0.646 1.293 1.293 1.293h94.901c0.776 0 1.293-0.646 1.293-1.293v-9.826c0-0.776-0.646-1.293-1.293-1.293-13.576 0-81.325 0-94.901 0v0zM490.537 584.792v9.826c0 0.776 0.646 1.293 1.293 1.293h94.901c0.776 0 1.293-0.646 1.293-1.293v-9.826c0-0.776-0.646-1.293-1.293-1.293-10.343 0-80.291 0-94.901 0-0.776-0.129-1.293 0.517-1.293 1.293v0zM205.705 368.356c-12.154 12.541-18.618 28.832-18.23 46.028 0.388 19.653 9.568 37.883 25.212 49.907 4.137 3.103 8.016 6.723 11.636 10.473 0.776 0.905 2.069 1.422 3.362 1.422h48.614c1.293 0 2.457-0.517 3.362-1.422 3.62-3.749 7.499-7.24 11.507-10.473 16.162-12.283 25.341-31.030 25.341-51.2 0-2.974-0.259-6.077-0.646-9.18l-44.606-52.364c-22.497-6.982-47.838-1.552-65.552 16.808v0zM523.119 297.632c-5.172-11.119-16.032-18.101-28.315-18.101h-198.335c-12.283 0-23.143 6.982-28.315 18.101s-3.362 23.919 4.525 33.358l55.208 64.776c0.129 0.129 0.129 0.259 0.259 0.259l0.129 0.129c0 0 0 0 0 0 23.014 27.281 35.814 61.931 35.814 97.616v95.677h63.224v-95.677c0-59.863 34.909-96.065 35.814-97.616 61.931-72.792 55.079-64.646 55.596-65.164 7.887-9.438 9.568-22.238 4.396-33.358v0zM538.893 323.103c-1.164 3.879-2.715 7.628-4.913 11.119 23.661-1.552 46.675 7.24 63.224 25.083 2.715 2.974 2.586 7.499-0.388 10.343-2.974 2.715-7.499 2.586-10.214-0.388-16.291-17.584-42.279-25.341-66.586-17.713l-44.606 52.364c-0.517 3.491-0.776 6.982-0.646 10.473 0.388 19.653 9.568 37.883 25.212 49.907 4.137 3.103 8.016 6.723 11.636 10.473 0.776 0.905 2.069 1.422 3.362 1.422h48.614c1.293 0 2.457-0.517 3.362-1.422 3.62-3.749 7.499-7.24 11.507-10.473 16.162-12.283 25.341-31.030 25.341-51.2 0-7.37-1.293-14.61-3.62-21.592-1.293-3.749 0.646-7.887 4.396-9.309 3.749-1.293 7.887 0.646 9.309 4.396 2.974 8.404 4.525 17.325 4.525 26.376 0 24.824-11.378 47.709-31.030 62.836-3.491 2.715-6.853 5.689-9.826 8.921-3.62 3.749-8.663 5.947-13.834 5.947h-48.614c-5.301 0-10.343-2.198-13.964-5.947-3.103-3.232-6.335-6.206-9.826-8.921-16.679-12.8-27.41-31.418-30.255-51.846-2.974 4.913-5.56 10.085-7.887 15.386 5.43 17.842 16.42 33.875 31.289 45.253 18.489 14.222 29.479 36.848 29.479 60.638v23.661h50.812v-24.307c0-23.402 10.99-45.77 29.349-59.863 22.497-17.196 35.297-43.313 35.297-71.499 0-24.307-9.568-47.063-26.764-64.129-17.196-16.937-39.822-26.117-63.741-25.988v0zM511.224 324.655l-55.208 64.776c-17.972 21.075-30.125 46.545-35.426 73.697-1.164 5.947-6.335 10.214-12.412 10.214h-25.083c-6.077 0-11.248-4.267-12.412-10.214-5.301-27.152-17.584-52.752-35.426-73.697l-55.208-64.776c-5.56-6.594-6.723-15.127-3.103-23.014s10.861-12.541 19.523-12.541h198.335c18.36 0 28.315 21.463 16.42 35.556v0zM501.139 307.717c-1.293-2.715-3.362-4.008-6.335-4.008h-198.335c-2.974 0-5.042 1.422-6.335 4.008-1.293 2.715-0.905 5.172 1.034 7.37l55.208 64.776c19.135 22.497 32.453 49.778 38.4 78.739h21.851c5.947-29.091 19.135-56.242 38.4-78.739l55.208-64.776c1.81-2.198 2.198-4.655 0.905-7.37v0z" />
<glyph unicode="&#xe944;" glyph-name="icon-14" horiz-adv-x="791" d="M318.966 572.768c4.008 0 7.24 3.232 7.24 7.24v9.18c0 4.008-3.232 7.24-7.24 7.24s-7.24-3.232-7.24-7.24v-9.18c0-4.008 3.232-7.24 7.24-7.24v0zM398.998 563.329c-2.844 2.844-7.37 2.844-10.214 0l-6.465-6.465c-2.844-2.844-2.844-7.499 0-10.214 2.844-2.844 7.37-2.844 10.214 0l6.465 6.465c2.844 2.844 2.844 7.37 0 10.214v0zM424.857 476.057c4.008 0 7.24 3.232 7.24 7.24s-3.232 7.24-7.24 7.24h-9.18c-4.008 0-7.24-3.232-7.24-7.24s3.232-7.24 7.24-7.24h9.18zM392.404 420.073c-2.844 2.844-7.37 2.844-10.214 0s-2.844-7.37 0-10.214l6.465-6.465c1.422-1.422 3.232-2.069 5.172-2.069 1.81 0 3.749 0.646 5.172 2.069 2.844 2.844 2.844 7.37 0 10.214l-6.594 6.465zM326.206 386.586c0 4.008-3.232 7.24-7.24 7.24s-7.24-3.232-7.24-7.24v-9.18c0-4.008 3.232-7.24 7.24-7.24s7.24 3.232 7.24 7.24v9.18zM238.933 403.265c1.422-1.422 3.232-2.069 5.172-2.069 1.81 0 3.749 0.776 5.172 2.069l6.465 6.465c2.844 2.844 2.844 7.499 0 10.214-2.844 2.844-7.37 2.844-10.214 0l-6.465-6.465c-2.974-2.715-2.974-7.37-0.129-10.214v0zM213.075 490.537c-4.008 0-7.24-3.232-7.24-7.24s3.232-7.24 7.24-7.24h9.18c4.008 0 7.24 3.232 7.24 7.24s-3.232 7.24-7.24 7.24h-9.18zM255.741 546.521c2.844 2.844 2.844 7.37 0 10.214l-6.465 6.465c-2.844 2.844-7.37 2.844-10.214 0s-2.844-7.499 0-10.214l6.465-6.465c2.715-2.844 7.37-2.844 10.214 0v0zM639.483 357.236l-13.446 5.818-6.723 16.42 5.301 13.576c1.034 2.715 0.388 5.689-1.681 7.758l-16.032 16.032c-2.069 2.069-5.042 2.715-7.758 1.681l-13.446-5.43-16.42 6.723-5.818 13.446c-1.164 2.586-3.749 4.396-6.594 4.396h-22.626c-2.844 0-5.56-1.681-6.594-4.396l-5.818-13.446-16.42-6.723-13.576 5.301c-2.715 1.034-5.689 0.388-7.758-1.681l-16.032-16.032c-2.069-2.069-2.715-5.042-1.681-7.758l5.301-13.576-6.723-16.42-13.446-5.818c-2.586-1.164-4.396-3.749-4.396-6.594v-22.626c0-2.844 1.681-5.43 4.396-6.594l13.446-5.818 6.723-16.42-5.301-13.576c-1.034-2.715-0.388-5.689 1.681-7.758l16.032-16.032c2.069-2.069 5.042-2.715 7.758-1.681l13.576 5.301 16.42-6.723 5.818-13.446c1.164-2.586 3.749-4.396 6.594-4.396h22.626c2.844 0 5.56 1.681 6.594 4.396l5.818 13.446 16.42 6.723 13.576-5.301c2.715-1.034 5.689-0.388 7.758 1.681l16.032 16.032c2.069 2.069 2.715 5.042 1.681 7.758l-5.301 13.576 6.723 16.42 13.446 5.818c2.586 1.164 4.396 3.749 4.396 6.594v22.626c-0.129 2.974-1.81 5.56-4.525 6.723v0zM629.398 332.671l-11.766-5.172c-1.681-0.776-3.103-2.198-3.749-3.879l-9.051-21.721c-0.776-1.681-0.776-3.62 0-5.43l4.655-11.895-9.309-9.309-11.895 4.655c-1.81 0.646-3.749 0.646-5.43 0l-21.721-9.051c-1.681-0.776-3.103-2.069-3.879-3.749l-5.172-11.766h-13.188l-5.172 11.766c-0.776 1.681-2.198 3.103-3.879 3.749l-21.721 9.051c-1.681 0.776-3.62 0.776-5.43 0l-11.895-4.655-9.309 9.309 4.655 11.895c0.646 1.81 0.646 3.749 0 5.43l-9.051 21.721c-0.776 1.681-2.069 3.103-3.749 3.879l-11.766 5.172v13.188l11.766 5.172c1.681 0.776 3.103 2.198 3.749 3.879l9.051 21.721c0.776 1.681 0.776 3.62 0 5.43l-4.655 11.895 9.309 9.309 11.895-4.655c1.81-0.646 3.749-0.646 5.43 0l21.721 9.051c1.681 0.776 3.103 2.069 3.879 3.749l5.172 11.766h13.188l5.172-11.766c0.776-1.681 2.198-3.103 3.879-3.749l21.721-9.051c1.681-0.776 3.62-0.776 5.43 0l11.895 4.655 9.309-9.309-4.655-11.895c-0.646-1.681-0.646-3.749 0-5.43l9.051-21.721c0.776-1.681 2.069-3.103 3.749-3.879l11.766-5.172v-13.188zM545.487 370.424c12.671 0 24.048-7.628 28.832-19.394 1.552-3.749 5.689-5.43 9.438-4.008 3.749 1.552 5.43 5.689 4.008 9.438-7.111 17.325-23.661 28.444-42.279 28.444-25.212 0-45.64-20.428-45.64-45.64s20.428-45.64 45.64-45.64c18.618 0 35.297 11.119 42.279 28.444 1.552 3.749-0.259 7.887-4.008 9.438s-7.887-0.259-9.438-4.008c-4.784-11.766-16.162-19.394-28.832-19.394-17.196 0-31.16 13.964-31.16 31.16s13.964 31.16 31.16 31.16v0zM318.966 406.885c42.149 0 76.412 34.263 76.412 76.412 0 35.814-25.471 67.362-60.509 74.731-3.879 0.776-7.758-1.681-8.663-5.56-0.776-3.879 1.681-7.758 5.56-8.663 28.315-6.077 49.002-31.547 49.002-60.638 0-34.133-27.798-61.931-61.931-61.931s-61.931 27.798-61.931 61.931c0 29.091 20.558 54.562 49.002 60.638 3.879 0.776 6.465 4.655 5.56 8.663-0.776 3.879-4.655 6.465-8.663 5.56-35.038-7.499-60.509-38.917-60.509-74.731 0.129-42.149 34.521-76.412 76.671-76.412v0zM456.275 384.259l-10.473 26.634 13.964 33.875 26.246 11.507c2.586 1.164 4.396 3.749 4.396 6.594v40.857c0 2.844-1.681 5.43-4.396 6.594l-26.246 11.507-13.964 33.875 10.473 26.634c1.034 2.715 0.388 5.689-1.681 7.758l-28.832 28.832c-2.069 2.069-5.042 2.715-7.758 1.681l-26.634-10.473-33.875 13.964-11.507 26.246c-1.164 2.586-3.749 4.396-6.594 4.396h-40.857c-2.844 0-5.56-1.681-6.594-4.396l-11.507-26.246-33.875-13.964-26.634 10.473c-2.715 1.034-5.689 0.388-7.758-1.681l-28.962-28.703c-2.069-2.069-2.715-5.042-1.681-7.758l10.473-26.634-13.964-33.875-26.246-11.507c-2.586-1.164-4.396-3.749-4.396-6.594v-40.857c0-2.844 1.681-5.43 4.396-6.594l26.246-11.507 13.964-33.875-10.473-26.634c-1.034-2.715-0.388-5.689 1.681-7.758l28.832-28.832c2.069-2.069 5.042-2.715 7.758-1.681l26.634 10.473 33.875-13.964 11.507-26.246c1.164-2.586 3.749-4.396 6.594-4.396h5.947c4.008 0 7.24 3.232 7.24 7.24s-3.232 7.24-7.24 7.24h-1.164l-10.731 24.566c-0.776 1.681-2.198 3.103-3.879 3.749l-39.176 16.291c-1.681 0.776-3.62 0.776-5.43 0l-24.954-9.826-22.238 22.109 9.826 24.954c0.646 1.81 0.646 3.749 0 5.43l-16.291 39.176c-0.776 1.681-2.069 3.103-3.749 3.879l-24.566 10.731v31.289l24.566 10.731c1.681 0.776 3.103 2.198 3.749 3.879l16.291 39.176c0.776 1.681 0.776 3.62 0 5.43l-9.826 24.954 22.109 22.109 24.954-9.826c1.81-0.646 3.749-0.646 5.43 0l39.176 16.291c1.681 0.776 3.103 2.069 3.879 3.749l10.731 24.566h31.289l10.731-24.566c0.776-1.681 2.198-3.103 3.879-3.749l39.176-16.291c1.681-0.776 3.62-0.776 5.43 0l24.954 9.826 22.109-22.109-9.826-24.954c-0.646-1.81-0.646-3.749 0-5.43l16.291-39.176c0.776-1.681 2.069-3.103 3.749-3.879l24.566-10.731v-31.289l-24.566-10.731c-1.681-0.776-3.103-2.198-3.749-3.879l-16.291-39.176c-0.776-1.681-0.776-3.62 0-5.43l9.826-24.954-21.721-22.109-24.954 9.826c-1.81 0.646-3.749 0.646-5.43 0l-39.176-16.291c-1.681-0.776-3.103-2.069-3.879-3.749l-10.731-24.566h-1.164c-4.008 0-7.24-3.232-7.24-7.24s3.232-7.24 7.24-7.24h5.947c2.844 0 5.43 1.681 6.594 4.396l11.507 26.246 33.875 13.964 26.634-10.473c2.715-1.034 5.689-0.388 7.758 1.681l28.832 28.832c1.939 1.939 2.586 4.913 1.552 7.628v0z" />
<glyph unicode="&#xe945;" glyph-name="icon-15" horiz-adv-x="791" d="M353.616 502.562v-6.465c0-4.008 3.232-7.24 7.24-7.24s7.24 3.232 7.24 7.24v6.465c0 4.008-3.232 7.24-7.24 7.24-3.879 0-7.24-3.232-7.24-7.24v0zM421.624 502.562v-6.465c0-4.008 3.232-7.24 7.24-7.24s7.24 3.232 7.24 7.24v6.465c0 4.008-3.232 7.24-7.24 7.24s-7.24-3.232-7.24-7.24v0zM440.889 332.283h32.84c4.008 0 7.24 3.232 7.24 7.24s-3.232 7.24-7.24 7.24h-32.84c-4.008 0-7.24-3.232-7.24-7.24s3.232-7.24 7.24-7.24v0zM406.885 468.17c-8.275-5.689-15.644-5.689-23.919 0-3.362 2.327-7.887 1.422-10.085-1.939-2.327-3.362-1.422-7.887 1.939-10.085 6.594-4.525 13.317-6.723 20.17-6.723 6.723 0 13.576 2.327 20.17 6.723 3.362 2.327 4.137 6.853 1.939 10.085-2.457 3.362-6.982 4.267-10.214 1.939v0zM410.893 605.608c4.008 0 7.24 3.232 7.24 7.24s-3.232 7.24-7.24 7.24h-32.065c-4.008 0-7.24-3.232-7.24-7.24s3.232-7.24 7.24-7.24h32.065zM455.628 429.123c5.301 5.301 10.085 11.378 13.964 18.101 1.939 3.491 0.776 7.887-2.715 9.956-3.491 1.939-7.887 0.776-9.956-2.715-12.8-22.238-36.59-36.073-62.061-36.073-39.434 0-71.499 32.065-71.499 71.499v50.941h143.127v-50.941c0-3.362-0.259-6.853-0.776-10.343-0.517-4.008 2.198-7.628 6.206-8.275s7.628 2.198 8.275 6.206c0.646 4.137 0.905 8.404 0.905 12.412v50.941h11.895c9.309 0 16.808 7.499 16.808 16.808v13.964c0 9.309-7.499 16.808-16.808 16.808h-7.111v2.457c0 33.616-18.36 63.095-45.64 78.869l0.646 1.034c2.069 3.491 1.034 7.887-2.457 9.956-3.362 2.069-7.887 1.034-9.956-2.457l-1.422-2.327c-7.758 2.974-16.162 4.913-24.824 5.56v7.24c0 4.008-3.232 7.24-7.24 7.24s-7.24-3.232-7.24-7.24v-7.24c-8.533-0.646-16.808-2.586-24.695-5.56l-1.422 2.327c-2.069 3.491-6.594 4.525-9.956 2.457s-4.525-6.594-2.457-9.956l0.646-1.034c-8.145-4.655-15.644-10.602-21.98-17.713-2.715-2.974-2.457-7.628 0.517-10.214s7.628-2.457 10.214 0.517c5.56 6.077 11.895 11.119 18.877 15.127 1.422-1.681 3.491-2.586 5.56-2.586 1.293 0 2.586 0.388 3.749 1.034 2.586 1.552 3.749 4.396 3.362 7.24 5.689 1.939 11.507 3.232 17.584 3.879v-4.525c0-4.008 3.232-7.24 7.24-7.24s7.24 3.232 7.24 7.24v4.525c6.077-0.517 12.024-1.939 17.584-3.749-0.388-2.844 0.905-5.689 3.362-7.24 1.164-0.776 2.457-1.034 3.749-1.034 2.069 0 4.137 0.905 5.56 2.586 23.143-13.188 38.788-38.012 38.788-66.457v-2.457h-152.824v2.457c0 9.956 1.939 19.782 5.689 28.962 1.552 3.749-0.259 8.016-4.008 9.438-3.749 1.552-8.016-0.259-9.438-4.008-4.525-10.99-6.723-22.626-6.723-34.392v-2.457h-7.111c-9.309 0-16.808-7.499-16.808-16.808v-13.964c0-9.309 7.499-16.808 16.808-16.808h11.895v-50.941c0-23.79 9.697-45.382 25.341-60.897-32.711-6.723-57.406-35.814-57.406-70.465v-141.317c0-9.697 7.887-17.455 17.455-17.455h28.962c4.008 0 7.24 3.232 7.24 7.24s-3.232 7.24-7.24 7.24h-28.962c-1.681 0-2.974 1.293-2.974 2.974v35.297h96.323v-38.271h-35.426c-4.008 0-7.24-3.232-7.24-7.24s3.232-7.24 7.24-7.24h143.386c9.697 0 17.455 7.887 17.455 17.455 0 14.352 0 124.121 0 141.317 0.129 34.521-24.436 63.483-57.277 70.335v0zM294.659 557.77v13.964c0 1.293 1.034 2.198 2.198 2.198h196.137c1.293 0 2.198-1.034 2.198-2.198v-13.964c0-1.293-1.034-2.198-2.198-2.198-8.921 0-181.398 0-196.137 0-1.293 0-2.198 1.034-2.198 2.198v0zM441.147 416.065c31.677 0 57.406-25.729 57.406-57.406v-65.164h-96.453v20.816l24.695 95.806c4.137 1.681 8.145 3.62 12.024 5.947h2.327zM498.554 267.119h-96.453v11.895h96.323v-11.895zM410.634 405.333l-15.774-61.026-15.644 61.026c10.343-1.939 20.945-1.939 31.418 0v0zM348.703 416.065h2.198c3.879-2.327 7.887-4.267 12.024-5.947l24.695-95.806v-20.816h-96.323v65.164c-0.129 31.677 25.729 57.406 57.406 57.406v0zM291.168 278.885h96.323v-11.895h-96.323v11.895zM495.58 214.238h-93.479v38.271h96.323v-35.297c0.129-1.552-1.164-2.974-2.844-2.974v0z" />
<glyph unicode="&#xe946;" glyph-name="icon-16" horiz-adv-x="791" d="M252.897 199.758c-2.844 10.861-0.776 22.497 5.818 31.935l70.723 100.719-39.822 55.337c-1.939 2.715-4.913 4.008-7.887 4.008s-5.947-1.293-7.887-4.008l-124.509-172.606c-4.655-6.465 0-15.386 7.887-15.386h95.677zM476.832 490.279v50.812h121.147c5.301 0 10.214 2.844 12.671 7.499 2.586 4.655 2.457 10.214-0.388 14.739l-25.341 40.857 25.341 40.857c2.844 4.525 2.974 10.085 0.388 14.739s-7.37 7.499-12.671 7.499h-121.147v14.481c0 8.016-6.465 14.481-14.481 14.481s-14.481-6.465-14.481-14.481v-191.354c8.145 9.051 20.428 9.18 28.962-0.129v0zM541.996 357.624l-34.78-32.323c-2.844-2.586-6.335-3.879-9.956-3.879s-7.111 1.293-9.956 3.879l-25.212 23.402-25.212-23.402c-5.56-5.172-14.222-5.172-19.782 0l-34.78 32.323-100.073-142.61c-4.525-6.465 0.129-15.257 7.887-15.257h343.79c7.887 0 12.412 8.792 7.887 15.257l-99.814 142.61zM427.184 355.814l25.212 23.402c5.56 5.172 14.222 5.172 19.782 0l25.212-23.402 28.057 25.471-55.208 78.61c-1.939 2.715-4.913 4.137-7.887 4.137s-5.947-1.422-7.887-4.137l-55.208-78.61 27.927-25.471z" />
<glyph unicode="&#xe947;" glyph-name="icon-17" horiz-adv-x="791" d="M629.269 228.848h-15.515v287.030c0 8.016-6.465 14.481-14.481 14.481h-58.182c-8.016 0-14.481-6.465-14.481-14.481v-287.030h-29.091v190.061c0 8.016-6.465 14.481-14.481 14.481h-58.182c-8.016 0-14.481-6.465-14.481-14.481v-190.061h-29.091v136.663c0 8.016-6.465 14.481-14.481 14.481h-58.182c-8.016 0-14.61-6.465-14.61-14.481v-136.792h-29.091v101.883c0 8.016-6.465 14.481-14.481 14.481h-58.182c-8.016 0-14.481-6.465-14.481-14.481v-101.883h-15.515c-8.016 0-14.481-6.465-14.481-14.481s6.465-14.481 14.481-14.481h467.394c8.016 0 14.481 6.465 14.481 14.481-0.259 8.145-6.723 14.61-14.869 14.61v0zM161.875 383.741c90.764 0 189.285 32.582 277.204 91.798 68.913 46.416 126.319 105.632 162.004 166.271l14.093-52.752c1.681-6.465 10.214-12.154 17.842-10.343 7.758 1.81 12.412 10.085 10.343 17.842l-23.79 88.954c-2.069 7.758-10.085 12.412-17.842 10.343l-88.824-23.79c-7.758-2.069-12.412-10.085-10.343-17.842s10.085-12.412 17.842-10.343l57.277 15.386c-33.228-57.794-88.307-114.812-154.764-159.547-83.265-55.984-175.968-86.885-260.913-86.885-8.016 0-14.481-6.465-14.481-14.481-0.129-8.145 6.335-14.61 14.352-14.61v0z" />
<glyph unicode="&#xe948;" glyph-name="icon-18" horiz-adv-x="791" d="M424.727 501.269c0-16.032-13.059-29.091-29.091-29.091s-29.091 13.059-29.091 29.091 13.059 29.091 29.091 29.091c16.032 0.129 29.091-12.929 29.091-29.091v0zM630.303 486.4l-47.192 0.129c-6.077 0-11.378 4.137-13.059 9.956-3.879 14.093-9.438 27.539-16.549 40.081-2.974 5.301-2.069 12.024 2.198 16.291l33.487 33.358c5.301 5.301 5.301 13.834 0 19.135l-35.556 35.685c-5.301 5.301-13.834 5.301-19.135 0l-33.487-33.358c-4.267-4.267-10.99-5.172-16.291-2.198-12.541 7.111-25.988 12.671-40.081 16.679-5.818 1.681-9.956 6.982-9.956 13.059l0.129 47.192c0 7.499-6.077 13.576-13.576 13.576l-50.424 0.129c-7.499 0-13.576-6.077-13.576-13.576l-0.129-47.192c0-6.077-4.137-11.378-9.956-13.059-14.093-3.879-27.539-9.438-40.081-16.549-5.301-2.974-11.895-2.069-16.291 2.198l-33.358 33.487c-5.301 5.301-13.834 5.301-19.135 0l-35.685-35.556c-5.301-5.301-5.301-13.834 0-19.135l33.358-33.487c4.267-4.267 5.172-10.99 2.198-16.291-7.111-12.541-12.671-25.988-16.679-40.081-1.681-5.818-6.982-9.956-13.059-9.956l-47.192 0.129c-7.499 0-13.576-6.077-13.576-13.576l-0.129-50.424c0-7.499 6.077-13.576 13.576-13.576l47.192-0.129c6.077 0 11.378-4.137 13.059-9.956 3.879-14.093 9.438-27.539 16.549-40.081 2.974-5.301 2.069-12.024-2.198-16.291l-33.487-33.358c-5.301-5.301-5.301-13.834 0-19.135l35.556-35.685c5.301-5.301 13.834-5.301 19.135 0l33.487 33.358c4.267 4.267 10.99 5.172 16.291 2.198 12.541-7.111 25.988-12.671 40.081-16.679 5.818-1.681 9.956-6.982 9.956-13.059l-0.129-47.192c0-7.499 6.077-13.576 13.576-13.576l50.424-0.129c7.499 0 13.576 6.077 13.576 13.576l0.129 47.192c0 6.077 4.137 11.378 9.956 13.059 14.093 3.879 27.539 9.438 40.081 16.549 5.301 2.974 12.024 2.069 16.291-2.198l33.358-33.487c5.301-5.301 13.834-5.301 19.135 0l35.685 35.556c5.301 5.301 5.301 13.834 0 19.135l-33.358 33.487c-4.267 4.267-5.172 10.99-2.198 16.291 7.111 12.541 12.671 25.988 16.679 40.081 1.681 5.818 6.982 9.956 13.059 9.956l47.192-0.129c7.499 0 13.576 6.077 13.576 13.576l0.129 50.424c0 7.37-6.077 13.446-13.576 13.576v0zM483.556 365.64c-4.913-6.206-12.154-9.826-20.040-9.826h-135.758c-7.887 0-15.257 3.62-20.040 9.826-4.913 6.206-6.594 14.222-4.655 21.851l10.085 40.598c4.655 18.618 17.842 33.099 34.78 39.952-6.594 9.438-10.473 20.945-10.473 33.228 0 32.065 26.117 58.182 58.182 58.182s58.182-26.117 58.182-58.182c0-12.412-3.879-23.79-10.473-33.228 16.937-6.853 30.125-21.333 34.78-39.952l10.085-40.598c1.939-7.628 0.259-15.644-4.655-21.851v0zM421.624 443.087h-51.976c-13.446 0-24.954-9.051-28.186-22.109l-9.051-36.073h126.448l-9.051 36.073c-3.232 13.059-14.869 22.109-28.186 22.109v0z" />
<glyph unicode="&#xe949;" d="M374.4 123.6c12-8.6 28.4-7.4 38.8 3.2l300 300c7.4 7.4 10.4 18 8 28-2.4 10.2-9.8 18.2-19.8 21.6l-147.2 49 104.6 209c6.6 13.2 2.6 29.2-9.2 37.8-12 8.6-28.4 7.2-38.8-3.2l-300-300c-7.4-7.4-10.4-18-8-28 2.4-10.2 9.8-18.2 19.8-21.6l147.2-49-104.6-209c-6.6-13.2-2.6-29.2 9.2-37.8z" />
<glyph unicode="&#xe94a;" d="M964 448c0-16.6 13.4-30 30-30s30 13.4 30 30c0 281.2-230.8 512-512 512-152.2 0-296-70.8-392-185v33c0 16.6-13.4 30-30 30s-30-13.4-30-30v-127.4c0-28.6 37-32.8 30-30 0.6 0 1.2 0 1.8 0l120 7.4c16.6 1 29.2 15.2 28 31.8-1 16.6-15.4 29-31.8 28l-60.8-3.8c84.4 114.6 220.6 186 364.8 186 248.2 0 452-203.8 452-452z" />
<glyph unicode="&#xe94b;" d="M512-64c152.2 0 296 70.8 392 185v-33c0-16.6 13.4-30 30-30s30 13.4 30 30v127.4c0 16.4-15.8 30.8-31.8 30l-120-7.4c-16.6-1-29.2-15.2-28-31.8 1-16.6 15.8-29.2 31.8-28l60.8 3.8c-84.4-114.6-220.6-186-364.8-186-248.2 0-452 203.8-452 452 0 16.6-13.4 30-30 30s-30-13.4-30-30c0-281.2 230.8-512 512-512z" />
<glyph unicode="&#xe94c;" glyph-name="icon-20" d="M512 418c49.6 0 90 40.4 90 90s-40.4 90-90 90-90-40.4-90-90 40.4-90 90-90zM30-64c342.6 0 625.2 0 964 0 16.6 0 30 13.4 30 30s-13.4 30-30 30h-337l-69.4 383.2c-22.4-13.2-48-21.2-75.8-21.2s-53.4 8-75.8 21.2l-69-383.2h-337c-16.6 0-30-13.4-30-30s13.4-30 30-30zM122.8 282.4c11.4-19.2 32.4-26.6 57.4-26.6 62.8 0 151.4 45.2 184 63.2l20.2 111.2c-14 22.6-22.6 49.2-22.6 77.8 0 4 0.8 7.8 1.2 11.8-25.4-10.8-51.6-23.6-78-38.8-13.6-7.8-93.6-55.4-138.6-108.4-28 75.2-32.4 157-11.2 236.2 4.2 16-5.2 32.4-21.2 36.8-15.8 4.2-32.4-5.2-36.8-21.2-31.2-116.2-15.2-237.6 44.8-341.4 0.4-0.2 0.8-0.4 0.8-0.6zM512 658c31.4 0 60.6-9.8 84.6-26.4 3.4 27.2 5.4 56.2 5.4 86.4 0 15.6-1.2 110.6-24.4 176.2 79-13.4 152-50.4 210.2-108.6 11.8-11.8 30.8-11.8 42.4 0s11.8 30.8 0 42.4c-85 85-198 132-318 132-87.4 0-90-217.4-90-242 0-30.2 2-59.2 5.4-86.4 23.8 16.6 53 26.4 84.4 26.4zM660.8 519.8c0.4-4 1.2-7.8 1.2-11.8 0-28.6-8.4-55.2-22.6-77.8l20.2-110.8c47.4-26.4 94.8-46.4 134.4-56.4 6.4-1.6 12-2.6 17.8-3.6-34-41.2-75.8-75-123.4-99l11-61c84.4 38.4 154.8 101.6 202.2 183.4 0 0 0 0 0 0 0.2 0.2 0.2 0.6 0.2 0.8 18.2 33.8-10 75-36.6 102.6-30.6 31.6-75.4 65.2-126.4 94.6-26.2 15.4-52.6 28.2-78 39z" />
<glyph unicode="&#xe94d;" glyph-name="icon-21" d="M323.2 628h-286.8l-13.2-120h294zM629.8 868h-234.8l-8.8-180h252.8zM651.2 448h-277l-8.8-180h295zM642 628h-258.8l-6-120h271zM708.2 508h292.6l-13.2 120h-285.6zM720.4 268h273.6c8.6 0 16.6 3.6 22.4 10 5.6 6.4 8.4 14.8 7.4 23.4l-16.2 146.6h-296.4l9.2-180zM980.8 688l-17 153.4c-1.8 15.2-14.6 26.6-29.8 26.6h-244.2l9.2-180h281.8zM30 268h275.2l9 180h-297.8l-16.2-146.6c-1-8.4 1.8-17 7.4-23.4 5.8-6.4 13.8-10 22.4-10zM335 868h-245c-15.2 0-28.2-11.4-29.8-26.6l-17-153.4h283l8.8 180zM692 88h-36.6l-30 120h-226.8l-30-120h-36.6c-16.6 0-30-13.4-30-30s13.4-30 30-30h360c16.6 0 30 13.4 30 30s-13.4 30-30 30z" />
<glyph unicode="&#xe94e;" glyph-name="icon-22" d="M994 118c-67 0-104.4-17.6-135.4-33.2-15.8-8-30.8-15.4-49.8-20.4-16.6-4.4-35.2-6.4-56.6-6.4-53 0-77.8 12.4-106.6 26.8-31 15.6-66.4 33.2-133.4 33.2s-102.4-17.6-133.4-33.2c-29-14.4-53.8-26.8-106.8-26.8s-77.8 12.4-106.6 26.8c-31 15.6-68.4 33.2-135.4 33.2-16.6 0-30-13.4-30-30v-122c0-16.6 13.4-30 30-30h964c16.6 0 30 13.4 30 30v122c0 16.6-13.4 30-30 30zM105.6 720h812.8l-4.8 60h-803.2zM662 930v-90h247l-7.2 92.4c-1.2 15.6-14.2 27.6-30 27.6h-180c-16.4 0-29.8-13.4-29.8-30zM122.2 932.4l-7.2-92.4h247v90c0 16.6-13.4 30-30 30h-180c-15.6 0-28.6-12-29.8-27.6zM722 510v-389.6c8.4-1.4 17.8-2.4 30-2.4 11.4 0 21 1 30 2.4v389.6c0 16.6-13.4 30-30 30s-30-13.4-30-30zM960.4 175.8l-37.4 484.2h-822l-37.4-484.2c54.4-4.6 90.8-19.2 118.4-32.4v366.6c0 49.6 40.4 90 90 90s90-40.4 90-90v-366.6c16.2 8 35.6 16.2 60 23v343.6c0 49.6 40.4 90 90 90s90-40.4 90-90v-343.6c24.4-6.6 43.8-15 60-23v366.6c0 49.6 40.4 90 90 90s90-40.4 90-90v-366.6c27.6 13.2 64 27.8 118.4 32.4zM482 510v-334.2c9.8 0.8 18.8 2.2 30 2.2s20.2-1.4 30-2v334c0 16.6-13.4 30-30 30s-30-13.4-30-30zM242 510v-389.6c8.4-1.4 17.8-2.4 30-2.4s21.6 1 30 2.4v389.6c0 16.6-13.4 30-30 30s-30-13.4-30-30z" />
<glyph unicode="&#xe94f;" glyph-name="icon-23" horiz-adv-x="791" d="M381.156 364.865v-150.626c0-8.016 6.465-14.481 14.481-14.481s14.481 6.465 14.481 14.481v150.497c-9.309-2.069-19.394-2.198-28.962 0.129v0zM434.295 478.901c10.473 10.731 16.291 26.376 14.61 42.537l-15.774 153.083c-1.293 12.412-11.636 21.721-24.178 21.721h-25.6c-12.412 0-22.756-9.309-24.048-21.721l-16.42-152.954c-1.681-16.162 4.137-31.935 14.61-42.667 22.885 17.067 54.044 16.937 76.8 0v0zM332.154 435.588c-14.481 3.879-31.289 1.293-44.735-8.404l-124.509-90.246c-10.085-7.37-13.059-20.945-6.723-31.806l12.8-22.238c6.206-10.731 19.394-15.127 30.772-10.085l140.671 62.19c13.834 6.077 24.824 17.972 29.479 33.487-25.341 11.507-41.374 38.271-37.754 67.103v0zM628.493 335.774l-124.251 90.764c-13.188 9.568-29.867 12.412-44.477 8.663 3.491-28.186-12.154-55.337-38.141-66.586 4.267-14.739 14.998-27.281 29.349-33.745l140.541-62.836c11.378-5.042 24.695-0.776 30.901 9.956l12.8 22.238c6.206 10.602 3.232 24.307-6.723 31.547v0zM176.485 439.596c3.879 70.206 41.503 134.853 100.848 173.123 6.723 4.396 8.663 13.317 4.396 20.17-4.396 6.723-13.317 8.663-20.17 4.396-67.103-43.313-109.899-116.622-114.166-196.008-0.388-8.016 5.689-14.869 13.705-15.257 8.016-0.646 14.869 5.43 15.386 13.576v0zM219.022 437.269c-0.517-8.275 6.206-15.386 14.481-15.386 7.628 0 14.093 5.947 14.481 13.705 2.586 47.321 28.057 90.893 68.137 116.752 6.723 4.396 8.663 13.317 4.396 20.17-4.396 6.723-13.317 8.663-20.040 4.396-47.838-30.901-78.352-83.135-81.455-139.636v0zM475.022 552.469c40.081-25.859 65.552-69.56 68.137-116.752 0.388-8.016 7.24-14.222 15.257-13.705 8.016 0.388 14.222 7.24 13.705 15.257-3.103 56.501-33.487 108.735-81.455 139.636-6.723 4.396-15.774 2.457-20.040-4.396-4.267-6.723-2.327-15.774 4.396-20.040v0zM643.879 441.147c-4.396 79.386-47.063 152.695-114.166 196.008-6.723 4.396-15.774 2.457-20.17-4.396-4.396-6.723-2.457-15.774 4.396-20.17 59.345-38.271 97.099-103.046 100.848-173.123 0.388-8.016 7.24-14.222 15.257-13.705 8.145 0.517 14.222 7.37 13.834 15.386v0zM431.063 427.442c0-19.394-15.774-35.168-35.168-35.168s-35.168 15.774-35.168 35.168c0 19.394 15.774 35.168 35.168 35.168 19.523 0 35.168-15.774 35.168-35.168v0z" />
<glyph unicode="&#xe950;" glyph-name="icon-24" horiz-adv-x="791" d="M439.337 651.636h29.091v-29.091h146.36v29.091h29.091v29.091h-204.541v-29.091zM408.695 360.727h-260.913c3.879-34.909 23.919-65.552 49.648-86.626l-19.135-49.002 27.41-9.826 16.679 42.796c13.059-6.465 27.281-10.602 42.408-12.283v-30.513h29.091v30.513c15.127 1.681 29.22 5.947 42.408 12.283l16.679-42.796 27.41 9.826-19.135 49.002c25.729 21.075 43.572 51.717 47.451 86.626v0zM614.788 360.727h29.091v-29.091h-29.091v29.091zM614.788 302.545h29.091v-29.091h-29.091v29.091zM439.337 564.364h-116.364v58.182h-29.091v58.182h-29.091v-58.182h-29.091v-123.863c-47.321-16.679-82.747-59.216-88.178-108.865h261.689c-5.56 49.778-38.788 92.315-86.109 108.865v36.59h116.364v-320h146.23v290.909h58.182v87.273h-204.541v-29.091zM614.788 244.364h29.091v-29.091h-29.091v29.091zM614.788 418.909h29.091v-29.091h-29.091v29.091zM614.788 477.091h29.091v-29.091h-29.091v29.091z" />
<glyph unicode="&#xe951;" glyph-name="icon-25" horiz-adv-x="791" d="M394.99 503.337c45.64 0 82.618 36.978 82.618 82.618s-36.978 82.618-82.618 82.618c-45.64 0-82.618-36.978-82.618-82.618 0.129-45.64 36.978-82.618 82.618-82.618v0zM394.99 644.913c32.582 0 58.958-26.376 58.958-58.958s-26.376-58.958-58.958-58.958c-32.582 0-58.958 26.376-58.958 58.958 0 32.453 26.376 58.828 58.958 58.958v0zM430.416 585.956c0-19.523-15.903-35.426-35.426-35.426s-35.426 15.903-35.426 35.426c0 19.523 15.903 35.426 35.426 35.426 19.523-0.129 35.426-15.903 35.426-35.426v0zM206.222 621.253v-70.853c0-6.465 5.301-11.766 11.766-11.766h43.572c5.689-16.42 14.481-31.677 25.859-44.865l-21.721-37.624c-1.552-2.715-2.069-5.947-1.293-8.921s2.715-5.689 5.43-7.24l61.285-35.426c2.715-1.552 5.947-1.939 8.921-1.164s5.56 2.844 7.111 5.56l21.721 37.624c17.196-3.103 34.78-3.103 51.846 0l21.721-37.624c1.552-2.715 4.137-4.655 7.111-5.56 2.974-0.776 6.206-0.388 8.921 1.164l61.414 35.426c2.715 1.552 4.655 4.137 5.43 7.24 0.776 2.974 0.388 6.206-1.293 8.921l-21.721 37.624c11.378 13.188 20.17 28.444 25.859 44.865h43.572c6.465 0 11.766 5.301 11.766 11.766v70.853c0 6.465-5.301 11.766-11.766 11.766h-43.572c-5.689 16.42-14.481 31.677-25.859 44.865l21.721 37.624c1.552 2.715 2.069 5.947 1.293 8.921s-2.715 5.689-5.43 7.24l-61.414 35.426c-2.715 1.552-5.947 1.939-8.921 1.164s-5.56-2.844-7.111-5.56l-21.721-37.624c-17.196 3.103-34.78 3.103-51.846 0l-21.721 37.624c-1.552 2.715-4.137 4.655-7.111 5.56s-6.206 0.388-8.921-1.164l-61.285-35.426c-2.715-1.552-4.655-4.137-5.43-7.24-0.776-2.974-0.388-6.206 1.293-8.921l21.721-37.624c-11.378-13.188-20.040-28.444-25.859-44.865h-43.572c-6.465 0-11.766-5.172-11.766-11.766v0zM394.99 692.105c58.699 0 106.149-47.58 106.149-106.149 0-58.699-47.58-106.149-106.149-106.149-58.699 0-106.149 47.58-106.149 106.149s47.58 106.020 106.149 106.149v0zM76.412 397.188h58.958c6.465 0 11.766-5.301 11.766-11.766v-247.725c0-6.465-5.301-11.766-11.766-11.766h-58.958c-6.465 0-11.766 5.301-11.766 11.766v247.596c0 6.594 5.301 11.895 11.766 11.895v0zM170.796 373.527v-235.96h286.642c12.929 0 25.729 3.62 36.848 10.343l221.22 134.594c4.913 2.974 8.404 8.016 9.438 13.705s-0.259 11.507-3.749 16.162c-0.259 0.259-0.517 0.646-0.646 1.034-5.43 6.465-14.222 8.921-22.238 6.206l-218.376-72.792c-6.077-2.069-12.283-2.974-18.618-2.974h-104.857c-18.618 0-36.848-5.56-52.364-15.903l-8.663-5.818c-3.491-2.327-8.016-2.715-11.766-0.776-3.749 1.81-6.335 5.689-6.594 9.826-0.259 4.267 1.81 8.275 5.301 10.602l8.663 5.818c19.394 12.929 42.149 19.782 65.422 19.782h71.758c7.499 10.085 8.145 23.531 1.81 34.392l-1.034 1.81c-8.533 14.222-23.919 22.885-40.469 22.885h-61.673c-27.152 0-53.398 9.309-74.602 26.117-17.067 13.576-38.141 20.945-59.863 20.945h-21.592z" />
<glyph unicode="&#xe952;" glyph-name="icon-26" horiz-adv-x="791" d="M247.855 479.547l-99.556-279.661h66.327c6.335 15.515-6.982-17.325 73.438 181.915l-40.21 97.745zM408.824 531.265l-0.129 26.764h156.832v113.778h-157.091l-0.129 24.307-29.091-0.129 0.388-165.236c-134.206-332.8-133.56-330.861-133.56-330.861 0-0.129 296.727-0.129 296.727 0 0.129 0 2.974-7.24-133.947 331.378v0zM540.832 479.547l-40.081-97.745c78.481-194.198 67.362-166.659 73.568-182.044h66.069l-99.556 279.79z" />
<glyph unicode="&#xe953;" glyph-name="icon-27" horiz-adv-x="791" d="M147.394 431.709c119.208-65.164 85.333-46.675 149.851-81.972 34.909-63.741 17.067-31.289 81.972-149.851 0 11.248 0 220.186 0 231.952-11.636-0.129-220.574-0.129-231.822-0.129v0zM643.879 464.291c-119.208 65.164-85.333 46.675-149.851 81.972-34.909 63.741-17.067 31.289-81.972 149.851v-231.952h231.822zM273.196 570.44l19.523 35.685-78.093 22.885 22.885-78.093 35.685 19.523zM237.511 345.083l-22.885-78.093 78.093 22.885-19.523 35.685-35.685 19.523zM297.244 546.392c-63.741-34.909-31.289-17.067-149.851-81.972h231.952c0 11.636 0 220.574 0 231.952-65.293-119.337-46.675-85.463-82.101-149.98v0zM411.927 431.709v-231.952c65.293 119.208 46.675 85.333 81.972 149.851 63.741 34.909 31.289 17.067 149.851 81.972-11.119 0.129-220.057 0.129-231.822 0.129v0zM553.762 550.917l22.885 78.093-78.093-22.885 19.523-35.685 35.685-19.523zM518.077 325.56l-19.523-35.685 78.093-22.885-22.885 78.093-35.685-19.523z" />
<glyph unicode="&#xe954;" glyph-name="icon-28" horiz-adv-x="791" d="M288.582 258.715l-82.23 82.23-141.705-141.705 82.23-82.23 141.705 141.705zM474.505 623.838c-55.208 0-108.994-62.707-132.137-96.84 18.101-26.505 72.016-97.099 132.137-97.099 55.208 0 108.994 62.707 132.137 96.84-18.101 26.505-72.016 97.099-132.137 97.099v0zM474.505 468.687c-32.065 0-58.182 26.117-58.182 58.182s26.117 58.182 58.182 58.182c32.065 0 58.182-26.117 58.182-58.182s-26.117-58.182-58.182-58.182v0zM474.505 546.263c-10.731 0-19.394-8.663-19.394-19.394s8.663-19.394 19.394-19.394 19.394 8.663 19.394 19.394c0 10.731-8.663 19.394-19.394 19.394v0zM474.505 778.99c-138.99 0-252.121-113.131-252.121-252.121 0-47.063 12.929-92.444 37.624-132.137l-26.246-26.246 82.23-82.23 26.246 26.246c39.822-24.824 85.204-37.754 132.267-37.754 138.99 0 252.121 113.131 252.121 252.121s-113.131 252.121-252.121 252.121v0zM646.335 516.913c-3.103-5.172-76.154-125.802-171.83-125.802s-168.727 120.63-171.83 125.802l-5.947 9.956 5.947 9.956c3.103 5.172 76.154 125.802 171.83 125.802s168.727-120.63 171.83-125.802l5.947-9.956-5.947-9.956z" />
<glyph unicode="&#xe955;" glyph-name="icon-29" horiz-adv-x="791" d="M295.434 521.697l30.901-30.901 69.301 68.396v-28.315h29.22v77.834h-77.834v-29.22h27.539l-48.097-47.451-31.030 31.030-124.251-124.251 20.687-20.687 103.564 103.564zM235.055 199.758h58.44c0 9.568 0 164.848 0 175.192h-58.44v-175.192zM322.586 199.758h58.44c0 9.18 0 190.836 0 204.412h-58.44v-204.412zM643.879 550.271l-54.82 73.051 54.82 72.921c-9.826 0-180.881 0-189.802 0v-262.853h-43.83v-233.632h116.881v233.632h-43.83v116.881h160.582zM205.834 345.729h-58.44v-145.972h58.44c0 6.723 0 139.248 0 145.972v0z" />
<glyph unicode="&#xe956;" glyph-name="icon-30" horiz-adv-x="791" d="M444.121 444.121c0-26.764-21.721-48.485-48.485-48.485s-48.485 21.721-48.485 48.485 21.721 48.485 48.485 48.485 48.485-21.721 48.485-48.485v0zM634.828 498.295c-12.024 12.024-31.677 12.024-43.701 0l-127.095-127.095c-3.879-3.879-9.051-6.077-14.61-6.077h-107.701c-5.43 0-10.731 2.198-14.61 6.077l-127.095 127.095c-12.024 12.024-31.677 12.024-43.701 0s-12.024-31.677 0-43.701l146.489-146.489v-107.701l185.406-0.646v108.347l146.618 146.489c12.024 12.024 12.024 31.547 0 43.701v0zM344.436 588.929l-7.24-42.149c-0.905-5.43 1.293-10.99 5.818-14.222s10.473-3.749 15.257-1.164l37.883 19.911 37.883-19.911c2.069-1.164 4.396-1.681 6.723-1.681 2.974 0 6.077 0.905 8.533 2.715 4.525 3.232 6.723 8.792 5.818 14.222l-7.24 42.149 30.642 29.867c4.008 3.879 5.43 9.697 3.62 14.869-1.681 5.301-6.206 9.051-11.766 9.956l-42.279 6.206-18.877 38.4c-2.457 4.913-7.499 8.145-13.059 8.145s-10.602-3.103-13.059-8.145l-18.877-38.4-42.408-6.206c-5.43-0.776-10.085-4.655-11.766-9.956s-0.259-10.99 3.62-14.869l30.772-29.737z" />
<glyph unicode="&#xe957;" glyph-name="icon-31" horiz-adv-x="791" d="M224.323 379.733l-76.929-77.446 61.802-20.428 77.446 77.446-62.319 20.428zM229.495 261.56l20.428-61.802 77.446 76.929-20.428 62.19-77.446-77.317zM555.313 587.119l25.859-40.986 62.707 150.109-150.109-62.707 40.986-25.859-16.291-16.291c-33.099 28.444-76.024 45.64-122.828 45.64-104.21 0-189.026-84.945-189.026-189.026 0-13.705 2.069-27.022 4.655-40.21l5.301 4.913 60.897-20.040c-7.887 16.808-12.671 35.426-12.671 55.208 0 72.145 58.699 130.844 130.974 130.844s130.715-58.57 130.715-130.715-58.699-130.844-130.844-130.844c-19.782 0-38.4 4.784-55.208 12.671l20.040-60.897-4.913-5.301c13.059-2.586 26.505-4.655 40.21-4.655 104.21 0 189.026 84.945 189.026 189.026 0 46.804-17.325 89.729-45.64 122.828l16.162 16.291zM395.636 346.117c56.113 0 101.883 45.64 101.883 101.883s-45.64 101.883-101.883 101.883-101.883-45.64-101.883-101.883c0-22.885 7.887-43.83 20.687-60.768l20.687 20.687c-7.628 11.507-12.154 25.341-12.154 40.21 0 40.081 32.582 72.663 72.663 72.663s72.663-32.582 72.663-72.663-32.582-72.792-72.663-72.792c-14.869 0-28.703 4.525-40.21 12.154l-20.687-20.687c17.067-12.8 38.012-20.687 60.897-20.687v0zM395.636 404.299c24.048 0 43.701 19.523 43.701 43.701s-19.523 43.701-43.701 43.701c-24.048 0-43.701-19.523-43.701-43.701 0-6.723 1.681-13.059 4.396-18.877l28.962 28.962 20.428-20.428-28.962-28.962c5.818-2.586 12.154-4.396 18.877-4.396v0z" />
<glyph unicode="&#xe958;" d="M609.528 448c0-53.019-42.981-96-96-96s-96 42.981-96 96c0 53.019 42.981 96 96 96s96-42.981 96-96z" />
<glyph unicode="&#xe959;" d="M939 540.648c0-26.51-21.49-48-48-48s-48 21.49-48 48c0 26.51 21.49 48 48 48s48-21.49 48-48z" />
<glyph unicode="&#xe95a;" d="M673.528 71.72c0-26.51-21.49-48-48-48s-48 21.49-48 48c0 26.51 21.49 48 48 48s48-21.49 48-48z" />
<glyph unicode="&#xe95b;" d="M181 540.648c0-26.51-21.49-48-48-48s-48 21.49-48 48c0 26.51 21.49 48 48 48s48-21.49 48-48z" />
<glyph unicode="&#xe95c;" d="M424.2 489.264c2.178-1.464 4.859-2.337 7.744-2.337 4.847 0 9.119 2.463 11.632 6.207l0.032 0.050c5.624 8.415 12.464 15.513 20.361 21.243l0.239 0.165c3.634 2.564 5.978 6.745 5.978 11.474 0 7.732-6.268 14-14 14-3.14 0-6.039-1.034-8.375-2.78l0.037 0.026c-10.889-7.885-20.043-17.38-27.317-28.242l-0.251-0.398c-1.464-2.178-2.337-4.859-2.337-7.744 0-4.847 2.463-9.119 6.207-11.632l0.050-0.032z" />
<glyph unicode="&#xe95d;" d="M512 558c-7.732 0-14-6.268-14-14s6.268-14 14-14v0c45.287 0 82-36.713 82-82s-36.713-82-82-82c-45.287 0-82 36.713-82 82v0c0 0.952 0 1.896 0.048 2.84 0.006 0.148 0.009 0.322 0.009 0.497 0 7.558-5.989 13.717-13.48 13.991l-0.025 0.001c-0.204 0.011-0.443 0.017-0.683 0.017-7.522 0-13.639-6.015-13.805-13.498v-0.015c-0.040-1.28-0.064-2.552-0.064-3.832 0-60.751 49.249-110 110-110s110 49.249 110 110c0 60.751-49.249 110-110 110v0z" />
<glyph unicode="&#xe95e;" d="M536.112 392.496c2.595 0 5.024 0.711 7.104 1.947l-0.064-0.035c18.534 10.978 30.782 30.847 30.848 53.582v0.010c0 7.732-6.268 14-14 14s-14-6.268-14-14v0c-0.045-12.485-6.774-23.387-16.794-29.321l-0.158-0.087c-4.187-2.472-6.951-6.961-6.951-12.096 0-7.732 6.268-14 14-14 0.005 0 0.011 0 0.016 0h-0.001z" />
<glyph unicode="&#xe95f;" d="M873.84 480.72c4.685-1.281 10.067-2.027 15.62-2.048h0.012c34.23 0.021 61.971 27.775 61.971 62.008 0 17.108-6.928 32.598-18.132 43.817l0.001-0.001c-1.016 1.008-2.096 1.92-3.2 2.856 10.4 37.712 8 70.56-7.624 97.648-33.6 58.24-121.832 77.32-242.896 53.216-39.784 116.896-100.456 183.784-167.592 183.784s-127.8-66.88-167.624-183.792c-121.088 24.12-209.296 5.032-242.888-53.2-15.144-26.16-17.8-59.032-8.144-95.52-14.534-11.454-23.78-29.056-23.78-48.818 0-34.242 27.758-62 62-62 6.455 0 12.68 0.986 18.531 2.817l-0.439-0.118c8.304-11.048 17.4-22.224 27.2-33.416-81.352-92.832-108.944-178.776-75.376-236.952 24.12-41.816 76.328-63.504 148.664-63.504 33.597 0.424 66.073 4.167 97.433 10.916l-3.217-0.58c39.816-116.928 100.496-183.832 167.64-183.832 30.336 0 60.256 14.224 87.144 40.992 7.322-3.292 15.872-5.209 24.869-5.209 34.224 0 61.968 27.744 61.968 61.968 0 17.108-6.933 32.596-18.142 43.81v0c-1 1.008-2.12 1.864-3.2 2.792 5.256 12.408 10.28 25.6 15.024 39.48 28.133-6.173 60.596-9.917 93.861-10.333l0.315-0.003c72.328 0 124.544 21.696 148.664 63.504 33.6 58.176 5.976 144.12-75.36 236.944 9.456 10.776 18.368 21.736 26.696 32.776zM923.44 540.648c-0.016-18.766-15.232-33.973-34-33.973-9.376 0-17.866 3.795-24.017 9.933l0.001-0.001c-6.163 6.155-9.976 14.662-9.976 24.059 0 18.778 15.222 34 34 34s34-15.222 34-34c0-0.007 0-0.014 0-0.020v0.001zM898.256 671.048c10.952-19.016 13.064-42.656 6.472-70.4-4.596 1.221-9.873 1.922-15.314 1.922-34.22 0-61.96-27.74-61.96-61.96 0-17.109 6.934-32.598 18.146-43.81v0c1.008-1.016 2.088-1.928 3.152-2.864q-9.744-12.688-20.576-25.184c-33.791 35.052-70.288 66.979-109.335 95.635l-2.361 1.653c-5.889 54.48-15.855 103.805-29.846 151.409l1.526-6.057c105.504 20.4 183.528 5.688 210.104-40.376zM720 528.272c32.791-25.382 61.945-51.676 89.017-79.978l0.279-0.294c-27.353-28.593-56.507-54.886-87.495-78.928l-1.801-1.344c1.976 26.4 3.024 53.304 3.024 80.272s-1.032 53.84-3.024 80.272zM695.040 448c0-34.672-1.76-69.16-5.104-102.696-27.128-19.52-56.136-38.312-86.456-55.816-30-17.336-60.752-33.096-91.472-47.024-30.744 13.936-61.488 29.696-91.488 47.024-30.304 17.496-59.304 36.28-86.456 55.816-3.344 33.528-5.104 68-5.104 102.696s1.76 69.16 5.104 102.696c27.128 19.52 56.136 38.312 86.456 55.816 30 17.336 60.752 33.096 91.472 47.024 30.744-13.936 61.488-29.696 91.488-47.024 30.304-17.496 59.304-36.28 86.456-55.816 3.344-33.528 5.104-68.024 5.104-102.696zM685.528 588c-21.776 14.84-44.528 29.192-68 42.776-23.368 13.464-47.128 26.024-71.048 37.552 31.402 13.403 69.479 26.123 108.703 35.954l5.529 1.174c10.042-32.839 18.721-72.565 24.342-113.268l0.474-4.188zM512 894c53.104 0 104.904-60.232 140.12-161.8-54.246-13.621-100.909-30.051-145.542-50.184l5.414 2.184c-39.217 17.952-85.875 34.382-134.171 46.714l-5.941 1.286c35.224 101.576 87.016 161.8 140.12 161.8zM363.288 705.456c44.747-11.003 82.822-23.723 119.511-39.093l-5.287 1.965c-23.888-11.544-47.664-24.088-71-37.6-23.52-13.6-46.28-27.936-68.040-42.776 6.092 44.906 14.77 84.649 26.269 123.175l-1.453-5.671zM155.504 516.608c-6.157-6.14-14.653-9.936-24.036-9.936s-17.879 3.796-24.037 9.937l0.001-0.001c-6.144 6.149-9.944 14.641-9.944 24.021 0 18.769 15.215 33.984 33.984 33.984s33.984-15.215 33.984-33.984c0-9.38-3.8-17.872-9.944-24.021v0zM173.968 495.592c0.44 0.416 0.912 0.8 1.344 1.224 11.223 11.216 18.166 26.714 18.166 43.834 0 34.224-27.744 61.968-61.968 61.968-4.383 0-8.659-0.455-12.785-1.32l0.403 0.071c-6.464 27.408-4.304 50.8 6.6 69.6 26.584 46.088 104.608 60.8 210.112 40.392-12.465-41.547-22.433-90.875-27.987-141.53l-0.341-3.83c-41.415-30.282-77.915-62.181-111.462-96.948l-0.242-0.252q-11.688 13.464-21.84 26.792zM304 367.728c-32.791 25.382-61.945 51.676-89.017 79.978l-0.279 0.294c27.353 28.593 56.507 54.886 87.495 78.928l1.801 1.344c-1.976-26.4-3.024-53.304-3.024-80.272s1.032-53.84 3.024-80.272zM125.728 225c-26.528 46.016-0.272 120.968 70.12 202.2 33.782-35.033 70.271-66.944 109.309-95.586l2.363-1.654c5.889-54.48 15.855-103.805 29.846-151.409l-1.526 6.057c-105.512-20.384-183.536-5.68-210.112 40.392zM338.472 308c21.776-14.84 44.528-29.192 68.040-42.776 23.328-13.464 47.088-26.024 71.008-37.552-31.402-13.403-69.479-26.123-108.703-35.954l-5.529-1.174c-10.042 32.839-18.721 72.565-24.342 113.268l-0.474 4.188zM648.072 47.672c-6.15-6.16-14.652-9.97-24.044-9.97-18.764 0-33.976 15.212-33.976 33.976 0 1.201 0.062 2.388 0.184 3.556l-0.012-0.146c0.051 0.451 0.081 0.973 0.081 1.502 0 7.732-6.268 14-14 14-7.295 0-13.286-5.579-13.941-12.703l-0.004-0.055c-0.194-1.839-0.305-3.973-0.305-6.133 0-15.208 5.497-29.132 14.612-39.894l-0.074 0.090c-20.8-19.832-42.488-29.904-64.56-29.904-53.104 0-104.904 60.232-140.12 161.8 54.246 13.621 100.909 30.051 145.542 50.184l-5.414-2.184c39.226-17.954 85.895-34.383 134.203-46.714l5.941-1.286c-3.92-11.248-8-22.016-12.288-32.216-4.799 1.329-10.309 2.093-15.998 2.093-5.42 0-10.678-0.693-15.69-1.996l0.432 0.095c-6.212-1.52-10.749-7.039-10.749-13.617 0-7.732 6.268-14 14-14 1.305 0 2.568 0.179 3.767 0.513l-0.098-0.023c2.525 0.667 5.423 1.050 8.412 1.050 9.401 0 17.916-3.789 24.103-9.924l-0.002 0.002c6.141-6.159 9.938-14.658 9.938-24.044s-3.797-17.885-9.938-24.045l0.001 0.001zM660.744 190.536c-44.75 11.005-82.824 23.725-119.515 39.094l5.291-1.966c23.88 11.544 47.664 24.088 71 37.56 23.52 13.6 46.28 27.936 68 42.776-6.093-44.891-14.769-84.618-26.261-123.129l1.453 5.673zM898.344 224.992c-26.584-46.080-104.608-60.8-210.112-40.392 12.465 41.547 22.433 90.875 27.987 141.53l0.341 3.83c41.367 30.293 77.83 62.204 111.342 96.979l0.25 0.261c70.392-81.232 96.648-156.184 70.12-202.2z" />
<glyph unicode="&#xe960;" d="M881.512 19.024h-48v819.432h48z" />
<glyph unicode="&#xe961;" d="M905.512 19.024h-96v64.976h96z" />
<glyph unicode="&#xe962;" d="M388.984 475v378.792h-192v-378.792c-79.741-37.267-134-116.801-134-209.007 0-127.025 102.975-230 230-230s230 102.975 230 230c0 92.206-54.259 171.74-132.59 208.414l-1.41 0.593z" />
<glyph unicode="&#xe963;" d="M474.96 266c0-100.516-81.484-182-182-182s-182 81.484-182 182v0c0 0.023 0 0.051 0 0.079 0 15.832 2.043 31.187 5.879 45.816l-0.279-1.254h352.8c3.557-13.374 5.6-28.729 5.6-44.561 0-0.028 0-0.055 0-0.083v0.004z" />
<glyph unicode="&#xe964;" d="M184.984 853.792h216c13.255 0 24-10.745 24-24s-10.745-24-24-24h-216c-13.255 0-24 10.745-24 24s10.745 24 24 24z" />
<glyph unicode="&#xe965;" d="M52 36h920v-48h-920z" />
<glyph unicode="&#xe966;" d="M601.008 908v-564.92c0-39.765 32.235-72 72-72v0c39.765 0 72 32.235 72 72v0 564.92z" />
<glyph unicode="&#xe967;" d="M781.008 884c0-13.255-10.745-24-24-24h-168c-13.255 0-24 10.745-24 24s10.745 24 24 24h168c13.255 0 24-10.745 24-24z" />
<glyph unicode="&#xe968;" d="M953.008 766.464v-48h-388v48z" />
<glyph unicode="&#xe969;" d="M281.096 203.664c0-13.255-10.745-24-24-24s-24 10.745-24 24c0 13.255 10.745 24 24 24s24-10.745 24-24z" />
<glyph unicode="&#xe96a;" d="M412.992 250.664c0-13.255-10.745-24-24-24s-24 10.745-24 24c0 13.255 10.745 24 24 24s24-10.745 24-24z" />
<glyph unicode="&#xe96b;" d="M305.096 420.896c0-13.255-10.745-24-24-24s-24 10.745-24 24c0 13.255 10.745 24 24 24s24-10.745 24-24z" />
<glyph unicode="&#xe96c;" d="M881.52 461.968c-7.719-0.005-13.977-6.252-14-13.966v-36.002c0-7.732 6.268-14 14-14s14 6.268 14 14v0 36c-0.023 7.716-6.281 13.963-14 13.968v0z" />
<glyph unicode="&#xe96d;" d="M244.992 738c-7.732 0-14-6.268-14-14v0-52.664c0-7.732 6.268-14 14-14s14 6.268 14 14v0 52.664c-0.005 7.73-6.27 13.995-14 14v0z" />
<glyph unicode="&#xe96e;" d="M103 314.104c-3.837-14.423-6.040-30.982-6.040-48.056 0-0.017 0-0.034 0-0.051v0.003c0-0.053 0-0.116 0-0.178 0-108.248 87.752-196 196-196s196 87.752 196 196c0 17.152-2.203 33.79-6.342 49.646l0.302-1.363c-1.594 6.104-7.059 10.536-13.558 10.536-0.015 0-0.029 0-0.044 0h-352.758c-0.002 0-0.005 0-0.008 0-6.498 0-11.961-4.432-13.531-10.439l-0.022-0.097zM127.8 296.64h330.328c1.804-9.242 2.836-19.87 2.836-30.738 0-92.784-75.216-168-168-168s-168 75.216-168 168c0 10.869 1.032 21.497 3.004 31.791l-0.168-1.052z" />
<glyph unicode="&#xe96f;" d="M972 50h-52.496v34c0 7.732-6.268 14-14 14v0h-9.984v259.336c0 7.732-6.268 14-14 14s-14-6.268-14-14v0-259.336h-20v606.464h20v-202c0-7.732 6.268-14 14-14s14 6.268 14 14v0 202h57.488c7.732 0 14 6.268 14 14v0 48c-0.005 7.73-6.27 13.995-14 14h-57.488v58.016c-0.005 7.73-6.27 13.995-14 14h-48c-7.73-0.005-13.995-6.27-14-14v0-58.016h-60.48v65.744c20.108 1.042 36.017 17.599 36.017 37.872 0 20.943-16.977 37.92-37.92 37.92-0.045 0-0.091 0-0.136 0h-167.993c-0.072 0-0.158 0.001-0.244 0.001-20.943 0-37.92-16.977-37.92-37.92 0-20.336 16.008-36.933 36.111-37.878l0.085-0.003v-65.736h-22.032c-7.73-0.005-13.995-6.27-14-14v0-48c0-7.732 6.268-14 14-14v0h22.032v-361.424c0-0.013 0-0.030 0-0.046 0-47.47 38.482-85.952 85.952-85.952 23.746 0 45.243 9.63 60.799 25.197l0.001 0.001c15.593 15.436 25.249 36.844 25.249 60.508 0 0.103 0 0.205-0.001 0.308v-0.016 361.424h60.48v-606.464h-10.016c-7.73-0.005-13.995-6.27-14-14v0-34h-116.84c-7.732 0-14-6.268-14-14s6.268-14 14-14v0h279.336v-20h-892v20h535.040c7.732 0 14 6.268 14 14s-6.268 14-14 14v0h-194.776c78.295 41.664 130.694 122.744 130.694 216.063 0 49.153-14.538 94.911-39.548 133.209l0.573-0.936c-2.482 4.143-6.947 6.874-12.051 6.874-7.732 0-14-6.268-14-14 0-3.026 0.96-5.827 2.592-8.117l-0.029 0.043c21.65-33.089 34.53-73.617 34.53-117.153 0-119.294-96.706-216-216-216s-216 96.706-216 216c0 86.57 50.928 161.245 124.458 195.699l1.324 0.557c4.851 2.269 8.152 7.109 8.152 12.72v0 316.84h164v-31.8h-33.968c-7.732 0-14-6.268-14-14s6.268-14 14-14v0h33.968v-26h-33.968c-7.732 0-14-6.268-14-14s6.268-14 14-14v0h33.968v-26h-33.968c-7.732 0-14-6.268-14-14s6.268-14 14-14v0h33.968v-26h-33.968c-7.732 0-14-6.268-14-14s6.268-14 14-14v0h33.968v-26h-33.968c-7.732 0-14-6.268-14-14s6.268-14 14-14v0h33.968v-41.040c0.004-5.612 3.307-10.451 8.074-12.684l0.086-0.036c20.181-9.375 37.55-20.858 52.941-34.521l-0.221 0.193c2.458-2.183 5.713-3.517 9.28-3.517 7.733 0 14.001 6.269 14.001 14.001 0 4.166-1.819 7.907-4.707 10.471l-0.014 0.013c-14.941 13.269-31.837 24.875-50.076 34.236l-1.364 0.636v45.984c0 0.096 0 0.176 0 0.272s0 0.176 0 0.272v53.456c0 0.096 0 0.176 0 0.272s0 0.176 0 0.272v53.456c0 0.096 0 0.176 0 0.272s0 0.176 0 0.272v53.456c0 0.096 0 0.176 0 0.272s0 0.176 0 0.272v53.456c0 0.096 0 0.176 0 0.272s0 0.176 0 0.272v45.72c20.187 0.947 36.196 17.545 36.196 37.881 0 20.943-16.977 37.92-37.92 37.92-0.086 0-0.171 0-0.257-0.001h-215.987c-20.935-0.016-37.9-16.991-37.9-37.928 0-20.222 15.826-36.748 35.769-37.868l0.099-0.004v-308.248c-80.121-41.079-133.999-123.109-133.999-217.723 0-93.311 52.404-174.382 129.387-215.389l1.315-0.64h-127.664c-7.73-0.005-13.995-6.27-14-14v0-48c0.005-7.73 6.27-13.995 14-14h920c7.73 0.005 13.995 6.27 14 14v0 48c-0.005 7.73-6.27 13.995-14 14v0zM847.52 824.48h20v-44h-20zM579.008 884c0.009 5.519 4.481 9.991 9.999 10h168.001c5.523 0 10-4.477 10-10s-4.477-10-10-10v0h-168c-5.519 0.009-9.991 4.481-10 9.999v0.001zM615.008 846h116v-65.536h-115.968zM579.008 752.464h360v-20h-360zM731.008 678.464h-34c-7.732 0-14-6.268-14-14s6.268-14 14-14v0h34.032v-26h-34.032c-7.732 0-14-6.268-14-14s6.268-14 14-14v0h34.032v-26h-34.032c-7.732 0-14-6.268-14-14s6.268-14 14-14v0h34.032v-26h-34.032c-7.732 0-14-6.268-14-14s6.268-14 14-14v0h34.032v-26h-34.032c-7.732 0-14-6.268-14-14s6.268-14 14-14v0h34.032v-91.424c-0.064-32.007-25.993-57.936-57.994-58h-0.006c-32.018 0.036-57.964 25.982-58 57.997v361.427h116zM823.472 50v20h68v-20zM174.992 829.8c0.005 5.521 4.479 9.995 10 10h216c5.523 0 10-4.477 10-10s-4.477-10-10-10v0h-216c-5.523 0-10 4.477-10 10v0z" />
<glyph unicode="&#xe970;" d="M257.096 165.664c20.987 0 38 17.013 38 38s-17.013 38-38 38c-20.987 0-38-17.013-38-38v0c0.027-20.976 17.024-37.973 37.997-38h0.003zM257.096 213.664c5.523 0 10-4.477 10-10s-4.477-10-10-10c-5.523 0-10 4.477-10 10v0c0.005 5.521 4.479 9.995 10 10v0z" />
<glyph unicode="&#xe971;" d="M388.992 212.664c20.987 0 38 17.013 38 38s-17.013 38-38 38c-20.987 0-38-17.013-38-38v0c0.027-20.976 17.024-37.973 37.997-38h0.003zM388.992 260.664c5.523 0 10-4.477 10-10s-4.477-10-10-10c-5.523 0-10 4.477-10 10v0c0.005 5.521 4.479 9.995 10 10v0z" />
<glyph unicode="&#xe972;" d="M243.096 420.896c0-20.987 17.013-38 38-38s38 17.013 38 38c0 20.987-17.013 38-38 38v0c-20.976-0.027-37.973-17.024-38-37.997v-0.003zM281.096 430.896c5.523 0 10-4.477 10-10s-4.477-10-10-10c-5.523 0-10 4.477-10 10v0c0.005 5.521 4.479 9.995 10 10v0z" />
<glyph unicode="&#xe973;" d="M439.616 395.848h73v-48h-73z" />
<glyph unicode="&#xe974;" d="M829.848 84h48v-72h-48z" />
<glyph unicode="&#xe975;" d="M711.080 516c19.882 0 36-16.118 36-36v0-468h-72v468c0 19.882 16.118 36 36 36v0z" />
<glyph unicode="&#xe976;" d="M416.616 84h-222.464l34.464 194.664h153.536z" />
<glyph unicode="&#xe977;" d="M146.152 129.536h318.464v-117.536h-318.464z" />
<glyph unicode="&#xe978;" d="M464.616 371.848c0-87.941-71.291-159.232-159.232-159.232s-159.232 71.291-159.232 159.232c0 87.941 71.291 159.232 159.232 159.232s159.232-71.291 159.232-159.232z" />
<glyph unicode="&#xe979;" d="M313.152 438.928c12.082-13.481 19.469-31.387 19.469-51.019 0-4.62-0.409-9.145-1.193-13.54l0.069 0.463c6.953 3.689 12.939 8.031 18.24 13.086l-0.032-0.030c10.448-37.736-0.592-83.12-43.008-83.12-24.656 0-50.336 14-49.28 53.728 1.42 21.331 9.404 40.56 21.927 55.949l-0.143-0.181c2.831-7.689 6.019-14.259 9.76-20.457l-0.296 0.529c8.577 12.73 16.753 27.364 23.706 42.67l0.782 1.922z" />
<glyph unicode="&#xe97a;" d="M52 36h920v-48h-920z" />
<glyph unicode="&#xe97b;" d="M296.872 860c0 0.059 0 0.129 0 0.199 0 26.51-21.49 48-48 48s-48-21.49-48-48c0-2.044 0.128-4.058 0.376-6.035l-0.024 0.236c-5.461 3.512-12.128 5.599-19.282 5.599-19.882 0-36-16.118-36-36s16.118-36 36-36c0.074 0 0.148 0 0.222 0.001h114.709c19.882 0 36 16.118 36 36s-16.118 36-36 36v0z" />
<glyph unicode="&#xe97c;" d="M675.040 158.496c7.73 0.005 13.995 6.27 14 14v0 32.112c0 7.732-6.268 14-14 14s-14-6.268-14-14v0-32.112c0.005-7.73 6.27-13.995 14-14v0z" />
<glyph unicode="&#xe97d;" d="M401.984 292.224c10.942 13.124 19.311 28.809 24.081 45.99l0.207 0.874c0.311 1.1 0.489 2.363 0.489 3.668 0 7.733-6.268 14.001-14.001 14.001-6.428 0-11.844-4.331-13.489-10.235l-0.023-0.098c-3.866-14.015-10.366-26.189-18.989-36.53l0.125 0.154c-1.993-2.401-3.202-5.515-3.202-8.912 0-7.733 6.269-14.002 14.002-14.002 4.337 0 8.213 1.972 10.781 5.067l0.019 0.023z" />
<glyph unicode="&#xe97e;" d="M352.88 312.688c14.552 19.136 18.504 49.376 10.312 78.936-1.705 5.95-7.097 10.232-13.489 10.232-1.485 0-2.915-0.231-4.258-0.659l0.099 0.027c-3.073 18.001-10.727 33.835-21.714 46.745l0.114-0.137c-2.585 3.117-6.459 5.087-10.793 5.087-5.696 0-10.596-3.403-12.78-8.287l-0.035-0.089c-0.072-0.152-4.336-9.816-10.464-21.232-2.586 3.036-6.411 4.948-10.684 4.948s-8.098-1.913-10.668-4.929l-0.016-0.020c-1.024-1.216-25.088-30.12-25.080-64.424-0.142-1.626-0.223-3.517-0.223-5.428 0-17.229 6.573-32.923 17.348-44.711l-0.046 0.051c11.428-11.159 27.074-18.043 44.328-18.043 0.656 0 1.309 0.010 1.96 0.030l-0.095-0.002c0.56-0.020 1.218-0.032 1.878-0.032 18.010 0 34.024 8.546 44.208 21.804l0.097 0.132zM271.416 358.496c0.262 9.826 2.619 19.041 6.637 27.298l-0.173-0.394c2.586-3.108 6.456-5.072 10.784-5.072 4.718 0 8.89 2.333 11.427 5.909l0.029 0.043c4.629 6.607 9.361 14.296 13.651 22.258l0.621 1.262c2.763-6.464 4.369-13.985 4.369-21.881 0-3.38-0.294-6.691-0.859-9.909l0.050 0.342c-0.285-1.055-0.449-2.267-0.449-3.516 0-7.732 6.268-14 14-14 2.249 0 4.374 0.53 6.258 1.473l-0.081-0.037c0.576 0.28 1.152 0.576 1.712 0.872 0.086-1.141 0.135-2.472 0.135-3.815 0-11.058-3.337-21.337-9.058-29.884l0.123 0.195c-5.17-6.671-13.183-10.924-22.191-10.924-0.603 0-1.201 0.019-1.794 0.057l0.081-0.004c-0.414-0.017-0.901-0.026-1.39-0.026-9.543 0-18.236 3.639-24.767 9.604l0.028-0.026c-5.837 6.921-9.385 15.94-9.385 25.787 0 1.546 0.087 3.072 0.258 4.573l-0.017-0.184z" />
<glyph unicode="&#xe97f;" d="M972 50h-80.16v34c-0.005 7.73-6.27 13.995-14 14h-10v177.84c-0.094 59.566-47.493 108.030-106.634 109.836l-0.166 0.004v94.32c0 0.006 0 0.013 0 0.019 0 27.601-22.375 49.976-49.976 49.976-13.779 0-26.256-5.577-35.297-14.596l0.001 0.001c-9.094-8.957-14.729-21.405-14.729-35.169 0-0.081 0-0.163 0.001-0.244v0.012-94.16h-134.4v10c-0.005 7.73-6.27 13.995-14 14h-38.24c-18.010 77.991-86.865 135.252-169.094 135.252-21.59 0-42.258-3.947-61.322-11.16l1.192 0.396c-5.379-2.036-9.133-7.143-9.133-13.128 0-7.733 6.269-14.001 14.001-14.001 1.748 0 3.421 0.32 4.964 0.906l-0.096-0.032c15.027 5.748 32.408 9.078 50.566 9.078 80.289 0 145.376-65.087 145.376-145.376s-65.087-145.376-145.376-145.376c-80.289 0-145.376 65.087-145.376 145.376 0 38.646 15.079 73.769 39.675 99.808l-0.065-0.070c2.509 2.529 4.060 6.013 4.060 9.858 0 7.732-6.268 14-14 14-4.136 0-7.853-1.794-10.416-4.646l-0.011-0.013c-29.245-30.928-47.224-72.775-47.224-118.821 0-58.364 28.886-109.982 73.141-141.337l0.539-0.362-15.304-86.672h-44.336c-7.73-0.005-13.995-6.27-14-14v0-79.52h-80.16c-7.73-0.005-13.995-6.27-14-14v0-48c0.005-7.73 6.27-13.995 14-14h920c7.73 0.005 13.995 6.27 14 14v0 48c-0.005 7.73-6.27 13.995-14 14v0zM843.84 50v20h20v-20zM839.84 275.84v-177.84h-10c-7.73-0.005-13.995-6.27-14-14v0-34h-54.8v307.68c43.848-1.783 78.729-37.726 78.8-81.833v-0.007zM498.64 381.84v-20h-20.336c0.192 3.312 0.312 6.648 0.312 10.008s-0.12 6.68-0.304 9.992zM474.368 333.84h38.272c7.73 0.005 13.995 6.27 14 14v0 10h134.4v-99.84c0-7.732 6.268-14 14-14s14 6.268 14 14v0 222c0 0.040 0 0.087 0 0.134 0 6.033 2.473 11.488 6.461 15.407l0.003 0.003c3.979 3.989 9.481 6.457 15.56 6.457 12.137 0 21.976-9.839 21.976-21.976 0-0.009 0-0.018 0-0.027v0.001-430h-44v73c0 7.732-6.268 14-14 14s-14-6.268-14-14v0-73h-182.4v79.52c-0.005 7.73-6.27 13.995-14 14h-44.344l-15.328 86.712c34.519 24.496 59.44 60.554 69.202 102.435l0.23 1.173zM160.16 115.52h93.84c7.732 0 14 6.268 14 14s-6.268 14-14 14v0h-35.072l12.672 71.64c21.606-10.446 46.988-16.55 73.796-16.55s52.19 6.105 74.832 16.999l-1.036-0.449 12.672-71.648h-71.2c-7.732 0-14-6.268-14-14s6.268-14 14-14v0h129.976v-65.52h-290.48zM958 2h-892v20h892z" />
<glyph unicode="&#xe980;" d="M576.040 746h179.048c20.987 0 38 17.013 38 38s-17.013 38-38 38v0c-7.732 0-14-6.268-14-14s6.268-14 14-14v0c5.523 0 10-4.477 10-10s-4.477-10-10-10v0h-179.048c-7.732 0-14-6.268-14-14s6.268-14 14-14v0z" />
<glyph unicode="&#xe981;" d="M888.416 715.832c5.523 0 10-4.477 10-10s-4.477-10-10-10v0h-115.048c-7.732 0-14-6.268-14-14s6.268-14 14-14v0h115.048c20.987 0 38 17.013 38 38s-17.013 38-38 38v0c-7.732 0-14-6.268-14-14s6.268-14 14-14v0z" />
</font>
</defs>
</svg>
