<?xml version="1.0" standalone="no"?>
<!DOCTYPE svg PUBLIC "-//W3C//DTD SVG 1.1//EN" "http://www.w3.org/Graphics/SVG/1.1/DTD/svg11.dtd" >
<svg xmlns="http://www.w3.org/2000/svg">
<metadata></metadata>
<defs>
<font id="feather" horiz-adv-x="1024">
<font-face units-per-em="1024" ascent="960" descent="-64" />
<missing-glyph horiz-adv-x="1024" />
<glyph unicode="&#x20;" horiz-adv-x="512" d="" />
<glyph unicode="&#xe900;" glyph-name="activity" d="M380.331 874.581c-11.691-1.92-23.765-8.619-29.824-16.555-4.309-5.632-17.152-42.411-65.451-187.179l-60.075-180.181h-73.813c-78.635 0-83.456-0.427-94.763-8.491-9.472-6.741-12.885-15.744-12.885-34.176 0-14.123 0.555-17.195 4.267-23.808 4.693-8.405 12.544-14.507 21.973-17.109 3.797-1.067 42.496-1.749 100.267-1.749 104.832 0 103.467-0.128 115.413 11.52 8.277 8.064 8.021 7.296 56.96 154.453 22.4 67.328 41.131 122.453 41.6 122.453s49.493-145.963 108.971-324.395c117.248-351.701 110.848-334.336 126.549-342.4 24.491-12.501 46.251-6.912 57.045 14.677 2.133 4.309 30.592 87.936 63.189 185.771l59.264 177.92h74.496c44.672 0 77.013 0.725 80.725 1.749 9.493 2.619 17.237 8.778 21.88 16.932l0.093 0.177c3.712 6.656 4.267 9.643 4.224 23.808-0.043 18.475-3.456 27.52-12.843 34.176-11.563 8.235-14.805 8.491-113.365 8.491-105.557 0-104.917 0.085-116.523-12.501-4.103-4.76-7.533-10.257-10.046-16.235l-0.151-0.405c20.57 74.533 5.257 29.932-9.876-14.752l-35.138-119.52c-22.912-68.779-42.027-125.013-42.496-125.013s-49.152 144.939-108.203 322.133c-59.008 177.152-109.056 325.675-111.232 329.984-8.277 16.512-21.675 23.253-40.235 20.224z" />
<glyph unicode="&#xe901;" glyph-name="airplay" d="M149.291 872.832c-47.744-8.064-86.955-42.88-101.76-90.325l-4.011-12.8v-472.747l4.011-12.8c13.087-41.568 45.014-73.72 85.507-86.863l0.936-0.263c10.496-3.371 16.555-3.925 49.493-4.608 24.448-0.512 40.021-0.128 44.544 1.109 9.878 2.458 17.972 8.741 22.776 17.146l0.093 0.177c3.712 6.656 4.267 9.643 4.224 23.808-0.043 18.261-3.456 27.52-12.501 33.963-9.557 6.784-14.208 7.595-49.749 8.576-34.091 0.939-35.2 1.109-42.837 5.589-4.793 2.951-8.888 6.476-12.356 10.551l-0.060 0.073c-10.112 13.269-9.6 0.64-9.6 238.976 0 246.699-0.853 230.187 12.928 244.011 14.037 14.037-17.536 12.928 371.072 12.928s357.035 1.109 371.072-12.928c13.781-13.824 12.928 2.56 12.928-243.115 0-179.669-0.427-219.221-2.347-225.664-3.329-10.637-10.321-19.306-19.468-24.721l-0.202-0.111c-7.68-4.523-8.619-4.608-42.88-5.461-33.408-0.811-35.456-1.067-43.52-5.205-14.507-7.467-20.523-20.651-19.2-41.899 1.28-19.968 10.368-32.085 27.605-36.693 4.523-1.237 20.096-1.621 44.544-1.109 32.939 0.683 38.997 1.237 49.493 4.608 41.428 13.405 73.355 45.557 86.187 86.189l0.255 0.937 4.011 12.8v472.747l-4.011 12.8c-13.049 41.546-44.977 73.67-85.467 86.737l-0.933 0.26-13.696 4.309-359.253 0.256c-197.589 0.128-363.136-0.427-367.829-1.237zM500.053 363.264c-3.235-1.52-5.963-3.070-8.559-4.8l0.239 0.15c-5.888-3.712-224.597-264.405-231.211-275.584-2.987-5.077-3.669-8.96-3.669-20.736 0-12.288 0.64-15.659 4.267-22.101 4.693-8.405 12.544-14.507 21.973-17.109 8.661-2.432 445.909-2.347 454.571 0.043 8.789 2.432 19.883 11.264 26.496 21.077 3.482 4.273 5.591 9.784 5.591 15.789 0 0.735-0.032 1.463-0.094 2.182l0.006-0.094c0 5.717-1.323 12.331-3.2 16.427-1.792 3.755-52.779 66.347-113.365 139.093-122.368 146.901-120.917 145.408-140.203 146.261-1.177 0.091-2.548 0.143-3.932 0.143-3.148 0-6.232-0.269-9.232-0.786l0.321 0.046zM573.525 179.627l60.075-72.107-60.8-0.469c-33.451-0.213-88.149-0.213-121.6 0l-60.8 0.469 60.075 72.107c33.067 39.68 60.757 72.107 61.525 72.107s28.459-32.427 61.525-72.107z" />
<glyph unicode="&#xe902;" glyph-name="alert-circle" d="M481.28 916.352l-23.893-2.56c-80.555-8.533-159.104-40.107-228.693-91.819-25.984-19.328-71.509-64.853-91.051-90.965-106.581-142.805-124.8-327.040-48.171-486.955 23.296-48.555 50.304-86.229 91.349-127.232 41.003-41.045 78.677-68.053 127.232-91.349 159.872-76.629 344.235-58.325 487.125 48.341 25.984 19.371 71.637 65.024 91.008 91.008 126.891 170.027 126.891 396.331 0 566.357-19.371 25.941-64.981 71.552-90.88 90.795-68.053 50.603-139.733 80-222.592 91.264-18.048 2.475-78.891 4.523-91.435 3.115zM568.32 827.691c109.355-16.512 204.971-78.080 266.24-171.477 12.928-19.755 31.701-57.984 39.765-81.067 14.763-42.368 20.693-78.72 20.693-127.147 0-63.701-10.965-111.829-38.272-168.107-30.080-62.037-75.477-113.792-134.528-153.259-33.664-22.528-87.509-45.056-128.811-53.973-24.244-5.414-52.089-8.515-80.658-8.515-91.486 0-175.543 31.805-241.717 84.962l0.754-0.586c-64.555 51.712-112.981 127.573-132.395 207.317-7.936 32.555-10.411 54.272-10.411 92.16 0 63.701 10.965 111.829 38.272 168.107 45.622 92.339 124.633 162.383 220.876 195.211l2.698 0.799c30.080 9.941 54.272 14.848 93.013 18.859 13.739 1.408 67.029-0.64 84.48-3.285zM495.531 658.901c-9.351-2.542-16.968-8.642-21.456-16.719l-0.090-0.177c-3.797-7.083-3.797-7.509-4.267-104.875-0.341-63.189 0.128-100.053 1.28-104.277 4.48-16.725 16.811-25.856 36.565-27.136 20.693-1.323 34.261 4.651 41.984 18.475l4.267 7.595v203.093l-3.797 7.125c-2.391 4.254-5.427 7.848-9.021 10.784l-0.067 0.053c-11.264 8.064-30.763 10.624-45.397 6.059zM495.531 317.653c-16.811-5.504-24.533-16.299-25.813-36.053-1.323-20.523 4.693-34.091 18.475-41.813 6.613-3.712 9.685-4.267 23.808-4.267 13.312 0 17.408 0.683 23.040 3.669 13.909 7.509 19.627 18.56 19.627 38.144 0 27.435-12.245 40.619-39.125 41.984-8.107 0.427-15.573-0.213-20.011-1.664z" />
<glyph unicode="&#xe903;" glyph-name="alert-octagon" d="M321.707 914.731c-2.001-0.817-4.545-1.663-7.148-2.363l-0.489-0.112c-45.752-44.884-88.776-87.584-131.555-130.529l-0.498-0.5c-104.917-104.789-131.968-132.693-135.253-139.52l-4.053-8.533v-185.173c0.043-182.016 0.085-185.301 3.456-192.853 5.205-11.52 260.011-266.581 272.128-272.384l8.533-4.053h370.347l8.533 4.053c12.117 5.803 266.923 260.864 272.128 272.384 3.371 7.552 3.413 10.795 3.413 192.853s-0.043 185.301-3.413 192.853c-2.688 5.931-33.109 37.376-133.547 137.941-74.325 74.411-132.992 131.84-136.875 133.973l-6.827 3.712-186.027 0.384c-158.891 0.299-187.008 0-192.853-2.133zM783.787 719.787l112.213-112.213v-319.147l-224.427-224.427h-319.147l-224.427 224.427v319.147l224.427 224.427h319.147l112.213-112.213zM495.531 658.901c-9.351-2.542-16.968-8.642-21.456-16.719l-0.090-0.177c-3.797-7.083-3.797-7.509-4.267-104.875-0.341-63.189 0.128-100.053 1.28-104.277 4.48-16.725 16.811-25.856 36.565-27.136 20.693-1.323 34.261 4.651 41.984 18.475l4.267 7.595v203.093l-3.797 7.125c-2.391 4.254-5.427 7.848-9.021 10.784l-0.067 0.053c-11.264 8.064-30.763 10.624-45.397 6.059zM495.531 317.653c-16.811-5.504-24.533-16.299-25.813-36.053-1.323-20.523 4.693-34.091 18.475-41.813 6.613-3.712 9.685-4.267 23.808-4.267 13.312 0 17.408 0.683 23.040 3.669 13.909 7.509 19.627 18.56 19.627 38.144 0 27.435-12.245 40.619-39.125 41.984-8.107 0.427-15.573-0.213-20.011-1.664z" />
<glyph unicode="&#xe904;" glyph-name="alert-triangle" d="M479.872 874.624c-28.245-7.424-57.643-28.117-73.472-51.797-12.971-19.371-367.061-611.413-371.541-621.269-6.97-15.263-11.034-33.106-11.034-51.898 0-34.563 13.744-65.915 36.066-88.89l-0.030 0.031c13.952-14.080 26.837-22.955 42.88-29.525 25.643-10.496 2.901-9.941 409.472-9.941 408.32 0 382.976-0.64 409.429 10.155 31.54 13.594 56.095 38.385 69.058 69.247l0.318 0.854c5.732 14.102 9.058 30.46 9.058 47.596 0 19.548-4.329 38.085-12.080 54.705l0.334-0.797c-5.163 10.923-360.789 605.227-372.181 621.995-14.848 21.888-45.141 42.581-72.661 49.621-17.749 4.523-46.165 4.48-63.616-0.085zM529.963 789.547c3.755-1.707 9.088-5.504 11.819-8.363 6.656-7.040 369.109-612.267 371.285-619.904 1.042-3.509 1.641-7.541 1.641-11.713 0-18.566-11.87-34.36-28.436-40.206l-0.298-0.092c-6.784-2.304-49.835-2.603-373.845-2.603-246.997 0-368.256 0.597-372.565 1.792-15.829 4.395-30.336 23.040-30.336 38.955 0 4.352 0.768 10.581 1.707 13.867 2.176 7.68 364.587 612.779 371.243 619.861 7.424 7.851 16.896 11.52 29.824 11.52 7.083 0 13.568-1.109 17.963-3.115zM495.531 616.235c-9.351-2.542-16.968-8.642-21.456-16.719l-0.090-0.177c-3.797-7.083-3.797-7.509-4.267-104.875-0.341-63.189 0.128-100.053 1.28-104.277 4.48-16.725 16.811-25.856 36.565-27.136 20.693-1.323 34.261 4.651 41.984 18.475l4.267 7.595v203.093l-3.797 7.125c-2.391 4.254-5.427 7.848-9.021 10.784l-0.067 0.053c-11.264 8.064-30.763 10.624-45.397 6.059zM495.531 274.987c-16.811-5.504-24.533-16.299-25.813-36.053-1.323-20.523 4.693-34.091 18.475-41.813 6.613-3.712 9.685-4.267 23.808-4.267 13.312 0 17.408 0.683 23.040 3.669 13.909 7.509 19.627 18.56 19.627 38.144 0 27.435-12.245 40.619-39.125 41.984-8.107 0.427-15.573-0.213-20.011-1.664z" />
<glyph unicode="&#xe905;" glyph-name="align-center" d="M111.531 744.235c-9.351-2.542-16.968-8.642-21.456-16.719l-0.090-0.177c-3.157-5.931-3.797-9.856-3.797-23.339 0-14.123 0.555-17.195 4.267-23.808 4.693-8.405 12.544-14.507 21.973-17.109 8.533-2.389 790.613-2.389 799.147 0 9.493 2.619 17.237 8.778 21.88 16.932l0.093 0.177c3.712 6.656 4.267 9.643 4.224 23.808-0.043 18.475-3.456 27.52-12.843 34.176-12.501 8.917 8.491 8.491-413.611 8.363-317.355-0.085-394.069-0.512-399.787-2.304zM239.531 573.568c-9.351-2.542-16.968-8.642-21.456-16.719l-0.090-0.177c-3.157-5.931-3.797-9.856-3.797-23.339 0-14.123 0.555-17.195 4.267-23.808 4.693-8.405 12.544-14.507 21.973-17.109 8.491-2.389 534.656-2.389 543.147 0 9.493 2.619 17.237 8.778 21.88 16.932l0.093 0.177c3.712 6.656 4.267 9.643 4.224 23.808-0.043 18.475-3.456 27.52-12.843 34.176-12.373 8.832-1.536 8.491-285.611 8.363-212.267-0.085-266.112-0.555-271.787-2.304zM111.531 402.901c-9.351-2.542-16.968-8.642-21.456-16.719l-0.090-0.177c-3.157-5.931-3.797-9.856-3.797-23.339 0-14.123 0.555-17.195 4.267-23.808 4.693-8.405 12.544-14.507 21.973-17.109 8.533-2.389 790.613-2.389 799.147 0 9.493 2.619 17.237 8.778 21.88 16.932l0.093 0.177c3.712 6.656 4.267 9.643 4.224 23.808-0.043 18.475-3.456 27.52-12.843 34.176-12.501 8.917 8.491 8.491-413.611 8.363-317.355-0.085-394.069-0.512-399.787-2.304zM239.531 232.235c-9.351-2.542-16.968-8.642-21.456-16.719l-0.090-0.177c-3.157-5.931-3.797-9.856-3.797-23.339 0-14.123 0.555-17.195 4.267-23.808 4.693-8.405 12.544-14.507 21.973-17.109 8.491-2.389 534.656-2.389 543.147 0 9.493 2.619 17.237 8.778 21.88 16.932l0.093 0.177c3.712 6.656 4.267 9.643 4.224 23.808-0.043 18.475-3.456 27.52-12.843 34.176-12.373 8.832-1.536 8.491-285.611 8.363-212.267-0.085-266.112-0.555-271.787-2.304z" />
<glyph unicode="&#xe906;" glyph-name="align-justify" d="M111.531 744.235c-9.351-2.542-16.968-8.642-21.456-16.719l-0.090-0.177c-3.157-5.931-3.797-9.856-3.797-23.339 0-14.123 0.555-17.195 4.267-23.808 4.693-8.405 12.544-14.507 21.973-17.109 8.533-2.389 790.613-2.389 799.147 0 9.493 2.619 17.237 8.778 21.88 16.932l0.093 0.177c3.712 6.656 4.267 9.643 4.224 23.808-0.043 18.475-3.456 27.52-12.843 34.176-12.501 8.917 8.491 8.491-413.611 8.363-317.355-0.085-394.069-0.512-399.787-2.304zM111.531 573.568c-9.351-2.542-16.968-8.642-21.456-16.719l-0.090-0.177c-3.157-5.931-3.797-9.856-3.797-23.339 0-14.123 0.555-17.195 4.267-23.808 4.693-8.405 12.544-14.507 21.973-17.109 8.533-2.389 790.613-2.389 799.147 0 9.493 2.619 17.237 8.778 21.88 16.932l0.093 0.177c3.712 6.656 4.267 9.643 4.224 23.808-0.043 18.475-3.456 27.52-12.843 34.176-12.501 8.917 8.491 8.491-413.611 8.363-317.355-0.085-394.069-0.512-399.787-2.304zM111.531 402.901c-9.351-2.542-16.968-8.642-21.456-16.719l-0.090-0.177c-3.157-5.931-3.797-9.856-3.797-23.339 0-14.123 0.555-17.195 4.267-23.808 4.693-8.405 12.544-14.507 21.973-17.109 8.533-2.389 790.613-2.389 799.147 0 9.493 2.619 17.237 8.778 21.88 16.932l0.093 0.177c3.712 6.656 4.267 9.643 4.224 23.808-0.043 18.475-3.456 27.52-12.843 34.176-12.501 8.917 8.491 8.491-413.611 8.363-317.355-0.085-394.069-0.512-399.787-2.304zM111.531 232.235c-9.351-2.542-16.968-8.642-21.456-16.719l-0.090-0.177c-3.157-5.931-3.797-9.856-3.797-23.339 0-14.123 0.555-17.195 4.267-23.808 4.693-8.405 12.544-14.507 21.973-17.109 8.533-2.389 790.613-2.389 799.147 0 9.493 2.619 17.237 8.778 21.88 16.932l0.093 0.177c3.712 6.656 4.267 9.643 4.224 23.808-0.043 18.475-3.456 27.52-12.843 34.176-12.501 8.917 8.491 8.491-413.611 8.363-317.355-0.085-394.069-0.512-399.787-2.304z" />
<glyph unicode="&#xe907;" glyph-name="align-left" d="M111.531 744.235c-9.351-2.542-16.968-8.642-21.456-16.719l-0.090-0.177c-3.157-5.931-3.797-9.856-3.797-23.339 0-14.123 0.555-17.195 4.267-23.808 4.693-8.405 12.544-14.507 21.973-17.109 8.533-2.389 790.613-2.389 799.147 0 9.493 2.619 17.237 8.778 21.88 16.932l0.093 0.177c3.712 6.656 4.267 9.643 4.224 23.808-0.043 18.475-3.456 27.52-12.843 34.176-12.501 8.917 8.491 8.491-413.611 8.363-317.355-0.085-394.069-0.512-399.787-2.304zM111.531 573.568c-9.351-2.542-16.968-8.642-21.456-16.719l-0.090-0.177c-3.157-5.931-3.797-9.856-3.797-23.339 0-14.123 0.555-17.195 4.267-23.808 4.693-8.405 12.544-14.507 21.973-17.109 8.533-2.389 619.947-2.389 628.48 0 9.493 2.619 17.237 8.778 21.88 16.932l0.093 0.177c3.712 6.656 4.267 9.643 4.224 23.808-0.043 18.475-3.456 27.52-12.843 34.176-12.416 8.875 1.792 8.491-328.277 8.363-247.296-0.085-308.779-0.555-314.453-2.304zM111.531 402.901c-9.351-2.542-16.968-8.642-21.456-16.719l-0.090-0.177c-3.157-5.931-3.797-9.856-3.797-23.339 0-14.123 0.555-17.195 4.267-23.808 4.693-8.405 12.544-14.507 21.973-17.109 8.533-2.389 790.613-2.389 799.147 0 9.493 2.619 17.237 8.778 21.88 16.932l0.093 0.177c3.712 6.656 4.267 9.643 4.224 23.808-0.043 18.475-3.456 27.52-12.843 34.176-12.501 8.917 8.491 8.491-413.611 8.363-317.355-0.085-394.069-0.512-399.787-2.304zM111.531 232.235c-9.351-2.542-16.968-8.642-21.456-16.719l-0.090-0.177c-3.157-5.931-3.797-9.856-3.797-23.339 0-14.123 0.555-17.195 4.267-23.808 4.693-8.405 12.544-14.507 21.973-17.109 8.533-2.389 619.947-2.389 628.48 0 9.493 2.619 17.237 8.778 21.88 16.932l0.093 0.177c3.712 6.656 4.267 9.643 4.224 23.808-0.043 18.475-3.456 27.52-12.843 34.176-12.416 8.875 1.792 8.491-328.277 8.363-247.296-0.085-308.779-0.555-314.453-2.304z" />
<glyph unicode="&#xe908;" glyph-name="align-right" d="M111.531 744.235c-9.351-2.542-16.968-8.642-21.456-16.719l-0.090-0.177c-3.157-5.931-3.797-9.856-3.797-23.339 0-14.123 0.555-17.195 4.267-23.808 4.693-8.405 12.544-14.507 21.973-17.109 8.533-2.389 790.613-2.389 799.147 0 9.493 2.619 17.237 8.778 21.88 16.932l0.093 0.177c3.712 6.656 4.267 9.643 4.224 23.808-0.043 18.475-3.456 27.52-12.843 34.176-12.501 8.917 8.491 8.491-413.611 8.363-317.355-0.085-394.069-0.512-399.787-2.304zM282.197 573.568c-9.351-2.542-16.968-8.642-21.456-16.719l-0.090-0.177c-3.157-5.931-3.797-9.856-3.797-23.339 0-14.123 0.555-17.195 4.267-23.808 4.693-8.405 12.544-14.507 21.973-17.109 8.533-2.389 619.947-2.389 628.48 0 9.493 2.619 17.237 8.778 21.88 16.932l0.093 0.177c3.712 6.656 4.267 9.643 4.224 23.808-0.043 18.475-3.456 27.52-12.843 34.176-12.416 8.875 1.792 8.491-328.277 8.363-247.296-0.085-308.779-0.555-314.453-2.304zM111.531 402.901c-9.351-2.542-16.968-8.642-21.456-16.719l-0.090-0.177c-3.157-5.931-3.797-9.856-3.797-23.339 0-14.123 0.555-17.195 4.267-23.808 4.693-8.405 12.544-14.507 21.973-17.109 8.533-2.389 790.613-2.389 799.147 0 9.493 2.619 17.237 8.778 21.88 16.932l0.093 0.177c3.712 6.656 4.267 9.643 4.224 23.808-0.043 18.475-3.456 27.52-12.843 34.176-12.501 8.917 8.491 8.491-413.611 8.363-317.355-0.085-394.069-0.512-399.787-2.304zM282.197 232.235c-9.351-2.542-16.968-8.642-21.456-16.719l-0.090-0.177c-3.157-5.931-3.797-9.856-3.797-23.339 0-14.123 0.555-17.195 4.267-23.808 4.693-8.405 12.544-14.507 21.973-17.109 8.533-2.389 619.947-2.389 628.48 0 9.493 2.619 17.237 8.778 21.88 16.932l0.093 0.177c3.712 6.656 4.267 9.643 4.224 23.808-0.043 18.475-3.456 27.52-12.843 34.176-12.416 8.875 1.792 8.491-328.277 8.363-247.296-0.085-308.779-0.555-314.453-2.304z" />
<glyph unicode="&#xe909;" glyph-name="anchor" d="M484.608 914.731c-69.419-10.837-125.483-64.981-139.733-135.083-16.341-80.128 28.715-162.304 104.832-191.317 7.509-2.859 15.019-5.632 16.64-6.144 2.816-0.896 2.987-14.72 2.987-258.432v-257.493l-10.667 1.408c-64.768 8.533-134.016 38.528-186.88 80.853-31.741 26.169-58.968 56.231-81.405 89.769l-0.941 1.495c-28.459 43.392-52.565 108.587-57.429 155.349l-1.067 10.197h45.867c25.472 0 48.64 0.768 52.096 1.749 9.493 2.619 17.237 8.778 21.88 16.932l0.093 0.177c3.712 6.656 4.267 9.643 4.224 23.808-0.043 18.475-3.456 27.52-12.843 34.176-11.264 8.021-16.256 8.491-92.928 8.491s-81.664-0.469-92.928-8.491c-12.8-9.088-15.915-27.648-12.16-72.533 7.982-93.019 41.836-176.852 94.245-245.814l-0.848 1.163c20.267-27.136 65.152-71.808 92.757-92.331 169.131-125.781 395.349-125.312 564.779 1.152 25.984 19.371 71.637 65.024 91.008 91.008 51.742 67.951 85.675 152.024 93.449 243.553l0.119 1.737c3.712 44.117 0.512 63.061-12.16 72.064-11.264 8.021-16.256 8.491-92.928 8.491s-81.664-0.469-92.928-8.491c-9.472-6.741-12.885-15.744-12.885-34.176 0-14.123 0.555-17.195 4.267-23.808 4.693-8.405 12.544-14.507 21.973-17.109 3.456-0.981 26.624-1.749 52.096-1.749h45.867l-1.067-10.197c-4.864-46.763-28.971-111.957-57.429-155.349-22.272-33.963-53.888-68.821-83.627-92.288-53.291-42.027-121.557-71.381-185.6-79.829l-10.667-1.408v257.493c0 243.712 0.171 257.536 2.987 258.432 54.272 17.28 92.459 51.584 112.384 100.992 7.818 18.775 12.358 40.585 12.358 63.455 0 22.831-4.525 44.604-12.726 64.473l0.411-1.124c-22.511 55.302-71.795 95.49-131.313 104.752l-0.954 0.122c-7.884 1.385-16.962 2.177-26.225 2.177-9.532 0-18.868-0.838-27.939-2.446l0.959 0.141zM534.315 828.885c36.434-10.454 62.645-43.475 62.645-82.618 0-13.507-3.121-26.286-8.682-37.654l0.224 0.507c-6.613-13.568-24.149-31.787-36.821-38.187-11.608-6.001-25.337-9.52-39.888-9.52-7.377 0-14.542 0.904-21.392 2.608l0.608-0.128c-29.227 7.595-53.717 31.829-61.227 60.459-1.84 6.615-2.898 14.212-2.898 22.055 0 47.152 38.224 85.376 85.376 85.376 7.844 0 15.44-1.058 22.655-3.038l-0.599 0.14z" />
<glyph unicode="&#xe90a;" glyph-name="aperture" d="M481.28 916.352l-23.893-2.56c-80.64-8.576-159.872-40.405-228.651-91.904-23.893-17.877-58.112-50.731-79.659-76.416-6.013-7.408-11.803-13.982-17.837-20.32l0.131 0.138c-1.969-2.076-3.591-4.505-4.759-7.178l-0.063-0.161c-1.749-3.456-8.405-14.72-14.805-25.045-63.019-101.632-84.096-228.437-57.728-347.264 5.845-26.24 27.477-92.075 32-97.195 1.28-1.493 5.163-8.32 8.619-15.232 20.267-40.576 48.64-78.891 86.187-116.395 70.997-70.997 149.504-112.043 251.691-131.541 47.531-9.045 110.848-8.619 164.096 1.152 75.809 14.347 142.732 44.973 199.562 88.186l-1.162-0.848c27.9 22.081 52.663 45.641 75.141 71.255l0.549 0.639c6.741 8.107 14.763 17.451 17.792 20.736s6.997 8.661 8.832 11.947c1.835 3.285 8.96 15.189 15.829 26.453 42.746 69.256 68.073 153.2 68.073 243.060 0 56.461-9.999 110.587-28.323 160.703l1.039-3.25c-0.67 0.679-4.164 10.605-7.543 20.585l-2.74 9.324c-1.877 5.845-4.139 11.093-5.077 11.648-0.939 0.597-4.693 6.955-8.32 14.165-14.203 26.907-28.82 49.855-45.060 71.517l0.985-1.373c-19.371 25.941-64.981 71.552-90.88 90.795-59.691 44.373-122.837 72.704-191.573 85.931-28.729 5.065-39.261 7.202-49.771 9.397l18.624-3.253c-8.405 1.749-79.701 3.541-91.307 2.304zM480.597 820.48c-3.157-5.376-25.856-44.715-50.475-87.381-24.661-42.667-46.976-80.299-49.664-83.627-2.774-3.531-5.153-7.568-6.957-11.904l-0.126-0.341c-1.92-5.461-57.984-104.192-58.667-103.381 52.222-98.018 36.511-71.244 20.847-44.441l-68.249 126.403-47.104 81.621 9.771 11.008c39.595 44.331 100.907 83.84 160.853 103.68 29.653 9.813 66.688 17.451 87.424 17.963l8.021 0.213-5.675-9.813zM605.867 820.181c90.738-23.707 166.548-77.001 218.397-148.751l0.782-1.137 6.4-8.96-171.648 0.085c-11.081-0.032-24.193-0.050-37.308-0.050-47.249 0-94.444 0.235-141.582 0.704l7.2-0.056c0 0.427 64 111.573 87.296 151.637 3.712 6.357 7.637 11.52 8.789 11.52 1.109 0 10.88-2.261 21.675-4.992zM219.691 527.36c28.16-48.811 51.797-90.667 52.48-93.013 1.554-3.916 3.537-7.297 5.95-10.32l-0.062 0.080c2.56-3.285 16.384-26.325 30.763-51.2 14.336-24.875 27.136-46.976 28.501-49.067l2.389-3.883-190.037 0.896-3.115 9.131c-11.861 34.816-17.579 73.301-17.579 118.016 0 49.067 6.101 85.888 21.163 128 6.869 19.285 16.768 41.941 17.749 40.789 0.341-0.384 23.68-40.619 51.797-89.429zM622.080 513.493c19.712-34.261 35.84-63.744 35.84-65.493s-16.128-31.232-35.84-65.493l-35.84-62.379h-148.48l-35.84 62.379c-19.712 34.261-35.84 63.744-35.84 65.536 0 1.749 16.128 31.232 35.84 65.493l35.84 62.336h148.48l35.84-62.379zM877.44 566.016c11.861-34.816 17.579-73.301 17.579-118.016 0-49.067-6.101-85.888-21.163-128-6.912-19.285-16.768-41.941-17.749-40.789-2.603 2.901-103.296 179.115-104.277 182.443-1.552 3.919-3.55 7.301-5.988 10.313l0.057-0.073c-2.56 3.285-16.384 26.325-30.72 51.2-19.963 35.933-29.409 51.963-38.959 67.923l10.458-18.856-2.389 3.883 190.037-0.896 3.115-9.131zM756.693 280.149l47.147-81.621-9.429-10.539c-21.035-23.424-55.808-51.84-84.651-69.12-34.946-20.945-75.528-37.217-118.686-46.578l-2.658-0.483c-18.133-3.627-50.816-7.936-50.816-6.699 0 1.792 102.059 176.597 105.899 181.333 2.776 3.57 5.168 7.648 6.995 12.021l0.131 0.352c1.877 5.419 57.984 104.149 58.709 103.296 0.128-0.171 21.461-37.035 47.36-81.963zM535.893 233.984c0-0.981-92.459-160.597-93.867-162.091-2.005-2.091-24.021 3.072-52.053 12.203-34.275 12.151-63.859 26.813-91.33 44.476l1.73-1.041c-39.713 27.039-73.304 59.598-100.619 97.027l-0.8 1.149-6.4 8.96 171.648-0.085c94.421-0.043 171.691-0.341 171.691-0.597z" />
<glyph unicode="&#xe90b;" glyph-name="archive" d="M26.197 872.235c-9.351-2.542-16.968-8.642-21.456-16.719l-0.090-0.177-3.797-7.125-0.469-119.125c-0.299-77.397 0.128-121.387 1.28-125.611 2.537-9.663 8.75-17.561 17.018-22.265l0.177-0.093c7.125-4.011 9.344-4.309 37.035-4.821l29.397-0.597 0.469-263.936 0.427-263.979 4.267-7.595c4.693-8.405 12.544-14.507 21.973-17.109 8.533-2.389 790.613-2.389 799.147 0 9.493 2.619 17.237 8.778 21.88 16.932l0.093 0.177 4.267 7.595 0.469 264.107 0.427 264.107h26.027c14.293 0 28.757 0.811 32.171 1.749 9.493 2.619 17.237 8.778 21.88 16.932l0.093 0.177 4.267 7.595v245.76l-3.797 7.125c-4.523 8.405-11.477 13.739-22.187 16.981-11.307 3.413-960.085 3.285-970.965-0.085zM938.667 725.333v-64h-853.333v128h853.333v-64zM853.333 341.333v-234.667h-682.667v469.333h682.667v-234.667zM410.197 488.235c-9.351-2.542-16.968-8.642-21.456-16.719l-0.090-0.177c-3.157-5.931-3.797-9.856-3.797-23.339 0-14.123 0.555-17.195 4.267-23.808 4.693-8.405 12.544-14.507 21.973-17.109 8.363-2.347 193.451-2.347 201.813 0 9.493 2.619 17.237 8.778 21.88 16.932l0.093 0.177c3.712 6.656 4.267 9.643 4.224 23.808-0.043 18.475-3.456 27.52-12.843 34.176-11.605 8.277-14.592 8.491-114.944 8.363-72.149-0.085-95.701-0.597-101.12-2.304z" />
<glyph unicode="&#xe90c;" glyph-name="arrow-down" d="M495.531 786.901c-9.351-2.542-16.968-8.642-21.456-16.719l-0.090-0.177-3.797-7.125-0.469-255.104-0.427-255.104-116.48 116.267c-77.952 77.867-118.827 117.461-123.605 119.851-15.019 7.509-31.275 3.627-45.781-10.88-14.805-14.805-18.603-30.336-11.093-45.397 2.688-5.333 47.829-51.797 153.387-157.781 82.261-82.603 151.040-152.405 152.832-155.093 4.352-6.571 23.253-15.061 33.451-15.061s29.099 8.491 33.451 15.061c1.792 2.688 70.571 72.491 152.832 155.093 105.557 105.984 150.699 152.448 153.387 157.781 7.509 15.061 3.712 30.592-11.093 45.397-14.507 14.507-30.763 18.389-45.781 10.88-4.779-2.389-45.653-41.984-123.605-119.851l-116.48-116.224-0.427 255.061-0.469 255.104-3.797 7.125c-2.391 4.254-5.427 7.848-9.021 10.784l-0.067 0.053c-11.264 8.064-30.763 10.624-45.397 6.059z" />
<glyph unicode="&#xe90d;" glyph-name="arrow-down-circle" d="M481.28 916.352l-23.893-2.56c-80.555-8.533-159.104-40.107-228.693-91.819-25.984-19.328-71.509-64.853-91.051-90.965-106.581-142.805-124.8-327.040-48.171-486.955 23.296-48.555 50.304-86.229 91.349-127.232 41.003-41.045 78.677-68.053 127.232-91.349 159.872-76.629 344.235-58.325 487.125 48.341 25.984 19.371 71.637 65.024 91.008 91.008 126.891 170.027 126.891 396.331 0 566.357-19.371 25.941-64.981 71.552-90.88 90.795-68.053 50.603-139.733 80-222.592 91.264-18.048 2.475-78.891 4.523-91.435 3.115zM568.32 827.691c109.355-16.512 204.971-78.080 266.24-171.477 12.928-19.755 31.701-57.984 39.765-81.067 14.763-42.368 20.693-78.72 20.693-127.147 0-63.701-10.965-111.829-38.272-168.107-30.080-62.037-75.477-113.792-134.528-153.259-33.664-22.528-87.509-45.056-128.811-53.973-24.244-5.414-52.089-8.515-80.658-8.515-91.486 0-175.543 31.805-241.717 84.962l0.754-0.586c-64.555 51.712-112.981 127.573-132.395 207.317-7.936 32.555-10.411 54.272-10.411 92.16 0 63.701 10.965 111.829 38.272 168.107 45.622 92.339 124.633 162.383 220.876 195.211l2.698 0.799c30.080 9.941 54.272 14.848 93.013 18.859 13.739 1.408 67.029-0.64 84.48-3.285zM495.531 658.901c-9.351-2.542-16.968-8.642-21.456-16.719l-0.090-0.177-3.797-7.125-0.469-127.061-0.469-127.019-52.437 52.181c-32.811 32.597-55.125 53.504-59.605 55.765-15.019 7.552-31.275 3.712-45.781-10.837-14.805-14.805-18.603-30.379-11.051-45.397 2.603-5.163 30.976-34.944 89.344-93.781 47.061-47.445 87.040-88.448 88.832-91.093 4.352-6.571 23.253-15.061 33.451-15.061s29.099 8.491 33.451 15.061c1.792 2.645 41.771 43.648 88.832 91.093 58.368 58.837 86.741 88.619 89.344 93.781 7.552 15.019 3.755 30.592-11.051 45.397-14.507 14.549-30.763 18.389-45.781 10.837-4.48-2.261-26.795-23.125-59.605-55.765l-52.437-52.181-0.469 127.061-0.469 127.019-3.797 7.125c-2.391 4.254-5.427 7.848-9.021 10.784l-0.067 0.053c-11.264 8.064-30.763 10.624-45.397 6.059z" />
<glyph unicode="&#xe90e;" glyph-name="arrow-down-left" d="M709.12 702.037c-4.267-2.176-74.24-70.869-187.264-183.765l-180.437-180.224-0.469 169.728-0.469 169.771-3.797 7.125c-4.523 8.405-11.477 13.739-22.187 16.981-21.717 6.528-45.227-0.896-53.845-16.981l-3.797-7.125-1.109-220.16c-0.442-101.351-0.906-180.623-1.471-259.871l0.191 34.122c-0.171-6.485 8.021-25.472 12.843-29.739 5.376-4.736 22.485-11.648 28.416-11.435 3.029 0.085 104.576 0.683 225.664 1.28 210.645 1.067 220.416 1.237 226.133 4.309 15.189 8.107 19.541 16.683 19.541 38.613 0 18.475-3.371 27.477-12.8 34.176-12.075 8.619-9.259 8.491-186.624 8.491h-165.675l180.267 180.48c128.683 128.768 181.376 182.656 184.107 188.032 7.509 15.061 3.712 30.635-11.093 45.397-14.507 14.507-31.275 18.432-46.123 10.795z" />
<glyph unicode="&#xe90f;" glyph-name="arrow-down-right" d="M282.709 702.080c-8.789-4.651-20.48-16.555-25.088-25.557-2.298-4.452-3.645-9.717-3.645-15.297 0-5.613 1.363-10.907 3.777-15.57l-0.089 0.189c2.731-5.376 55.424-59.264 184.107-188.032l180.267-180.48h-165.675c-177.365 0-174.549 0.128-186.624-8.491-7.808-5.547-12.459-15.957-13.355-29.909-1.323-20.523 4.693-34.091 18.475-41.813l7.595-4.267 220.16-1.109c121.088-0.597 222.677-1.195 225.749-1.28 6.485-0.171 25.472 8.021 29.739 12.843 4.736 5.376 11.648 22.485 11.435 28.416-0.085 3.029-0.64 104.576-1.28 225.664l-1.109 220.16-3.883 7.253c-7.040 13.227-23.893 20.48-43.307 18.731-18.56-1.707-31.275-11.221-35.541-26.624-1.109-3.968-1.749-66.389-1.749-172.587v-166.357l-180.48 180.267c-123.093 123.008-182.784 181.461-187.648 183.893-4.653 2.21-10.11 3.501-15.869 3.501-5.794 0-11.283-1.307-16.189-3.641l0.228 0.098z" />
<glyph unicode="&#xe910;" glyph-name="arrow-left" d="M495.787 787.371c-4.224-2.176-63.616-60.16-156.16-152.405-82.133-81.92-151.936-150.699-155.136-152.875-7.467-5.12-15.915-23.168-15.915-34.091 0-10.197 8.491-29.099 15.061-33.451 2.688-1.792 72.491-70.571 155.093-152.832 105.984-105.557 152.448-150.699 157.781-153.387 15.061-7.509 30.592-3.712 45.397 11.093s18.603 30.336 11.093 45.397c-2.688 5.291-38.528 42.368-120.064 124.032l-116.309 116.48h251.733c163.328 0 253.867 0.64 257.877 1.749 9.493 2.619 17.237 8.778 21.88 16.932l0.093 0.177c3.712 6.656 4.267 9.643 4.224 23.808-0.043 18.475-3.456 27.52-12.843 34.176-12.331 8.789-2.645 8.491-271.957 8.491h-251.008l116.309 116.48c81.536 81.664 117.376 118.741 120.064 124.032 7.509 15.061 3.712 30.592-11.093 45.397-14.507 14.507-31.317 18.432-46.123 10.795z" />
<glyph unicode="&#xe911;" glyph-name="arrow-left-circle" d="M481.28 916.352l-23.893-2.56c-80.555-8.533-159.104-40.107-228.693-91.819-25.984-19.328-71.509-64.853-91.051-90.965-106.581-142.805-124.8-327.040-48.171-486.955 23.296-48.555 50.304-86.229 91.349-127.232 41.003-41.045 78.677-68.053 127.232-91.349 159.872-76.629 344.235-58.325 487.125 48.341 25.984 19.371 71.637 65.024 91.008 91.008 126.891 170.027 126.891 396.331 0 566.357-19.371 25.941-64.981 71.552-90.88 90.795-68.053 50.603-139.733 80-222.592 91.264-18.048 2.475-78.891 4.523-91.435 3.115zM568.32 827.691c109.355-16.512 204.971-78.080 266.24-171.477 12.928-19.755 31.701-57.984 39.765-81.067 14.763-42.368 20.693-78.72 20.693-127.147 0-63.701-10.965-111.829-38.272-168.107-30.080-62.037-75.477-113.792-134.528-153.259-33.664-22.528-87.509-45.056-128.811-53.973-24.244-5.414-52.089-8.515-80.658-8.515-91.486 0-175.543 31.805-241.717 84.962l0.754-0.586c-64.555 51.712-112.981 127.573-132.395 207.317-7.936 32.555-10.411 54.272-10.411 92.16 0 63.701 10.965 111.829 38.272 168.107 45.622 92.339 124.633 162.383 220.876 195.211l2.698 0.799c30.080 9.941 54.272 14.848 93.013 18.859 13.739 1.408 67.029-0.64 84.48-3.285zM495.787 659.371c-4.053-2.091-41.301-37.803-92.16-88.405-46.933-46.72-87.936-86.699-91.136-88.875-7.467-5.12-15.915-23.211-15.915-34.091 0-10.197 8.491-29.099 15.061-33.451 2.645-1.792 43.648-41.771 91.093-88.832 58.837-58.368 88.619-86.741 93.781-89.344 15.019-7.552 30.592-3.755 45.397 11.051s18.603 30.379 11.051 45.397c-2.517 4.949-21.675 25.515-56.021 60.032l-52.224 52.48h123.648c77.611 0 125.995 0.64 129.877 1.749 9.493 2.619 17.237 8.778 21.88 16.932l0.093 0.177c3.712 6.656 4.267 9.643 4.224 23.808-0.043 18.475-3.456 27.52-12.843 34.176-11.861 8.448-12.501 8.491-143.915 8.491h-122.965l52.224 52.48c34.347 34.517 53.504 55.083 56.021 60.032 7.552 15.019 3.755 30.592-11.051 45.397-14.507 14.507-31.317 18.432-46.123 10.795z" />
<glyph unicode="&#xe912;" glyph-name="arrow-right" d="M496.043 787.413c-8.789-4.651-20.48-16.555-25.088-25.557-2.298-4.452-3.645-9.717-3.645-15.297 0-5.613 1.363-10.907 3.777-15.57l-0.089 0.189c2.688-5.291 38.528-42.368 120.064-124.032l116.309-116.48h-251.008c-269.312 0-259.627 0.299-271.957-8.491-9.472-6.741-12.885-15.744-12.885-34.176 0-14.123 0.555-17.195 4.267-23.808 4.693-8.405 12.544-14.507 21.973-17.109 4.011-1.109 94.549-1.749 257.877-1.749h251.733l-116.309-116.48c-81.536-81.664-117.376-118.741-120.064-124.032-7.509-15.061-3.712-30.592 11.093-45.397s30.336-18.603 45.397-11.093c5.333 2.688 51.797 47.829 157.781 153.387 82.603 82.261 152.405 151.040 155.093 152.832 6.571 4.352 15.061 23.253 15.061 33.451 0 10.923-8.448 28.971-15.915 34.091-3.2 2.176-73.003 70.955-155.136 152.875-100.907 100.651-151.68 150.059-156.501 152.491-4.653 2.21-10.11 3.501-15.869 3.501-5.794 0-11.283-1.307-16.189-3.641l0.228 0.098z" />
<glyph unicode="&#xe913;" glyph-name="arrow-right-circle" d="M481.28 916.352l-23.893-2.56c-80.555-8.533-159.104-40.107-228.693-91.819-25.984-19.328-71.509-64.853-91.051-90.965-106.581-142.805-124.8-327.040-48.171-486.955 23.296-48.555 50.304-86.229 91.349-127.232 41.003-41.045 78.677-68.053 127.232-91.349 159.872-76.629 344.235-58.325 487.125 48.341 25.984 19.371 71.637 65.024 91.008 91.008 126.891 170.027 126.891 396.331 0 566.357-19.371 25.941-64.981 71.552-90.88 90.795-68.053 50.603-139.733 80-222.592 91.264-18.048 2.475-78.891 4.523-91.435 3.115zM568.32 827.691c109.355-16.512 204.971-78.080 266.24-171.477 12.928-19.755 31.701-57.984 39.765-81.067 14.763-42.368 20.693-78.72 20.693-127.147 0-63.701-10.965-111.829-38.272-168.107-30.080-62.037-75.477-113.792-134.528-153.259-33.664-22.528-87.509-45.056-128.811-53.973-24.244-5.414-52.089-8.515-80.658-8.515-91.486 0-175.543 31.805-241.717 84.962l0.754-0.586c-64.555 51.712-112.981 127.573-132.395 207.317-7.936 32.555-10.411 54.272-10.411 92.16 0 63.701 10.965 111.829 38.272 168.107 45.622 92.339 124.633 162.383 220.876 195.211l2.698 0.799c30.080 9.941 54.272 14.848 93.013 18.859 13.739 1.408 67.029-0.64 84.48-3.285zM496.043 659.413c-15.744-8.277-28.8-26.795-28.8-40.747 0-14.208 4.48-19.925 59.819-75.52l52.224-52.48h-122.965c-131.413 0-132.053-0.043-143.915-8.491-9.472-6.741-12.885-15.744-12.885-34.176 0-14.123 0.555-17.195 4.267-23.808 4.693-8.405 12.544-14.507 21.973-17.109 3.883-1.109 52.267-1.749 129.877-1.749h123.648l-52.224-52.48c-34.347-34.517-53.504-55.083-56.021-60.032-7.552-15.019-3.755-30.592 11.051-45.397s30.379-18.603 45.397-11.051c5.163 2.603 34.944 30.976 93.781 89.344 47.445 47.061 88.448 87.040 91.093 88.832 6.571 4.352 15.061 23.253 15.061 33.451 0 10.88-8.448 28.971-15.915 34.091-3.2 2.176-44.203 42.155-91.136 88.875-55.808 55.509-87.808 86.144-92.501 88.491-4.653 2.21-10.11 3.501-15.869 3.501-5.794 0-11.283-1.307-16.189-3.641l0.228 0.098z" />
<glyph unicode="&#xe914;" glyph-name="arrow-up" d="M491.947 785.792c-5.845-2.859-11.989-7.211-13.653-9.728-1.621-2.517-70.315-72.192-152.576-154.795-105.557-105.984-150.699-152.448-153.387-157.781-7.509-15.061-3.712-30.592 11.093-45.397s30.336-18.603 45.397-11.093c5.291 2.688 42.368 38.528 124.032 120.064l116.48 116.309v-251.733c0-163.328 0.64-253.867 1.749-257.877 4.565-16.427 16.896-25.472 36.48-26.709 20.693-1.323 34.261 4.651 41.984 18.475l4.267 7.595 0.469 255.104 0.427 255.061 116.48-116.224c81.664-81.536 118.699-117.376 123.989-120.064 15.061-7.509 30.592-3.712 45.397 11.093s18.603 30.336 11.093 45.397c-2.688 5.333-47.829 51.797-153.387 157.781-82.261 82.603-150.955 152.277-152.619 154.795-1.621 2.517-7.893 6.912-13.867 9.771-14.677 6.997-25.301 6.997-39.851-0.043z" />
<glyph unicode="&#xe915;" glyph-name="arrow-up-circle" d="M481.28 916.352l-23.893-2.56c-80.555-8.533-159.104-40.107-228.693-91.819-25.984-19.328-71.509-64.853-91.051-90.965-106.581-142.805-124.8-327.040-48.171-486.955 23.296-48.555 50.304-86.229 91.349-127.232 41.003-41.045 78.677-68.053 127.232-91.349 159.872-76.629 344.235-58.325 487.125 48.341 25.984 19.371 71.637 65.024 91.008 91.008 126.891 170.027 126.891 396.331 0 566.357-19.371 25.941-64.981 71.552-90.88 90.795-68.053 50.603-139.733 80-222.592 91.264-18.048 2.475-78.891 4.523-91.435 3.115zM568.32 827.691c109.355-16.512 204.971-78.080 266.24-171.477 12.928-19.755 31.701-57.984 39.765-81.067 14.763-42.368 20.693-78.72 20.693-127.147 0-63.701-10.965-111.829-38.272-168.107-30.080-62.037-75.477-113.792-134.528-153.259-33.664-22.528-87.509-45.056-128.811-53.973-24.244-5.414-52.089-8.515-80.658-8.515-91.486 0-175.543 31.805-241.717 84.962l0.754-0.586c-64.555 51.712-112.981 127.573-132.395 207.317-7.936 32.555-10.411 54.272-10.411 92.16 0 63.701 10.965 111.829 38.272 168.107 45.622 92.339 124.633 162.383 220.876 195.211l2.698 0.799c30.080 9.941 54.272 14.848 93.013 18.859 13.739 1.408 67.029-0.64 84.48-3.285zM491.947 657.792c-5.845-2.859-11.989-7.211-13.653-9.728-1.621-2.475-41.515-43.349-88.576-90.795-58.368-58.837-86.741-88.619-89.344-93.781-7.552-15.019-3.755-30.592 11.051-45.397s30.379-18.603 45.397-11.051c4.949 2.517 25.515 21.675 60.032 56.021l52.48 52.224v-123.648c0-77.611 0.64-125.995 1.749-129.877 4.565-16.427 16.896-25.472 36.48-26.709 20.693-1.323 34.261 4.651 41.984 18.475l4.267 7.595 0.469 127.019 0.469 127.061 52.437-52.181c34.475-34.304 55.040-53.461 59.989-55.979 15.019-7.552 30.592-3.755 45.397 11.051s18.603 30.379 11.051 45.397c-2.603 5.163-30.976 34.944-89.344 93.781-47.061 47.445-86.955 88.32-88.619 90.837-1.621 2.475-7.893 6.869-13.867 9.728-14.677 6.997-25.301 6.997-39.851-0.043z" />
<glyph unicode="&#xe916;" glyph-name="arrow-up-left" d="M281.472 701.867c-4.694-2.063-8.701-4.302-12.467-6.869l0.264 0.17c-6.229-4.395-15.061-22.784-14.805-30.805 0.085-3.072 0.683-104.661 1.28-225.749l1.109-220.16 4.267-7.595c7.125-12.715 19.285-18.859 37.547-18.859s30.421 6.144 37.547 18.859l4.267 7.595 0.469 169.771 0.469 169.728 180.437-180.224c128.768-128.64 182.613-181.333 187.989-184.064 15.061-7.509 30.635-3.712 45.397 11.093 14.805 14.763 18.603 30.336 11.093 45.397-2.731 5.376-55.424 59.264-184.107 188.032l-180.267 180.48h166.357c106.197 0 168.619 0.64 172.587 1.749 9.493 2.619 17.237 8.778 21.88 16.932l0.093 0.177c3.712 6.656 4.267 9.643 4.224 23.808-0.043 13.44-0.683 17.451-3.883 23.467-4.437 8.448-13.355 14.848-24.235 17.408-5.163 1.195-80.299 1.963-229.077 2.219-207.531 0.384-221.824 0.256-228.437-2.56z" />
<glyph unicode="&#xe917;" glyph-name="arrow-up-right" d="M500.011 704l-215.936-0.853-8.491-4.352c-14.507-7.467-20.523-20.651-19.2-41.899 1.237-19.584 10.283-31.915 26.709-36.48 3.968-1.109 66.389-1.749 172.587-1.749h166.357l-180.267-180.48c-128.683-128.768-181.376-182.656-184.107-188.032-7.509-15.061-3.712-30.635 11.093-45.397 14.763-14.805 30.336-18.603 45.397-11.093 5.376 2.731 59.264 55.424 188.032 184.107l180.48 180.267v-166.357c0-106.197 0.64-168.619 1.749-172.587 4.565-16.427 16.896-25.472 36.48-26.709 20.693-1.323 34.261 4.651 41.984 18.475l4.267 7.595 1.109 220.16c0.64 121.088 1.195 222.677 1.28 225.749 0.256 8.021-8.576 26.411-14.763 30.805-9.557 6.827-20.693 10.581-29.995 10.112-4.864-0.213-105.984-0.768-224.768-1.28z" />
<glyph unicode="&#xe918;" glyph-name="at-sign" d="M481.28 916.309l-23.040-2.517c-83.115-8.832-166.528-43.008-236.245-96.768-22.059-17.024-67.2-63.061-84.224-85.845-59.435-79.787-91.136-169.856-94.507-268.672-3.669-106.581 29.141-209.877 94.507-297.685 19.2-25.813 64.896-71.467 91.051-91.008 121.301-90.624 272.555-117.931 417.152-75.349 51.726 15.414 96.824 37.812 137.070 66.565l-1.39-0.944c27.093 19.2 34.133 28.203 34.133 43.776 0 10.453-5.803 22.528-15.616 32.64-11.648 11.947-22.528 15.744-35.2 12.331-3.883-1.024-18.816-9.728-33.195-19.328-30.293-20.181-49.152-30.379-76.203-41.259-63.403-25.472-134.997-34.091-200.064-24.021-99.086 15.436-184.042 66.663-242.874 139.796l-0.582 0.748c-33.707 42.155-60.715 97.109-72.661 147.925-8.235 35.029-10.496 55.211-10.325 93.013 0.171 49.067 6.912 87.637 22.827 130.56 41.088 110.891 131.328 197.504 242.475 232.747 42.709 13.568 70.613 17.835 116.779 17.963 40.533 0.085 60.544-2.347 97.323-11.819 87.793-23.225 161.262-74.441 212.17-143.34l0.737-1.044c37.675-51.157 60.757-107.776 70.443-173.013 3.541-23.765 5.248-95.531 2.688-110.933-3.088-17.986-11.68-33.579-23.952-45.371l-0.027-0.026c-17.109-17.195-36.523-25.429-59.861-25.429-30.216 0.095-56.724 15.88-71.815 39.632l-0.206 0.347c-12.843 19.883-12.245 13.099-13.269 151.168l-0.896 123.733-3.797 7.125c-8.619 16.085-32.128 23.509-53.845 16.981-15.787-4.779-24.32-15.061-26.283-31.744l-0.981-8.235-11.307 7.296c-31.147 20.053-58.837 29.696-96.213 33.493-6.125 0.611-13.238 0.96-20.433 0.96-26.685 0-52.249-4.794-75.88-13.567l1.508 0.49c-50.926-19.966-91.526-57.014-115.568-103.947l-0.571-1.226c-15.701-31.915-21.589-57.643-21.589-94.507 0-28.587 2.475-44.544 10.581-68.267 24.661-72.149 84.693-124.8 160.939-141.099 20.096-4.309 61.824-4.309 81.92 0 42.202 8.883 78.767 28.928 107.62 56.887l-0.057-0.055 11.093 10.837 7.68-9.643c4.181-5.291 13.227-14.421 20.096-20.309 88.96-76.203 225.579-42.965 269.312 65.493 3.2 8.021 7.467 22.272 9.387 31.744 3.285 15.872 3.499 21.248 2.731 68.437-0.939 57.387-3.669 81.024-13.909 121.003-22.187 86.485-65.109 160.085-130.005 222.891-72.235 69.931-162.091 113.195-264.107 127.189-18.347 2.517-79.275 4.651-91.52 3.2zM548.736 570.496c40.235-11.776 73.515-44.971 85.931-85.76 3.541-11.648 4.181-17.195 4.181-36.736s-0.64-25.088-4.181-36.736c-13.188-41.45-45.29-73.411-85.898-86.149l-0.929-0.251c-18.517-5.76-53.163-5.76-71.68 0-41.537 12.989-73.638 44.95-86.571 85.472l-0.256 0.928c-3.541 11.648-4.181 17.195-4.181 36.736s0.64 25.088 4.181 36.736c14.554 46.192 53.008 80.736 100.495 89.436l0.796 0.121c14.208 2.56 42.709 0.725 58.112-3.797z" />
<glyph unicode="&#xe919;" glyph-name="award" d="M478.165 958.165c-70.624-7.466-133.63-35.294-184.327-77.424l0.562 0.454c-37.391-30.892-67.604-69.048-88.726-112.443l-0.874-1.989c-21.414-43.348-33.942-94.376-33.942-148.33 0-81.7 28.725-156.69 76.627-215.423l-0.488 0.617c10.539-12.971 38.4-40.875 50.731-50.816l6.741-5.419-24.448-183.893c-17.792-134.101-24.192-186.624-23.509-193.877 1.237-13.781 7.168-22.4 19.243-27.904 11.733-5.419 24.832-6.699 34.859-3.541 4.224 1.365 51.2 28.587 104.363 60.544l96.725 58.112 95.275-57.173c52.437-31.445 98.176-58.624 101.632-60.416 4.736-2.389 9.984-3.243 20.395-3.243h14.080l9.6 9.899c9.643 9.899 15.275 21.248 15.36 30.933 0 2.432-10.88 86.784-24.235 187.477l-24.235 183.083 6.699 5.419c3.712 2.987 14.293 12.757 23.552 21.717 63.837 61.793 103.464 148.262 103.464 243.986 0 53.942-12.583 104.945-34.975 150.233l0.887-1.985c-21.996 45.384-52.209 83.54-89.035 113.979l-0.565 0.453c-68.992 57.728-160.555 85.76-251.435 76.971zM536.064 873.003c101.554-9.811 185.034-77.751 217.351-169.772l0.548-1.791c8.599-24.601 13.566-52.962 13.566-82.483 0-48.957-13.66-94.723-37.378-133.695l0.643 1.138c-19.243-32.256-55.467-69.035-80.853-82.048-3.482-1.576-6.479-3.534-9.126-5.878l0.038 0.033c-1.877-3.029-29.824-16.256-46.080-21.845-29.525-10.112-47.701-12.928-82.773-12.928-26.325 0-34.56 0.64-49.493 3.84-33.686 7.122-63.492 19.805-89.947 37.174l0.987-0.609c-47.907 30.956-84.175 76.357-102.966 129.974l-0.544 1.781c-21.205 62.165-16.939 136.149 11.136 192.853 12.847 26.607 29.149 49.373 48.683 68.907v0c45.938 47.268 110.117 76.596 181.147 76.596 8.826 0 17.546-0.453 26.138-1.336l-1.077 0.090zM405.504 294.571c70.315-23.040 142.677-23.040 213.035 0 11.179 3.669 20.48 6.485 20.651 6.229 0.939-1.152 31.616-237.312 30.891-237.995-0.469-0.469-33.28 18.645-72.917 42.411l-72.107 43.264h-26.112l-72.107-43.264c-39.637-23.765-72.448-42.88-72.917-42.453-0.64 0.683 30.208 238.464 30.976 238.464 0.171 0 9.429-2.987 20.608-6.656z" />
<glyph unicode="&#xe91a;" glyph-name="bar-chart" d="M751.531 829.568c-9.351-2.542-16.968-8.642-21.456-16.719l-0.090-0.177-3.797-7.125-0.427-353.877c-0.299-233.685 0.128-356.096 1.28-360.277 4.437-16.597 16.811-25.771 36.523-27.008 20.693-1.323 34.261 4.651 41.984 18.475l4.267 7.595v715.093l-3.797 7.125c-2.391 4.254-5.427 7.848-9.021 10.784l-0.067 0.053c-11.264 8.064-30.763 10.624-45.397 6.059zM495.531 573.568c-9.351-2.542-16.968-8.642-21.456-16.719l-0.090-0.177-3.797-7.125-0.469-225.877c-0.299-148.437 0.171-228.053 1.28-232.277 4.48-16.597 16.853-25.728 36.565-27.008 20.693-1.323 34.261 4.651 41.984 18.475l4.267 7.595v459.093l-3.797 7.125c-2.391 4.254-5.427 7.848-9.021 10.784l-0.067 0.053c-11.264 8.064-30.763 10.624-45.397 6.059zM239.531 317.568c-9.351-2.542-16.968-8.642-21.456-16.719l-0.090-0.177c-3.797-7.083-3.797-7.509-4.267-104.875-0.341-63.189 0.128-100.053 1.28-104.277 4.48-16.725 16.811-25.856 36.565-27.136 20.693-1.323 34.261 4.651 41.984 18.475l4.267 7.595v203.093l-3.797 7.125c-2.391 4.254-5.427 7.848-9.021 10.784l-0.067 0.053c-11.264 8.064-30.763 10.624-45.397 6.059z" />
<glyph unicode="&#xe91b;" glyph-name="bar-chart-2" d="M495.531 829.568c-9.351-2.542-16.968-8.642-21.456-16.719l-0.090-0.177-3.797-7.125-0.427-353.877c-0.299-233.685 0.128-356.096 1.28-360.277 4.437-16.597 16.811-25.771 36.523-27.008 20.693-1.323 34.261 4.651 41.984 18.475l4.267 7.595v715.093l-3.797 7.125c-2.391 4.254-5.427 7.848-9.021 10.784l-0.067 0.053c-11.264 8.064-30.763 10.624-45.397 6.059zM751.531 573.568c-9.351-2.542-16.968-8.642-21.456-16.719l-0.090-0.177-3.797-7.125-0.469-225.877c-0.299-148.437 0.171-228.053 1.28-232.277 4.48-16.597 16.853-25.728 36.565-27.008 20.693-1.323 34.261 4.651 41.984 18.475l4.267 7.595v459.093l-3.797 7.125c-2.391 4.254-5.427 7.848-9.021 10.784l-0.067 0.053c-11.264 8.064-30.763 10.624-45.397 6.059zM239.531 402.901c-9.351-2.542-16.968-8.642-21.456-16.719l-0.090-0.177-3.797-7.125-0.469-140.459c-0.299-91.648 0.128-142.72 1.28-146.944 4.48-16.683 16.853-25.813 36.565-27.093 20.693-1.323 34.261 4.651 41.984 18.475l4.267 7.595v288.427l-3.797 7.125c-2.391 4.254-5.427 7.848-9.021 10.784l-0.067 0.053c-11.264 8.064-30.763 10.624-45.397 6.059z" />
<glyph unicode="&#xe91c;" glyph-name="battery" d="M106.624 744.832c-47.744-8.064-86.955-42.88-101.76-90.325l-4.011-12.8v-387.413l4.011-12.8c13.117-41.864 45.432-74.179 86.363-87.043l0.933-0.253 12.8-4.011h643.413l12.8 4.011c41.864 13.117 74.179 45.432 87.043 86.363l0.253 0.933 4.011 12.8v387.413l-4.011 12.8c-13.049 41.546-44.977 73.67-85.467 86.737l-0.933 0.26-13.696 4.309-316.587 0.256c-174.123 0.128-320.469-0.427-325.163-1.237zM738.56 658.731c11.904-3.541 23.296-14.933 26.837-26.837 2.261-7.552 2.603-32.043 2.603-183.936 0-190.165 0.299-184.235-9.429-196.992-2.603-3.413-8.277-8.32-12.587-10.837l-7.851-4.608h-622.933l-7.851 4.608c-9.034 5.384-15.9 13.602-19.443 23.41l-0.099 0.312c-3.797 10.837-3.712 355.157 0.128 368.043 3.371 11.477 14.976 23.339 26.112 26.752 12.416 3.797 611.669 3.925 624.512 0.085zM964.864 530.901c-9.351-2.542-16.968-8.642-21.456-16.719l-0.090-0.177c-3.669-6.869-3.797-9.045-4.309-62.080-0.341-34.645 0.128-57.429 1.28-61.611 4.523-16.853 16.811-25.984 36.608-27.264 20.693-1.323 34.261 4.651 41.984 18.475l4.267 7.595v58.88c0 57.6-0.085 59.051-3.797 66.005-2.391 4.254-5.427 7.848-9.021 10.784l-0.067 0.053c-11.264 8.064-30.763 10.624-45.397 6.059z" />
<glyph unicode="&#xe91d;" glyph-name="battery-charging" d="M453.12 745.557c-3.796-2.181-7.079-4.567-10.082-7.259l0.055 0.048c-5.675-5.205-180.907-267.179-185.6-277.461-3.883-8.533-4.096-21.589-0.469-29.184 1.493-3.157 6.144-8.917 10.325-12.757 14.421-13.269 9.131-12.672 113.664-13.611l93.44-0.853-64.256-96.341c-35.328-53.035-65.621-99.499-67.371-103.253-3.883-8.533-4.096-21.589-0.469-29.184 3.712-7.893 16.128-18.944 26.795-23.893 16.085-7.509 31.275-4.693 43.221 8.021 8.917 9.515 180.053 267.733 182.827 275.883 5.248 15.317-0.427 38.528-11.264 46.251-11.093 7.893-10.155 7.808-109.909 8.704l-95.147 0.853 64.256 96.341c35.328 53.035 65.621 99.499 67.371 103.253 3.883 8.533 4.096 21.589 0.469 29.184-3.712 7.893-16.128 18.944-26.795 23.893-10.368 4.864-23.339 5.419-31.061 1.365zM106.624 744.832c-47.616-7.979-86.955-42.88-101.76-90.325l-4.011-12.8v-387.413l4.011-12.8c13.123-41.569 45.031-73.73 85.505-86.946l0.938-0.265c11.307-3.712 15.019-3.925 70.997-4.565 38.869-0.427 61.397-0.043 65.877 1.195 9.808 2.481 17.837 8.742 22.606 17.103l0.093 0.177c3.712 6.656 4.267 9.643 4.224 23.808-0.085 22.656-5.504 32.299-22.357 39.595-3.413 1.493-21.888 2.389-61.227 3.029l-56.32 0.896-7.851 4.608c-4.793 2.951-8.888 6.476-12.356 10.551l-0.060 0.073c-10.027 13.141-9.6 4.608-9.6 196.309 0 199.040-0.725 187.691 12.928 201.344 12.8 12.8 13.909 12.928 99.755 12.928 79.147 0 84.181 0.427 95.275 8.32 8.491 6.059 12.971 17.621 13.013 33.493 0 16.64-2.432 24.064-10.581 32.213-11.051 11.051-13.483 11.349-101.888 11.093-43.264-0.085-82.517-0.853-87.211-1.621zM623.531 744.277c-10.155-3.285-17.195-8.789-21.547-16.939-3.157-5.931-3.797-9.856-3.797-23.339 0-14.123 0.555-17.195 4.267-23.808 4.693-8.405 12.544-14.507 21.973-17.109 3.499-0.981 27.819-1.749 55.808-1.749 58.24 0 62.677-0.768 74.837-12.928 13.653-13.653 12.928-2.389 12.928-200.448 0-190.165 0.299-184.235-9.429-196.992-2.603-3.413-8.277-8.32-12.587-10.837l-7.851-4.608-81.92-0.853c-90.027-0.939-88.363-0.725-99.328-11.691-7.296-7.296-9.856-15.659-9.856-31.829 0.043-22.869 8.789-35.328 28.16-40.107 5.333-1.323 33.493-1.749 91.307-1.323 82.005 0.555 83.797 0.64 95.531 4.523 41.409 13.508 73.312 45.678 86.186 86.313l0.257 0.94 4.011 12.8v387.413l-4.011 12.8c-13.004 41.539-44.957 73.646-85.471 86.612l-0.929 0.257c-13.269 4.096-15.488 4.267-72.576 4.736-45.653 0.341-60.459-0.043-65.963-1.835zM964.864 530.901c-9.351-2.542-16.968-8.642-21.456-16.719l-0.090-0.177c-3.669-6.869-3.797-9.045-4.309-62.080-0.341-34.645 0.128-57.429 1.28-61.611 4.523-16.853 16.811-25.984 36.608-27.264 20.693-1.323 34.261 4.651 41.984 18.475l4.267 7.595v58.88c0 57.6-0.085 59.051-3.797 66.005-2.391 4.254-5.427 7.848-9.021 10.784l-0.067 0.053c-11.264 8.064-30.763 10.624-45.397 6.059z" />
<glyph unicode="&#xe91e;" glyph-name="bell" d="M492.373 916.352c-35.2-3.371-55.040-7.552-81.92-17.237-82.18-30.405-146.096-93.471-176.967-173.021l-0.697-2.041c-13.141-34.432-17.365-59.264-19.456-113.92-2.091-54.784-3.072-69.163-6.912-99.84-8.021-64-23.467-118.144-47.317-165.675-13.164-27.207-30.25-50.389-50.838-69.917l-0.106-0.099c-11.563-11.349-21.803-22.741-22.784-25.301-6.315-16.64 4.139-41.344 21.973-51.84l7.851-4.608 394.837-0.427c260.949-0.299 397.056 0.128 401.237 1.28 15.915 4.267 25.088 16.128 26.795 34.603 1.792 18.773-1.536 25.301-24.021 47.787-19.653 19.288-36.037 41.82-48.3 66.745l-0.639 1.436c-25.045 49.877-40.491 104.875-48.341 171.989-3.2 27.435-4.181 42.752-6.101 93.867-2.048 54.315-5.376 74.411-18.219 110.080-36.565 101.632-127.659 176.939-233.429 192.939-16.043 2.432-54.997 4.309-66.645 3.2zM535.552 830.165c81-9.307 147.558-62.716 175.632-135.288l0.496-1.459c9.301-24.149 13.653-53.035 13.653-90.453 0.043-25.813 3.755-78.080 7.637-107.136 9.899-74.155 28.928-137.685 58.069-194.176l12.544-24.32h-583.168l12.544 24.32c29.141 56.491 48.085 119.851 58.069 194.176 3.755 27.947 7.595 82.432 7.637 107.989 0 36.565 4.437 65.664 13.653 89.6 31.265 81.367 108.774 138.069 199.527 138.069 8.352 0 16.592-0.48 24.693-1.415l-0.988 0.093zM427.819 105.899c-3.584-1.28-10.667-5.077-15.701-8.405-27.349-18.176-23.765-46.72 10.112-80.597 13.141-13.141 18.048-16.768 31.744-23.467 22.528-11.008 34.261-13.824 58.027-13.824s35.499 2.816 58.027 13.824c13.696 6.699 18.603 10.325 31.744 23.467 34.475 34.517 37.547 62.763 8.832 81.365-16.469 10.624-28.843 12.672-41.429 6.869-7.424-3.413-10.709-6.613-20.821-20.096-8.064-10.837-13.483-15.232-22.784-18.517-4.035-1.52-8.699-2.4-13.568-2.4s-9.533 0.88-13.841 2.489l0.273-0.089c-9.301 3.285-14.72 7.68-22.784 18.517-10.112 13.483-13.397 16.683-20.821 20.096-4.258 1.907-9.227 3.018-14.457 3.018-4.507 0-8.821-0.825-12.8-2.332l0.249 0.083z" />
<glyph unicode="&#xe91f;" glyph-name="bell-off" d="M21.675 954.752c-7.68-5.077-15.701-13.824-19.712-21.504-1.067-2.048-1.963-9.429-1.963-16.384 0-11.136 0.597-13.483 5.035-20.139 2.773-4.139 52.181-54.656 109.824-112.213l104.747-104.704-2.261-12.203c-1.237-6.741-3.029-32.597-3.968-57.472-4.053-107.691-13.995-167.296-38.229-229.291-18.645-47.701-36.992-76.8-66.987-106.24-11.563-11.349-21.803-22.741-22.784-25.301-6.315-16.64 4.139-41.344 21.973-51.84l7.851-4.608 592.213-0.896 125.44-125.227c68.992-68.907 127.915-126.464 130.901-128 3.541-1.749 9.899-2.731 18.048-2.731 11.221 0 13.483 0.597 20.523 5.248 7.68 5.077 15.701 13.824 19.712 21.504 2.987 5.675 2.475 27.051-0.768 33.493-2.048 4.011-169.472 174.336-264.619 269.141l-345.216 344.491c-187.52 187.136-344.235 342.485-348.288 345.173-6.528 4.395-8.832 4.949-20.437 4.949-11.776 0-13.909-0.512-21.035-5.248zM476.757 915.456c-42.969-5.121-81.863-18.836-116.188-39.394l1.329 0.738c-21.589-12.672-31.787-22.357-35.029-33.195-1.004-3.203-1.582-6.886-1.582-10.704 0-1.098 0.048-2.185 0.142-3.259l-0.010 0.139c2.816-14.933 17.365-34.859 29.099-39.808 3.914-1.387 8.429-2.188 13.13-2.188 5.592 0 10.92 1.134 15.765 3.184l-0.266-0.1c3.755 1.707 12.501 6.656 19.456 11.008 31.232 19.371 70.485 30.123 110.251 30.080 99.243 0 186.24-70.229 207.488-167.467 2.773-12.757 3.797-26.283 5.035-67.157 2.304-75.264 8.149-121.301 23.083-181.547 8.448-34.048 12.971-43.136 24.619-49.579 18.901-10.453 54.443 0.896 62.421 19.968 3.712 8.875 3.029 20.608-2.517 42.709-14.101 54.393-22.234 116.852-22.315 181.199v0.049c-0.043 42.539-3.883 68.139-15.531 103.168-36.667 107.083-129.424 185.703-242.313 201.379l-1.57 0.179c-12.079 1.37-26.080 2.151-40.263 2.151-12.053 0-23.973-0.564-35.738-1.668l1.505 0.114zM460.8 438.613l161.28-161.28h-401.664l12.544 24.32c37.803 73.259 57.771 154.837 64.213 261.973 1.195 19.968 2.219 36.267 2.261 36.267l161.365-161.28zM427.819 105.899c-3.584-1.28-10.667-5.077-15.701-8.405-27.349-18.176-23.765-46.72 10.112-80.597 13.141-13.141 18.048-16.768 31.744-23.467 22.528-11.008 34.261-13.824 58.027-13.824s35.499 2.816 58.027 13.824c13.696 6.699 18.603 10.325 31.744 23.467 34.475 34.517 37.547 62.763 8.832 81.365-16.469 10.624-28.843 12.672-41.429 6.869-7.424-3.413-10.709-6.613-20.821-20.096-8.064-10.837-13.483-15.232-22.784-18.517-4.035-1.52-8.699-2.4-13.568-2.4s-9.533 0.88-13.841 2.489l0.273-0.089c-9.301 3.285-14.72 7.68-22.784 18.517-10.112 13.483-13.397 16.683-20.821 20.096-4.258 1.907-9.227 3.018-14.457 3.018-4.507 0-8.821-0.825-12.8-2.332l0.249 0.083z" />
<glyph unicode="&#xe920;" glyph-name="bluetooth" d="M495.531 957.568c-9.351-2.542-16.968-8.642-21.456-16.719l-0.090-0.177-3.797-7.125-0.469-191.061-0.427-191.104-84.907 84.565c-55.979 55.808-87.168 85.675-91.691 87.808-4.484 1.984-9.714 3.138-15.213 3.138-5.612 0-10.943-1.203-15.75-3.364l0.243 0.098c-5.714-3.319-10.644-7.121-15.021-11.48l0.003 0.003c-14.464-14.379-18.176-28.8-11.307-43.989 2.645-5.888 28.459-32.725 109.568-113.92l106.155-106.24-106.155-106.24c-81.109-81.195-106.923-108.032-109.568-113.92-6.912-15.317-3.157-29.568 11.733-44.459 14.976-14.976 29.227-18.731 44.331-11.605 5.803 2.731 29.696 25.472 92.715 88.277l84.907 84.608 0.085-186.837c0.043-151.637 0.512-188.032 2.347-193.237 3.243-9.088 9.813-17.109 19.115-23.253 7.253-4.821 9.344-5.333 21.12-5.333 11.648 0 13.909 0.555 20.608 5.035 4.139 2.773 62.549 60.203 129.749 127.573 128.213 128.555 129.536 130.005 129.536 144.725 0 14.549-2.176 17.024-113.28 128.427l-105.984 106.24 105.984 106.24c82.56 82.773 106.837 108.075 109.824 114.475 5.205 11.008 4.181 21.803-3.029 33.024-2.944 4.523-60.459 63.275-127.829 130.517-118.699 118.528-122.837 122.411-131.797 125.013-4.655 1.585-10.018 2.501-15.595 2.501-5.23 0-10.272-0.805-15.009-2.298l0.353 0.096zM620.8 747.947l65.28-65.28-131.413-131.413v130.987c0 72.064 0.213 130.987 0.427 130.987 0.256 0 29.824-29.397 65.707-65.28zM620.8 278.613l65.28-65.28-131.413-131.413v130.987c0 72.064 0.213 130.987 0.427 130.987 0.256 0 29.824-29.397 65.707-65.28z" />
<glyph unicode="&#xe921;" glyph-name="bold" d="M239.531 829.568c-9.351-2.542-16.968-8.642-21.456-16.719l-0.090-0.177-3.797-7.125-0.427-353.877c-0.299-233.685 0.128-356.096 1.28-360.277 2.56-9.643 8.661-17.536 17.152-22.272l7.595-4.267h213.333c199.851 0 214.229 0.213 227.84 3.115 65.195 13.952 118.955 54.485 148.181 111.744 9.771 19.157 15.872 36.224 20.224 56.661 4.309 20.096 4.309 61.824 0 81.92-12.075 56.533-44.373 104.875-90.453 135.552l-15.061 9.984 8.491 8.747c25.856 26.539 45.781 65.067 54.357 105.131 2.261 10.496 3.115 21.845 3.115 40.96s-0.853 30.464-3.115 40.96c-12.032 56.277-44.544 105.131-89.899 135.083-32.171 21.291-59.904 31.531-95.915 35.456-25.899 2.859-372.139 2.261-381.355-0.597zM634.069 741.461c41.103-13.164 72.826-44.929 85.675-85.131l0.256-0.928c3.541-11.648 4.181-17.195 4.181-36.736s-0.64-25.088-4.181-36.736c-12.373-40.533-43.989-72.32-85.973-86.4l-11.947-4.011-323.413-0.981v256.256l321.707-1.024 13.696-4.309zM676.736 400.171c41.097-13.198 72.812-44.97 85.674-85.172l0.257-0.929c3.541-11.648 4.181-17.195 4.181-36.736s-0.64-25.088-4.181-36.736c-12.331-40.533-43.989-72.32-85.973-86.4l-11.947-4.011-366.080-0.939v256.171l364.373-0.939 13.696-4.309z" />
<glyph unicode="&#xe922;" glyph-name="book" d="M250.581 914.645c-32.455-6.104-60.479-21.971-81.639-44.386l-0.068-0.073c-16.896-17.877-27.307-36.011-35.328-61.568l-4.693-15.019v-691.2l4.693-15.019c16.256-51.797 51.371-86.912 103.168-103.168l15.019-4.693 305.195-0.469c202.837-0.299 307.371 0.128 311.637 1.28 9.646 2.547 17.527 8.758 22.222 17.017l0.093 0.177 4.267 7.595v885.76l-3.797 7.125c-4.523 8.405-11.477 13.739-22.187 16.981-11.648 3.499-599.083 3.2-618.581-0.341zM810.667 554.667v-277.333h-272c-295.509 0-287.104 0.256-312.704-9.387-2.702-1.147-6.693-2.596-10.746-3.907l-1.286-0.359c-0.341 0-0.469 116.907-0.213 259.84l0.469 259.84 4.779 10.24c8.448 18.133 26.624 33.109 44.459 36.608 3.883 0.768 128.64 1.493 277.163 1.621l270.080 0.171v-277.333zM810.667 128v-64.043l-548.693 0.896-10.24 4.779c-14.247 7.097-25.526 18.362-32.453 32.185l-0.187 0.412c-4.053 8.875-4.736 12.629-4.736 25.771-0.043 13.184 0.64 16.811 4.693 25.6 8.277 18.048 26.496 33.109 44.373 36.608 3.883 0.768 128.64 1.493 277.163 1.621l270.080 0.171v-64z" />
<glyph unicode="&#xe923;" glyph-name="bookmark" d="M277.291 872.832c-47.787-8.107-86.955-42.88-101.76-90.325l-4.011-12.8v-359.253c0-343.211 0.128-359.509 3.072-364.885 12.843-23.509 33.749-31.701 54.272-21.248 5.077 2.603 70.827 48.725 146.176 102.571l136.96 97.877 139.179-99.371c76.501-54.656 141.995-100.395 145.493-101.675 3.456-1.237 10.155-2.261 14.848-2.304 17.237-0.128 29.653 6.229 36.693 18.773l4.267 7.595v721.92l-4.011 12.8c-13.049 41.546-44.977 73.67-85.467 86.737l-0.933 0.26-13.696 4.309-231.253 0.256c-127.189 0.128-235.136-0.427-239.829-1.237zM738.56 786.731c12.737-4.346 22.574-14.21 26.792-26.666l0.088-0.299c2.261-7.808 2.517-45.739 2.133-310.613l-0.427-301.781-115.2 82.432c-63.36 45.312-118.613 84.139-122.752 86.272-5.017 2.523-10.933 4-17.195 4s-12.178-1.477-17.42-4.102l0.225 0.102c-4.139-2.133-59.392-40.96-122.752-86.272l-115.2-82.432-0.427 301.781c-0.469 339.584-1.493 313.259 12.501 327.253 13.568 13.568-2.987 12.672 242.347 12.8 190.933 0.128 219.648-0.213 227.285-2.475z" />
<glyph unicode="&#xe924;" glyph-name="book-open" d="M68.864 872.235c-9.351-2.542-16.968-8.642-21.456-16.719l-0.090-0.177-3.797-7.125-0.427-332.544c-0.299-219.477 0.128-334.72 1.28-338.944 2.56-9.643 8.661-17.536 17.152-22.272l7.595-4.267 166.4-0.896c185.899-0.981 173.483-0.128 193.835-13.269 25.173-16.299 39.851-43.221 39.936-73.259 0.043-11.733 4.267-23.936 10.581-30.592 14.208-14.891 51.499-14.123 65.664 1.365 5.248 5.76 9.131 18.688 9.216 30.933 0.299 30.208 16.256 57.472 43.179 73.557 19.2 11.52 15.659 11.307 191.744 11.307 100.821 0 160.64 0.64 164.565 1.749 9.493 2.619 17.237 8.778 21.88 16.932l0.093 0.177 4.267 7.595v672.427l-3.797 7.125c-2.391 4.254-5.427 7.848-9.021 10.784l-0.067 0.053c-11.947 8.491-11.563 8.491-156.416 8.491-139.093 0-157.099-0.683-181.419-6.912-40.702-10.89-75.48-32.214-102.465-60.942l-0.106-0.114-15.189-16.043-15.147 15.957c-35.968 38.016-81.109 60.672-131.968 66.219-25.643 2.816-286.848 2.261-296.021-0.597zM378.069 784.128c41.112-13.221 72.86-44.955 85.841-85.126l0.26-0.932 4.309-13.696 0.469-235.947c0.256-129.792 0.043-235.947-0.469-235.947s-5.333 2.176-10.709 4.864c-13.912 7.104-30.073 12.314-47.129 14.751l-0.829 0.097c-13.269 1.963-41.941 2.475-149.12 2.475h-132.693v554.837l236.373-1.109 13.696-4.267zM896 512v-277.333h-132.693c-107.179 0-135.851-0.512-149.12-2.475-17.884-2.534-34.045-7.744-48.841-15.255l0.884 0.407c-2.91-1.6-6.438-3.236-10.077-4.648l-0.632-0.216c-0.512 0-0.725 106.155-0.469 235.947l0.469 235.947 4.309 13.696c14.805 46.763 54.187 81.493 101.461 89.429 4.693 0.768 59.477 1.536 121.643 1.621l113.067 0.213v-277.333z" />
<glyph unicode="&#xe925;" glyph-name="box" d="M492.416 915.541c-13.425-2.162-25.488-6.153-36.595-11.761l0.713 0.326c-4.693-2.304-77.867-43.819-162.603-92.203-95.957-54.784-157.483-90.923-163.072-95.829-11.776-10.24-24.789-25.472-29.611-34.603-2.133-4.053-6.4-14.635-9.472-23.552l-5.589-16.213v-385.707l4.011-12.8c10.069-32.256 29.056-57.6 55.765-74.496 13.909-8.789 294.229-168.576 307.157-175.104 6.571-3.285 16.939-7.595 23.040-9.557 6.101-1.92 14.165-4.693 17.92-6.101 8.747-3.243 27.093-3.243 35.84 0 3.755 1.408 11.819 4.181 17.92 6.101 6.101 1.963 16.469 6.272 23.040 9.557 12.928 6.528 293.248 166.315 307.157 175.104 19.936 12.525 35.724 29.996 45.885 50.727l0.323 0.729c14.549 29.525 13.483 12.672 14.080 221.013 0.597 195.712 0.555 196.907-7.296 220.075-7.68 22.485-18.133 37.632-37.888 54.827-8.832 7.68-304.811 178.219-328.277 189.141-5.827 2.747-12.852 5.391-20.104 7.501l-1.059 0.264c-10.124 2.233-21.753 3.512-33.68 3.512-6.202 0-12.324-0.346-18.346-1.019l0.74 0.067zM524.117 829.653c4.139-1.28 69.931-38.059 146.219-81.707l138.709-79.36-147.157-85.12c-80.939-46.805-148.395-85.12-149.888-85.12s-68.949 38.315-149.888 85.12l-147.2 85.12 138.752 79.36c76.288 43.648 141.781 80.384 145.536 81.621 3.742 1.396 8.066 2.204 12.578 2.204 4.423 0 8.665-0.776 12.597-2.2l-0.258 0.081zM321.451 508.587l147.755-85.333 0.085-170.24c0-93.653-0.341-170.24-0.811-170.24s-63.573 35.84-140.245 79.659c-97.792 55.851-141.312 81.621-145.877 86.357-12.16 12.544-11.691 5.163-11.691 185.173 0 94.635 0.64 160.853 1.536 160.512 0.853-0.299 68.011-38.955 149.248-85.888zM853.333 433.792c0-179.84 0.469-172.459-11.691-185.003-4.565-4.736-48.085-30.507-145.877-86.357 27.953 13.026-17.882-13.398-63.864-39.594l-76.382-40.065c-0.469 0-0.811 76.587-0.811 170.24l0.085 170.24 147.968 85.632c-17.381-7.356 31.404 21.081 80.372 49.234l68.919 36.526c0.725 0.085 1.28-72.32 1.28-160.853z" />
<glyph unicode="&#xe926;" glyph-name="briefcase" d="M405.291 872.875c-48.331-8.851-86.847-43.346-101.334-88.591l-0.255-0.923c-3.243-10.197-3.925-16.896-4.608-45.525l-0.811-33.621-75.349-0.597c-74.581-0.597-75.435-0.64-89.003-4.864-41.44-13.251-73.388-45.367-86.148-85.981l-0.252-0.931-4.011-12.8v-472.747l4.011-12.8c13.117-41.864 45.432-74.179 86.363-87.043l0.933-0.253 12.8-4.011h728.747l12.8 4.011c41.864 13.117 74.179 45.432 87.043 86.363l0.253 0.933 4.011 12.8v472.747l-4.011 12.8c-13.012 41.545-44.96 73.661-85.47 86.654l-0.93 0.258c-13.568 4.224-14.421 4.267-89.003 4.864l-75.349 0.597-0.811 33.621c-0.683 28.629-1.365 35.328-4.608 45.525-13.306 41.117-45.086 72.855-85.294 85.84l-0.935 0.261-13.696 4.267-103.253 0.299c-56.789 0.171-107.136-0.341-111.829-1.152zM610.56 786.731c6.535-2.064 12.098-5.629 16.493-10.305l0.019-0.020c10.709-10.709 12.928-19.115 12.928-48.811v-23.595h-256v23.595c0 29.739 2.219 38.101 12.971 48.811 12.8 12.843 11.307 12.672 114.304 12.8 76.331 0.128 91.947-0.299 99.285-2.475zM298.667 362.581v-256.043l-140.8 0.981-7.851 4.608c-4.793 2.951-8.888 6.476-12.356 10.551l-0.060 0.073c-10.112 13.269-9.6 0.64-9.6 238.976 0 246.699-0.896 230.187 12.971 244.011 12.459 12.459 13.867 12.672 90.709 12.8l66.987 0.128v-256.085zM640 362.667v-256h-256v512h256v-256zM866.56 616.064c11.904-3.541 23.296-14.933 26.837-26.837 2.261-7.595 2.603-36.523 2.603-226.603 0-179.669-0.427-219.221-2.347-225.664-3.329-10.637-10.321-19.306-19.468-24.721l-0.202-0.111-7.851-4.608-140.8-0.981v512.128h66.261c54.315 0 67.797-0.469 74.965-2.603z" />
<glyph unicode="&#xe927;" glyph-name="calendar" d="M324.864 914.901c-9.351-2.542-16.968-8.642-21.456-16.719l-0.090-0.177c-3.413-6.4-3.84-10.069-4.352-36.437l-0.597-29.269-54.016-0.683c-51.584-0.683-54.699-0.896-67.755-4.907-41.443-13.223-73.396-45.33-86.148-85.939l-0.252-0.93-4.011-12.8v-643.413l4.011-12.8c13.117-41.864 45.432-74.179 86.363-87.043l0.933-0.253 12.8-4.011h643.413l12.8 4.011c41.864 13.117 74.179 45.432 87.043 86.363l0.253 0.933 4.011 12.8v643.413l-4.011 12.8c-13.004 41.539-44.957 73.646-85.471 86.612l-0.929 0.257c-13.056 4.011-16.171 4.224-67.712 4.907l-54.016 0.683-0.64 29.269c-0.768 33.408-2.816 40.235-14.677 48-19.2 12.587-52.181 8.661-63.104-7.509-6.016-8.96-7.253-16.256-7.253-44.032v-26.027h-255.659l-0.64 29.44c-0.725 32.811-2.688 39.765-13.44 47.403-11.264 8.064-30.763 10.624-45.397 6.059zM298.667 720.64c0-14.336 0.811-28.8 1.749-32.213 4.565-16.427 16.896-25.472 36.48-26.709 20.693-1.323 34.261 4.651 41.984 18.475 4.011 7.125 4.309 9.387 4.864 37.035l0.597 29.44h255.659v-26.027c0-14.336 0.811-28.8 1.749-32.213 4.565-16.427 16.896-25.472 36.48-26.709 20.693-1.323 34.261 4.651 41.984 18.475 4.011 7.125 4.309 9.387 4.864 37.035l0.597 29.44h44.757c52.907 0 57.984-0.939 69.973-12.928 12.629-12.629 12.928-14.805 12.928-91.477v-66.261h-682.667v66.261c0 76.715 0.299 78.848 12.971 91.477 11.861 11.904 16.043 12.672 69.376 12.8l45.653 0.128v-26.027zM853.333 296.363c0-210.901 0.341-203.264-9.429-216.064-2.603-3.413-8.277-8.32-12.587-10.837l-7.851-4.608h-622.933l-7.851 4.608c-4.793 2.951-8.888 6.476-12.356 10.551l-0.060 0.073c-10.069 13.184-9.6 2.816-9.6 215.381v195.2h682.667v-194.304z" />
<glyph unicode="&#xe928;" glyph-name="camera" d="M370.944 872.235c-4.753-1.599-8.873-3.635-12.658-6.14l0.199 0.124c-3.115-2.261-21.12-27.52-43.904-61.568l-38.571-57.771-171.051-1.195-13.696-4.267c-41.44-13.251-73.388-45.367-86.148-85.981l-0.252-0.931-4.011-12.8v-515.413l4.011-12.8c13.117-41.864 45.432-74.179 86.363-87.043l0.933-0.253 12.8-4.011h814.080l12.8 4.011c41.864 13.117 74.179 45.432 87.043 86.363l0.253 0.933 4.011 12.8v515.413l-4.011 12.8c-13.012 41.545-44.96 73.661-85.47 86.654l-0.93 0.258-13.696 4.267-171.051 1.195-38.571 57.771c-22.613 33.835-40.789 59.307-43.904 61.525-11.947 8.533-11.648 8.491-154.197 8.363-104.405-0.085-134.827-0.597-140.373-2.304zM656.341 730.923c35.072-52.395 39.979-58.965 47.531-63.573l8.405-5.163 97.408-0.853c109.184-0.939 103.936-0.341 116.907-13.696 12.843-13.269 12.075 3.883 12.075-263.68 0-197.76-0.427-240.555-2.347-246.997-3.329-10.637-10.321-19.306-19.468-24.721l-0.202-0.111-7.851-4.608h-793.6l-7.851 4.608c-4.793 2.951-8.888 6.476-12.356 10.551l-0.060 0.073c-10.155 13.312-9.6-1.365-9.6 260.309 0 270.507-0.939 251.477 12.928 265.344 13.056 13.056 12.075 12.928 116.011 12.928 97.109 0 98.133 0.085 110.165 8.661 2.816 2.005 22.272 29.397 43.691 61.483l38.656 57.856h210.389l39.168-58.411zM486.4 616.789c-69.931-7.893-133.931-53.163-165.291-116.949-15.701-31.915-21.589-57.643-21.589-94.507 0-28.587 2.475-44.544 10.581-68.267 24.661-72.149 84.693-124.8 160.939-141.099 20.096-4.309 61.824-4.309 81.92 0 65.195 13.952 118.955 54.485 148.181 111.744 17.28 33.877 23.339 59.264 23.339 97.621s-6.059 63.744-23.339 97.579c-28.064 53.415-76.512 92.915-134.737 108.501l-1.498 0.341c-16.001 4.108-34.371 6.466-53.291 6.466-8.885 0-17.648-0.52-26.261-1.531l1.045 0.1zM548.736 527.829c40.235-11.776 73.515-44.971 85.931-85.76 3.541-11.648 4.181-17.195 4.181-36.736s-0.64-25.088-4.181-36.736c-13.188-41.45-45.29-73.411-85.898-86.149l-0.929-0.251c-18.517-5.76-53.163-5.76-71.68 0-41.537 12.989-73.638 44.95-86.571 85.472l-0.256 0.928c-3.541 11.648-4.181 17.195-4.181 36.736s0.64 25.088 4.181 36.736c14.554 46.192 53.008 80.736 100.495 89.436l0.796 0.121c14.208 2.56 42.709 0.725 58.112-3.797z" />
<glyph unicode="&#xe929;" glyph-name="camera-off" d="M21.675 954.752c-7.68-5.077-15.701-13.824-19.712-21.504-2.987-5.675-2.475-27.051 0.811-33.493 1.493-2.987 35.755-38.571 76.075-79.019l73.301-73.6-23.595-0.939c-17.792-0.683-26.965-1.92-37.291-4.949-40.661-12.075-73.344-44.885-86.4-86.741l-4.011-12.8v-515.413l4.011-12.8c12.971-41.643 44.16-73.131 86.443-87.296l11.947-4.011 774.741-0.896 40.149-39.851c22.059-21.931 42.624-41.131 45.611-42.667 3.584-1.835 9.813-2.773 18.048-2.773 11.221 0 13.483 0.597 20.523 5.248 7.68 5.077 15.701 13.824 19.712 21.504 2.987 5.717 2.475 27.051-0.811 33.493-2.133 4.139-63.915 69.035-93.312 97.92-4.139 4.096-632.619 632.533-639.488 639.488-63.957 64.555-224.171 221.568-228.181 223.573-3.541 1.792-9.856 2.773-18.048 2.773-11.221 0-13.483-0.597-20.523-5.248zM367.531 872.235c-9.351-2.542-16.968-8.642-21.456-16.719l-0.090-0.177c-3.157-5.931-3.797-9.856-3.797-23.339 0-14.123 0.555-17.195 4.267-23.808 4.693-8.405 12.544-14.507 21.973-17.109 3.883-1.109 51.499-1.749 127.488-1.749h121.259l39.168-58.411c35.072-52.395 39.979-58.965 47.531-63.573l8.405-5.163 97.408-0.853c109.184-0.939 103.936-0.341 116.907-13.696 12.757-13.184 12.075 0.171 12.075-230.357 0-227.243-0.469-217.515 10.624-228.224 8.235-7.979 16.981-11.008 32.043-11.051 22.656-0.128 36.949 9.685 40.917 27.947 1.451 6.656 1.835 66.517 1.451 223.275l-0.555 214.187-4.011 11.947c-14.080 41.941-45.611 73.344-86.4 86.059l-13.696 4.267-171.051 1.195-38.571 57.771c-22.613 33.835-40.789 59.307-43.904 61.525-11.947 8.533-11.52 8.491-155.904 8.363-105.813-0.085-136.533-0.597-142.080-2.304zM295.040 604.373l56.96-56.96-7.253-9.173c-68.864-87.083-61.056-210.091 18.176-286.635 13.59-13.681 29.187-25.345 46.318-34.519l1.042-0.51c29.226-15.932 64.012-25.301 100.985-25.301 50.74 0 97.358 17.643 134.056 47.129l-0.418-0.324 9.173 7.253 138.667-138.709-677.547 0.896-7.851 4.608c-4.793 2.951-8.888 6.476-12.356 10.551l-0.060 0.073c-10.155 13.312-9.6-1.365-9.6 260.309 0 270.549-0.939 251.477 12.971 265.344 12.245 12.288 14.805 12.672 81.749 12.8l58.027 0.128 56.96-56.96zM503.467 395.947l89.6-89.643-5.12-4.267c-8.107-6.784-34.688-19.2-47.787-22.315-8.421-1.776-18.135-2.843-28.081-2.943l-0.079-0.001c-0.265-0.002-0.579-0.003-0.894-0.003-49.834 0-92.97 28.68-113.803 70.434l-0.333 0.737c-10.539 21.547-13.653 37.12-12.544 63.147 0.853 21.035 3.755 33.067 11.947 49.707 3.968 8.107 15.061 24.747 16.512 24.747 0.555 0 41.301-40.32 90.581-89.6z" />
<glyph unicode="&#xe92a;" glyph-name="cast" d="M149.291 830.165c-47.317-7.979-86.187-42.24-101.675-89.472-3.712-11.307-3.925-15.019-4.565-70.997-0.427-38.869-0.043-61.397 1.195-65.877 4.565-17.067 16.768-26.155 36.651-27.435 20.693-1.323 34.261 4.651 41.984 18.475 4.267 7.552 4.267 7.765 5.163 63.915 0.981 63.275 1.024 63.531 13.653 75.819 13.44 13.013-15.829 12.075 370.304 12.075 388.608 0 357.035 1.109 371.072-12.928 13.909-13.909 12.928 7.552 12.928-285.781 0-215.808-0.384-261.888-2.347-268.331-3.329-10.637-10.321-19.306-19.468-24.721l-0.202-0.111-7.851-4.608-283.392-1.707-8.491-4.352c-14.507-7.467-20.523-20.651-19.2-41.899 1.28-19.755 10.411-32.085 27.179-36.608 4.352-1.152 55.296-1.579 151.211-1.237l144.64 0.512 11.947 3.968c42.24 14.123 73.472 45.653 86.443 87.296l4.011 12.8v558.080l-4.011 12.8c-13.049 41.546-44.977 73.67-85.467 86.737l-0.933 0.26-13.696 4.309-359.253 0.256c-197.589 0.128-363.136-0.427-367.829-1.237zM70.571 487.339c-16.384-3.925-26.112-18.176-27.52-40.32-1.024-15.531 2.261-25.515 10.837-33.024 6.699-5.931 16.896-9.173 40.107-12.843 35.401-5.039 67.388-15.275 96.732-30.002l-1.798 0.818c71.487-33.94 127.767-90.219 160.838-159.68l0.869-2.027c16-33.621 24.789-62.976 30.037-100.181 4.907-34.432 15.744-46.165 42.581-45.995 18.347 0.085 34.56 8.576 40.363 21.248 11.093 24.107-9.173 110.208-40.32 171.264-21.408 42.292-48.186 78.457-80.035 109.435l-0.093 0.091c-61.591 62.193-142.491 105.162-232.961 119.168l-2.346 0.299c-22.955 3.541-28.672 3.797-37.291 1.749zM70.443 314.923c-16.597-3.925-27.776-22.315-27.776-45.653 0-19.627 8.789-30.421 29.568-36.395 29.099-8.32 40.363-12.501 53.205-19.712 27.887-15.989 50.4-38.502 65.936-65.534l0.453-0.855c7.211-12.843 11.392-24.107 19.755-53.333 3.968-13.739 11.051-23.381 20.011-27.136 8.448-3.541 26.112-2.901 37.547 1.365 16.597 6.187 26.069 18.773 26.112 34.731 0 8.192-7.936 38.741-14.592 55.893-29.867 77.44-102.656 139.093-183.723 155.605-14.208 2.901-18.005 3.029-26.496 1.024zM68.864 146.987c-16.811-5.504-24.533-16.299-25.813-36.053-1.323-20.523 4.693-34.091 18.475-41.813 6.613-3.712 9.685-4.267 23.808-4.267 13.312 0 17.408 0.683 23.040 3.669 13.909 7.509 19.627 18.56 19.627 38.144 0 27.435-12.245 40.619-39.125 41.984-8.107 0.427-15.573-0.213-20.011-1.664z" />
<glyph unicode="&#xe92b;" glyph-name="check" d="M837.12 744.704c-4.309-2.219-89.216-85.803-229.973-226.432l-223.147-222.976-95.147 94.933c-62.933 62.848-97.579 96.171-102.315 98.56-15.019 7.509-31.275 3.627-45.781-10.88-14.763-14.763-18.603-30.336-11.093-45.397 5.333-10.667 228.181-233.515 238.848-238.848 4.509-2.32 9.84-3.68 15.488-3.68s10.979 1.36 15.682 3.77l-0.194-0.090c10.752 5.376 489.472 484.096 494.848 494.848 7.467 15.061 3.669 30.635-11.093 45.397-14.507 14.507-31.275 18.432-46.123 10.795z" />
<glyph unicode="&#xe92c;" glyph-name="check-circle" d="M476.16 916.181c-20.011-1.493-58.667-8.021-79.573-13.44-119.049-31.067-217.456-104.278-280.516-202.373l-1.127-1.873c-14.080-22.101-34.005-62.805-43.221-88.363-31.488-87.125-37.163-174.72-17.152-265.643 14.805-67.413 46.421-133.077 91.52-190.037 14.592-18.389 53.461-57.216 72.363-72.277 52.352-41.685 120.661-75.179 183.467-89.984 79.275-18.688 155.477-17.493 233.557 3.669 158.833 44.244 281.703 165.971 326.77 320.829l0.825 3.309c13.483 47.189 17.28 76.885 17.365 136.533 0.043 45.312-0.085 47.189-3.755 54.059-4.523 8.405-11.477 13.739-22.187 16.981-21.76 6.528-45.355-0.939-53.76-16.981-3.456-6.571-3.797-10.496-4.907-51.499-1.536-57.301-4.693-80.683-16.085-120.107-24.32-84.053-82.133-162.133-156.117-210.773-59.541-39.959-132.829-63.775-211.68-63.775-85.225 0-163.951 27.822-227.592 74.88l1.043-0.737c-25.066 19.351-47.202 40.175-67.166 62.952l-0.461 0.536c-45.475 54.13-76.5 121.815-86.317 196.187l-0.211 1.957c-2.773 20.779-2.816 74.624-0.085 95.573 16.964 131.183 98.085 240.245 210.372 295.915l2.236 1.003c32.539 16.491 70.305 28.842 110.105 35.052l2.151 0.276c26.667 4.181 85.248 4.181 111.445 0 33.835-5.376 55.040-11.307 95.189-26.667 27.648-10.581 40.021-9.515 52.352 4.48 11.008 12.544 17.152 32.299 13.824 44.672-3.029 11.179-10.965 18.731-28.245 26.88-40.405 19.072-96.341 33.536-147.627 38.144-13.126 0.931-28.443 1.462-43.883 1.462-11.578 0-23.087-0.299-34.518-0.888l1.602 0.066zM922.453 830.037c-4.309-2.176-81.707-78.336-208.597-205.099l-201.771-201.557-52.523 52.096c-37.12 36.821-54.827 53.205-60.331 55.851-15.317 7.296-29.952 3.669-45.141-11.264-14.677-14.421-18.517-30.293-10.965-45.397 2.603-5.248 26.283-29.995 76.501-80.085 70.315-70.101 73.088-72.619 82.56-75.563 9.387-2.944 10.24-2.944 19.627-0.043 9.685 2.987 12.331 5.547 231.936 225.152 159.787 159.829 223.189 224.299 225.92 229.717 7.467 15.061 3.669 30.635-11.093 45.397-14.507 14.507-31.275 18.432-46.123 10.795z" />
<glyph unicode="&#xe92d;" glyph-name="check-square" d="M191.957 872.832c-47.616-7.979-86.955-42.88-101.76-90.325l-4.011-12.8v-643.413l4.011-12.8c13.117-41.864 45.432-74.179 86.363-87.043l0.933-0.253 12.8-4.011h643.413l12.8 4.011c41.864 13.117 74.179 45.432 87.043 86.363l0.253 0.933 4.011 12.8v337.92l-3.883 7.253c-7.040 13.227-23.893 20.48-43.307 18.731-18.56-1.707-31.275-11.221-35.541-26.624-1.109-3.925-1.749-63.061-1.749-162.517 0-169.643 0.213-165.419-9.429-178.091-2.603-3.413-8.277-8.32-12.587-10.837l-7.851-4.608h-622.933l-7.851 4.608c-4.793 2.951-8.888 6.476-12.356 10.551l-0.060 0.073c-10.197 13.397-9.6-7.339-9.6 324.309 0 342.016-1.067 315.349 12.928 329.344 13.867 13.867-5.333 12.928 266.837 12.928 156.587 0 243.797 0.64 247.808 1.749 9.493 2.619 17.237 8.778 21.88 16.932l0.093 0.177c3.712 6.656 4.267 9.643 4.224 23.808-0.043 18.475-3.456 27.52-12.843 34.176-12.331 8.789-2.987 8.491-265.984 8.277-134.784-0.085-248.96-0.853-253.653-1.621zM922.453 830.037c-4.309-2.176-81.707-78.336-208.597-205.099l-201.813-201.6-52.48 52.224c-32.853 32.683-55.211 53.589-59.691 55.851-15.019 7.552-31.275 3.712-45.781-10.837-14.805-14.763-18.603-30.336-11.093-45.397 5.291-10.539 142.976-148.224 153.515-153.515 4.509-2.32 9.84-3.68 15.488-3.68s10.979 1.36 15.682 3.77l-0.194-0.090c10.752 5.376 446.805 441.429 452.181 452.181 7.467 15.061 3.669 30.635-11.093 45.397-14.507 14.507-31.275 18.432-46.123 10.795z" />
<glyph unicode="&#xe92e;" glyph-name="chevron-down" d="M240.043 616.747c-8.789-4.651-20.48-16.555-25.088-25.557-2.298-4.452-3.645-9.717-3.645-15.297 0-5.613 1.363-10.907 3.777-15.57l-0.089 0.189c5.333-10.667 270.848-276.181 281.515-281.515 4.509-2.32 9.84-3.68 15.488-3.68s10.979 1.36 15.682 3.77l-0.194-0.090c10.667 5.333 276.181 270.848 281.515 281.515 7.509 15.061 3.669 30.635-11.093 45.397-14.507 14.507-30.763 18.389-45.781 10.88-4.779-2.389-45.653-42.027-123.648-119.851l-116.48-116.309-116.48 116.309c-77.995 77.824-118.869 117.461-123.648 119.851-4.653 2.21-10.11 3.501-15.869 3.501-5.794 0-11.283-1.307-16.189-3.641l0.228 0.098z" />
<glyph unicode="&#xe92f;" glyph-name="chevron-left" d="M623.787 744.704c-10.112-5.163-275.883-271.36-280.789-281.216-2.224-4.524-3.592-9.828-3.753-15.433l-0.001-0.055c0-4.736 1.493-10.923 3.755-15.488 5.333-10.667 270.848-276.181 281.515-281.515 15.061-7.509 30.635-3.669 45.397 11.093 14.805 14.805 18.603 30.336 11.093 45.397-2.688 5.291-38.528 42.368-120.064 124.032l-116.309 116.48 116.309 116.48c81.536 81.664 117.376 118.741 120.064 124.032 7.509 15.061 3.712 30.592-11.093 45.397-14.507 14.507-31.275 18.432-46.123 10.795z" />
<glyph unicode="&#xe930;" glyph-name="chevron-right" d="M368.043 744.747c-8.789-4.651-20.48-16.555-25.088-25.557-2.298-4.452-3.645-9.717-3.645-15.297 0-5.613 1.363-10.907 3.777-15.57l-0.089 0.189c2.688-5.291 38.528-42.368 120.064-124.032l116.309-116.48-116.309-116.48c-81.536-81.664-117.376-118.741-120.064-124.032-7.509-15.061-3.712-30.592 11.093-45.397 14.763-14.763 30.336-18.603 45.397-11.093 10.667 5.333 276.181 270.848 281.515 281.515 2.224 4.524 3.592 9.828 3.753 15.433l0.001 0.055c-0.162 5.66-1.53 10.964-3.854 15.714l0.1-0.226c-5.163 10.368-270.805 276.181-281.131 281.301-4.653 2.21-10.11 3.501-15.869 3.501-5.794 0-11.283-1.307-16.189-3.641l0.228 0.098z" />
<glyph unicode="&#xe931;" glyph-name="chevrons-down" d="M282.709 744.747c-8.789-4.651-20.48-16.555-25.088-25.557-2.298-4.452-3.645-9.717-3.645-15.297 0-5.613 1.363-10.907 3.777-15.57l-0.089 0.189c5.333-10.667 228.181-233.515 238.848-238.848 4.509-2.32 9.84-3.68 15.488-3.68s10.979 1.36 15.682 3.77l-0.194-0.090c10.667 5.333 233.515 228.181 238.848 238.848 7.509 15.061 3.669 30.635-11.093 45.397-14.507 14.507-30.763 18.389-45.781 10.88-4.736-2.389-39.381-35.712-102.315-98.517l-95.147-94.933-95.147 94.933c-62.933 62.805-97.579 96.128-102.315 98.517-4.653 2.21-10.11 3.501-15.869 3.501-5.794 0-11.283-1.307-16.189-3.641l0.228 0.098zM282.709 446.080c-8.789-4.651-20.48-16.555-25.088-25.557-2.298-4.452-3.645-9.717-3.645-15.297 0-5.613 1.363-10.907 3.777-15.57l-0.089 0.189c5.333-10.667 228.181-233.515 238.848-238.848 4.509-2.32 9.84-3.68 15.488-3.68s10.979 1.36 15.682 3.77l-0.194-0.090c10.667 5.333 233.515 228.181 238.848 238.848 7.509 15.061 3.669 30.635-11.093 45.397-14.507 14.507-30.763 18.389-45.781 10.88-4.736-2.389-39.381-35.712-102.315-98.517l-95.147-94.933-95.147 94.933c-62.933 62.805-97.579 96.128-102.315 98.517-4.653 2.21-10.11 3.501-15.869 3.501-5.794 0-11.283-1.307-16.189-3.641l0.228 0.098z" />
<glyph unicode="&#xe932;" glyph-name="chevrons-left" d="M453.12 702.037c-10.069-5.163-233.216-228.736-238.123-238.549-2.32-4.509-3.68-9.84-3.68-15.488s1.36-10.979 3.77-15.682l-0.090 0.194c5.333-10.667 228.181-233.515 238.848-238.848 15.061-7.509 30.635-3.669 45.397 11.093 14.805 14.805 18.603 30.336 11.051 45.397-2.603 5.248-32.896 36.736-98.688 102.699l-94.933 95.147 94.933 95.147c65.792 65.963 96.085 97.451 98.688 102.699 7.552 15.061 3.755 30.592-11.051 45.397-14.507 14.507-31.275 18.432-46.123 10.795zM751.787 702.037c-10.069-5.163-233.216-228.736-238.123-238.549-2.32-4.509-3.68-9.84-3.68-15.488s1.36-10.979 3.77-15.682l-0.090 0.194c5.333-10.667 228.181-233.515 238.848-238.848 15.061-7.509 30.635-3.669 45.397 11.093 14.805 14.805 18.603 30.336 11.051 45.397-2.603 5.248-32.896 36.736-98.688 102.699l-94.933 95.147 94.933 95.147c65.792 65.963 96.085 97.451 98.688 102.699 7.552 15.061 3.755 30.592-11.051 45.397-14.507 14.507-31.275 18.432-46.123 10.795z" />
<glyph unicode="&#xe933;" glyph-name="chevrons-right" d="M240.043 702.080c-8.789-4.651-20.48-16.555-25.088-25.557-2.294-4.439-3.639-9.69-3.639-15.255 0-5.631 1.377-10.94 3.813-15.609l-0.089 0.187c2.603-5.248 32.896-36.736 98.688-102.699l94.933-95.147-94.933-95.147c-65.792-65.963-96.085-97.451-98.688-102.699-7.552-15.061-3.755-30.592 11.051-45.397 14.763-14.763 30.336-18.603 45.397-11.093 10.667 5.333 233.515 228.181 238.848 238.848 2.32 4.509 3.68 9.84 3.68 15.488s-1.36 10.979-3.77 15.682l0.090-0.194c-5.163 10.325-228.181 233.515-238.464 238.635-4.653 2.21-10.11 3.501-15.869 3.501-5.794 0-11.283-1.307-16.189-3.641l0.228 0.098zM538.709 702.080c-8.789-4.651-20.48-16.555-25.088-25.557-2.294-4.439-3.639-9.69-3.639-15.255 0-5.631 1.377-10.94 3.813-15.609l-0.089 0.187c2.603-5.248 32.896-36.736 98.688-102.699l94.933-95.147-94.933-95.147c-65.792-65.963-96.085-97.451-98.688-102.699-7.552-15.061-3.755-30.592 11.051-45.397 14.763-14.763 30.336-18.603 45.397-11.093 10.667 5.333 233.515 228.181 238.848 238.848 2.32 4.509 3.68 9.84 3.68 15.488s-1.36 10.979-3.77 15.682l0.090-0.194c-5.163 10.325-228.181 233.515-238.464 238.635-4.653 2.21-10.11 3.501-15.869 3.501-5.794 0-11.283-1.307-16.189-3.641l0.228 0.098z" />
<glyph unicode="&#xe934;" glyph-name="chevrons-up" d="M495.787 744.704c-10.069-5.163-233.216-228.736-238.123-238.549-7.509-15.061-3.669-30.635 11.093-45.397 14.805-14.805 30.336-18.603 45.397-11.051 5.248 2.603 36.736 32.896 102.699 98.688l95.147 94.933 95.147-94.933c65.963-65.792 97.451-96.085 102.699-98.688 15.061-7.552 30.592-3.755 45.397 11.051 14.763 14.763 18.603 30.336 11.093 45.397-5.163 10.325-228.181 233.515-238.464 238.635-4.68 2.207-10.165 3.495-15.951 3.495-5.857 0-11.406-1.32-16.366-3.679l0.231 0.099zM495.787 446.037c-10.069-5.163-233.216-228.736-238.123-238.549-7.509-15.061-3.669-30.635 11.093-45.397 14.805-14.805 30.336-18.603 45.397-11.051 5.248 2.603 36.736 32.896 102.699 98.688l95.147 94.933 95.147-94.933c65.963-65.792 97.451-96.085 102.699-98.688 15.061-7.552 30.592-3.755 45.397 11.051 14.763 14.763 18.603 30.336 11.093 45.397-5.163 10.325-228.181 233.515-238.464 238.635-4.68 2.207-10.165 3.495-15.951 3.495-5.857 0-11.406-1.32-16.366-3.679l0.231 0.099z" />
<glyph unicode="&#xe935;" glyph-name="chevron-up" d="M495.787 616.704c-10.112-5.163-275.883-271.36-280.789-281.216-7.509-15.061-3.669-30.635 11.093-45.397 14.805-14.805 30.336-18.603 45.397-11.093 5.291 2.688 42.368 38.528 124.032 120.064l116.48 116.309 116.48-116.309c81.664-81.536 118.741-117.376 124.032-120.064 15.061-7.509 30.592-3.712 45.397 11.093 14.763 14.763 18.603 30.336 11.093 45.397-5.163 10.368-270.805 276.181-281.131 281.301-4.68 2.207-10.165 3.495-15.951 3.495-5.857 0-11.406-1.32-16.366-3.679l0.231 0.099z" />
<glyph unicode="&#xe936;" glyph-name="chrome" d="M481.28 916.352l-23.893-2.56c-80.64-8.576-159.872-40.405-228.651-91.904-23.893-17.877-58.112-50.731-79.659-76.416-6.013-7.408-11.803-13.982-17.837-20.32l0.131 0.138c-1.969-2.076-3.591-4.505-4.759-7.178l-0.063-0.161c-1.749-3.456-8.405-14.72-14.805-25.045-67.797-109.355-86.955-248.491-51.285-372.48 23.168-80.469 60.672-143.957 120.363-203.605 70.997-70.997 149.504-112.043 251.691-131.541 47.531-9.045 110.848-8.619 164.096 1.152 71.467 13.099 138.667 42.667 198.571 87.381 25.984 19.371 71.637 65.024 91.008 91.008 95.829 128.384 120.96 291.84 67.755 440.491-0.67 0.679-4.164 10.605-7.543 20.585l-2.74 9.324c-1.877 5.845-4.139 11.093-5.077 11.648-0.939 0.597-4.693 6.955-8.32 14.165-14.203 26.907-28.82 49.855-45.060 71.517l0.985-1.373c-19.371 25.941-64.981 71.552-90.88 90.795-68.053 50.603-139.733 80-222.592 91.264-18.048 2.475-78.891 4.523-91.435 3.115zM568.32 827.691c106.387-16.475 196.828-74.318 255.943-156.258l0.782-1.139 6.443-8.96h-163.243c-167.595 0-184.277-0.555-209.152-6.912-58.496-14.933-113.92-59.691-137.685-111.189-2.517-5.461-4.992-9.899-5.547-9.856-0.768 0-93.611 159.445-95.317 163.755-0.853 2.133 34.261 36.523 50.816 49.792 55.381 44.373 122.795 73.131 191.147 81.536 25.216 3.115 27.52 3.243 58.027 2.56 16.427-0.341 37.931-1.835 47.787-3.328zM247.253 479.573c42.24-73.216 80.896-139.563 85.888-147.413 18.517-29.269 49.237-56.96 81.28-73.301 33.536-17.109 59.221-23.296 96.853-23.339h25.728l-5.504-9.387-46.72-81.067c-23.481-42.047-37.647-65.95-52.071-89.679l9.319 16.506c-2.048-2.091-24.021 3.072-52.053 12.203-34.275 12.151-63.859 26.813-91.33 44.476l1.73-1.041c-80.341 53.845-138.624 136.491-160.981 228.309-7.936 32.555-10.411 54.272-10.411 92.16 0 37.845 2.475 59.605 10.368 92.16 7.979 32.768 26.667 80.171 29.568 75.093l78.336-135.68zM548.736 570.496c41.158-12.908 72.943-44.637 85.679-84.841l0.251-0.919c5.931-19.584 6.101-51.883 0.384-72.235-11.435-40.491-45.397-74.624-87.211-87.637-18.517-5.76-53.163-5.76-71.68 0-41.856 13.013-75.819 47.232-87.296 87.936-5.632 20.053-5.419 52.48 0.469 71.936 14.554 46.192 53.008 80.736 100.495 89.436l0.796 0.121c14.208 2.56 42.709 0.725 58.112-3.797zM877.44 566.016c11.861-34.816 17.579-73.301 17.579-118.016 0-63.701-10.965-111.829-38.272-168.107-30.080-62.037-75.477-113.792-134.528-153.259-35.627-23.808-89.984-46.080-133.803-54.827-18.56-3.712-50.816-7.936-50.816-6.656 0 0.256 35.797 62.464 79.531 138.24 3.286 2.052 31.789 51.29 59.884 100.789l26.047 49.867c15.403 30.72 21.419 57.173 21.419 93.952 0 28.587-2.475 44.501-10.581 68.267-6.894 19.092-15.198 35.568-25.186 50.844l0.567-0.924-6.656 9.856 191.701-0.896 3.115-9.131z" />
<glyph unicode="&#xe937;" glyph-name="circle" d="M481.28 916.352l-23.893-2.56c-80.555-8.533-159.104-40.107-228.693-91.819-25.984-19.328-71.509-64.853-91.051-90.965-106.581-142.805-124.8-327.040-48.171-486.955 23.296-48.555 50.304-86.229 91.349-127.232 41.003-41.045 78.677-68.053 127.232-91.349 159.872-76.629 344.235-58.325 487.125 48.341 25.984 19.371 71.637 65.024 91.008 91.008 126.891 170.027 126.891 396.331 0 566.357-19.371 25.941-64.981 71.552-90.88 90.795-68.053 50.603-139.733 80-222.592 91.264-18.048 2.475-78.891 4.523-91.435 3.115zM568.32 827.691c109.355-16.512 204.971-78.080 266.24-171.477 12.928-19.755 31.701-57.984 39.765-81.067 14.763-42.368 20.693-78.72 20.693-127.147 0-63.701-10.965-111.829-38.272-168.107-30.080-62.037-75.477-113.792-134.528-153.259-33.664-22.528-87.509-45.056-128.811-53.973-24.244-5.414-52.089-8.515-80.658-8.515-91.486 0-175.543 31.805-241.717 84.962l0.754-0.586c-64.555 51.712-112.981 127.573-132.395 207.317-7.936 32.555-10.411 54.272-10.411 92.16 0 63.701 10.965 111.829 38.272 168.107 45.622 92.339 124.633 162.383 220.876 195.211l2.698 0.799c30.080 9.941 54.272 14.848 93.013 18.859 13.739 1.408 67.029-0.64 84.48-3.285z" />
<glyph unicode="&#xe938;" glyph-name="clipboard" d="M361.685 914.219c-28.629-7.509-52.864-32-60.459-61.227-1.408-5.376-2.56-12.203-2.56-15.189v-5.419l-32.853-0.811c-28.288-0.725-34.731-1.408-46.549-4.949-41.461-13.147-73.432-45.245-86.15-85.857l-0.25-0.927-4.011-12.8v-643.413l4.011-12.8c13.117-41.864 45.432-74.179 86.363-87.043l0.933-0.253 12.8-4.011h558.080l12.8 4.011c41.864 13.117 74.179 45.432 87.043 86.363l0.253 0.933 4.011 12.8v643.413l-4.011 12.8c-12.968 41.539-44.939 73.637-85.473 86.529l-0.927 0.255c-11.776 3.541-18.261 4.224-46.208 4.949l-32.469 0.811-2.091 12.971c-1.534 8.771-3.934 16.59-7.171 23.958l0.259-0.662c-6.016 12.885-20.693 28.885-33.664 36.693-20.011 12.032-16.256 11.776-171.392 11.776-125.995 0-140.16-0.256-150.315-2.901zM640 789.333v-42.667h-256v85.333h256v-42.667zM298.667 741.035c0-8.149 4.437-23.808 9.6-34.048 5.803-11.477 24.576-30.251 36.053-36.053 19.285-9.771 16.384-9.6 167.381-9.6 151.296 0 148.736-0.128 168.277 9.771 11.093 5.632 29.952 24.491 35.584 35.584 4.992 9.813 9.771 26.795 9.771 34.688v5.291h23.595c29.696 0 38.101-2.219 48.811-12.928 13.952-13.995 12.928 12.544 12.928-328.448 0-251.989-0.384-304.512-2.347-310.997-3.329-10.637-10.321-19.306-19.468-24.721l-0.202-0.111-7.851-4.608h-537.6l-7.851 4.608c-4.793 2.951-8.888 6.476-12.356 10.551l-0.060 0.073c-10.197 13.397-9.6-7.339-9.6 324.309 0 342.059-1.067 315.349 12.971 329.344 10.667 10.709 18.048 12.672 48.043 12.8l24.32 0.128v-5.632z" />
<glyph unicode="&#xe939;" glyph-name="clock" d="M481.28 916.352l-23.893-2.56c-80.555-8.533-159.104-40.107-228.693-91.819-25.984-19.328-71.509-64.853-91.051-90.965-106.581-142.805-124.8-327.040-48.171-486.955 23.296-48.555 50.304-86.229 91.349-127.232 41.003-41.045 78.677-68.053 127.232-91.349 159.872-76.629 344.235-58.325 487.125 48.341 25.984 19.371 71.637 65.024 91.008 91.008 126.891 170.027 126.891 396.331 0 566.357-19.371 25.941-64.981 71.552-90.88 90.795-68.053 50.603-139.733 80-222.592 91.264-18.048 2.475-78.891 4.523-91.435 3.115zM568.32 827.691c109.355-16.512 204.971-78.080 266.24-171.477 12.928-19.755 31.701-57.984 39.765-81.067 14.763-42.368 20.693-78.72 20.693-127.147 0-63.701-10.965-111.829-38.272-168.107-30.080-62.037-75.477-113.792-134.528-153.259-33.664-22.528-87.509-45.056-128.811-53.973-24.244-5.414-52.089-8.515-80.658-8.515-91.486 0-175.543 31.805-241.717 84.962l0.754-0.586c-64.555 51.712-112.981 127.573-132.395 207.317-7.936 32.555-10.411 54.272-10.411 92.16 0 63.701 10.965 111.829 38.272 168.107 45.622 92.339 124.633 162.383 220.876 195.211l2.698 0.799c30.080 9.941 54.272 14.848 93.013 18.859 13.739 1.408 67.029-0.64 84.48-3.285zM495.531 744.235c-9.351-2.542-16.968-8.642-21.456-16.719l-0.090-0.177-3.797-7.125-0.512-139.093c-0.341-101.547 0.043-141.013 1.493-146.261 4.48-16.299 5.76-17.067 108.075-68.224 102.912-51.456 103.979-51.84 119.68-45.867 13.355 5.12 25.728 24.192 27.605 42.752 0.11 1.007 0.172 2.175 0.172 3.357 0 11.058-5.47 20.838-13.852 26.782l-0.102 0.069c-3.883 2.816-41.003 22.101-82.517 42.88l-75.477 37.76-0.939 245.845-3.797 7.125c-2.391 4.254-5.427 7.848-9.021 10.784l-0.067 0.053c-11.264 8.064-30.763 10.624-45.397 6.059z" />
<glyph unicode="&#xe93a;" glyph-name="cloud" d="M360.107 830.976c-22.352-1.847-42.508-4.793-62.243-8.889l3.277 0.569c-72.149-15.104-147.925-58.112-197.376-112-53.333-58.069-85.931-124.629-99.797-203.861-4.224-24.149-4.224-93.44 0-117.589 19.371-110.635 77.184-200.619 167.936-261.461 37.077-24.832 90.453-46.891 135.296-55.936 38.869-7.808 47.531-8.021 277.333-7.424l216.747 0.597 17.067 3.883c53.248 12.117 95.616 35.285 131.797 72.149 35.84 36.48 57.899 77.909 68.949 129.493 5.547 25.856 5.547 73.131 0 98.987-17.408 81.237-66.645 144.512-141.013 181.333-32.555 16.128-69.077 23.936-119.936 25.6l-12.416 0.427-7.424 18.219c-50.048 122.965-164.267 212.053-298.069 232.576-17.408 2.688-64.853 4.651-80.128 3.328zM414.379 744.832c89.676-9.795 166.484-57.8 214.777-127.147l0.647-0.981c14.976-21.803 29.568-51.883 38.357-79.061 8.747-26.965 11.691-32.725 19.925-38.912 9.088-6.869 16.896-8.064 54.315-8.064 52.48-0.043 73.173-3.968 104.107-19.797 38.357-19.627 69.205-55.765 83.499-97.749 4.267-12.587 8.661-39.467 8.661-53.12 0-13.739-4.395-40.576-8.704-53.12-20.267-59.179-68.309-101.675-128.981-114.005-16.939-3.456-21.845-3.541-225.323-3.541-224.939 0-228.523 0.128-264.448 9.216-130.779 33.758-225.835 150.67-225.835 289.783 0 0.138 0 0.276 0 0.414v-0.022c0.323 78.965 31.131 150.673 81.256 204.019l-0.146-0.157c61.824 66.475 157.739 102.144 247.893 92.245z" />
<glyph unicode="&#xe93b;" glyph-name="cloud-drizzle" d="M355.84 958.805c-63.531-4.181-129.835-26.965-184.107-63.232-22.902-14.937-42.807-31.426-60.663-49.907l-0.095-0.099c-46.465-47.073-80.988-106.043-98.585-171.927l-0.615-2.708c-7.4-28.597-11.648-61.427-11.648-95.249 0-25.947 2.5-51.31 7.273-75.861l-0.403 2.491c16.171-81.451 59.349-157.696 119.68-211.157 23.339-20.693 33.195-26.539 44.757-26.453 10.923 0.085 20.181 4.779 29.739 15.189 17.579 19.029 18.816 39.893 3.371 55.509-7.335 7.114-15.060 14.393-22.889 21.562l-0.834 0.753c-59.008 54.101-91.947 126.037-94.976 207.36-1.92 51.84 6.528 92.245 29.269 139.776 17.493 36.608 34.432 60.16 62.464 86.827 53.459 51.202 126.126 82.724 206.155 82.724 46.386 0 90.299-10.59 129.452-29.483l-1.783 0.776c75.093-35.755 129.536-97.664 155.819-177.195 10.283-31.147 11.819-34.347 19.883-41.003 9.173-7.552 17.195-8.832 56.491-8.875 52.395-0.043 68.821-2.987 98.645-17.749 55.040-27.264 87.893-74.411 94.848-136.32 6.272-55.723-18.219-114.389-62.421-149.547-8.99-6.735-19.165-13.202-29.826-18.878l-1.278-0.621c-23.125-12.075-32.043-20.651-33.835-32.512-2.688-18.176 9.771-43.563 25.387-51.669 6.187-3.2 20.437-3.2 29.44 0 28.373 10.112 62.208 33.493 88.832 61.355 43.397 45.356 70.11 106.986 70.11 174.855 0 20.136-2.351 39.722-6.795 58.5l0.343-1.718c-11.563 49.749-32.597 87.595-68.864 123.861-50.944 50.901-112.469 75.819-187.221 75.819-12.971 0-15.403 0.427-16.299 2.987-5.722 14.545-9.154 22.519-12.687 30.437l2.489-6.245c-27.819 64.939-78.72 125.099-139.691 165.163-59.716 39.736-133.095 63.404-212.002 63.404-9.477 0-18.873-0.341-28.179-1.013l1.248 0.072zM324.864 445.568c-9.351-2.542-16.968-8.642-21.456-16.719l-0.090-0.177c-3.669-6.869-3.797-9.045-4.309-62.080-0.341-34.645 0.128-57.429 1.28-61.611 4.523-16.853 16.811-25.984 36.608-27.264 20.693-1.323 34.261 4.651 41.984 18.475l4.267 7.595v58.88c0 57.6-0.085 59.051-3.797 66.005-2.391 4.254-5.427 7.848-9.021 10.784l-0.067 0.053c-11.264 8.064-30.763 10.624-45.397 6.059zM666.197 445.568c-9.351-2.542-16.968-8.642-21.456-16.719l-0.090-0.177c-3.669-6.869-3.797-9.045-4.309-62.080-0.341-34.645 0.128-57.429 1.28-61.611 4.523-16.853 16.811-25.984 36.608-27.264 20.693-1.323 34.261 4.651 41.984 18.475l4.267 7.595v58.88c0 57.6-0.085 59.051-3.797 66.005-2.391 4.254-5.427 7.848-9.021 10.784l-0.067 0.053c-11.264 8.064-30.763 10.624-45.397 6.059zM495.531 360.235c-9.351-2.542-16.968-8.642-21.456-16.719l-0.090-0.177c-3.669-6.869-3.797-9.045-4.309-62.080-0.341-34.645 0.128-57.429 1.28-61.611 4.523-16.853 16.811-25.984 36.608-27.264 20.693-1.323 34.261 4.651 41.984 18.475l4.267 7.595v58.88c0 57.6-0.085 59.051-3.797 66.005-2.391 4.254-5.427 7.848-9.021 10.784l-0.067 0.053c-11.264 8.064-30.763 10.624-45.397 6.059zM324.864 189.568c-9.351-2.542-16.968-8.642-21.456-16.719l-0.090-0.177c-3.669-6.869-3.797-9.045-4.309-62.080-0.341-34.645 0.128-57.429 1.28-61.611 4.523-16.853 16.811-25.984 36.608-27.264 20.693-1.323 34.261 4.651 41.984 18.475l4.267 7.595v58.88c0 57.6-0.085 59.051-3.797 66.005-2.391 4.254-5.427 7.848-9.021 10.784l-0.067 0.053c-11.264 8.064-30.763 10.624-45.397 6.059zM666.197 189.568c-9.351-2.542-16.968-8.642-21.456-16.719l-0.090-0.177c-3.669-6.869-3.797-9.045-4.309-62.080-0.341-34.645 0.128-57.429 1.28-61.611 4.523-16.853 16.811-25.984 36.608-27.264 20.693-1.323 34.261 4.651 41.984 18.475l4.267 7.595v58.88c0 57.6-0.085 59.051-3.797 66.005-2.391 4.254-5.427 7.848-9.021 10.784l-0.067 0.053c-11.264 8.064-30.763 10.624-45.397 6.059zM495.531 104.235c-9.351-2.542-16.968-8.642-21.456-16.719l-0.090-0.177c-3.669-6.869-3.797-9.045-4.309-62.080-0.341-34.645 0.128-57.429 1.28-61.611 4.523-16.853 16.811-25.984 36.608-27.264 20.693-1.323 34.261 4.651 41.984 18.475l4.267 7.595v58.88c0 57.6-0.085 59.051-3.797 66.005-2.391 4.254-5.427 7.848-9.021 10.784l-0.067 0.053c-11.264 8.064-30.763 10.624-45.397 6.059z" />
<glyph unicode="&#xe93c;" glyph-name="cloud-lightning" d="M360.96 958.976c-32.204-2.233-62.168-7.773-90.832-16.326l2.939 0.753c-159.18-49.194-272.864-194.952-273.067-367.293v-0.024c0.045-126.262 61.028-238.271 155.134-308.22l1.026-0.729c19.285-14.293 42.752-28.416 52.992-31.915 16.853-5.717 33.109 0.427 43.349 16.341 15.317 23.936 13.312 44.501-5.632 57.472-3.281 2.447-11.986 8.27-20.753 14.006l-5.956 3.658c-116.693 75.819-165.248 225.792-115.115 355.584 61.355 158.805 239.403 234.112 396.757 167.723 39.253-16.555 80.128-46.336 107.008-78.037 25.679-29.716 45.901-64.96 58.607-103.614l0.614-2.157c9.131-28.16 11.093-32.085 19.072-38.699 9.173-7.552 17.195-8.832 56.491-8.875 47.275-0.043 65.451-2.731 91.605-13.653 34.347-14.293 68.352-46.123 85.547-80.171 12.757-25.173 18.987-56.491 17.323-86.955-0.944-27.914-9.104-53.738-22.659-75.903l0.387 0.681c-23.765-40.448-60.501-68.011-106.837-80.213-30.805-8.149-39.552-15.872-40.704-36.053-1.664-29.696 14.208-50.901 38.144-50.944 2.816 0 12.8 1.877 22.187 4.181 84.578 21.089 151.435 82.061 180.338 161.29l0.569 1.782c9.186 25.339 14.497 54.584 14.497 85.070 0 20.983-2.516 41.378-7.263 60.9l0.361-1.757c-21.333 92.331-95.531 167.040-188.117 189.483-16.555 4.011-45.824 7.339-70.955 8.107l-12.544 0.384-7.211 17.92c-18.83 45.821-44.966 84.988-77.366 117.986l0.054-0.055c-61.824 63.957-137.771 103.125-223.189 115.029-17.749 2.475-61.995 4.352-76.8 3.243zM538.453 532.224c-3.796-2.181-7.079-4.567-10.082-7.259l0.055 0.048c-5.675-5.205-180.907-267.179-185.6-277.461-6.741-14.891-2.901-30.464 10.539-42.624 13.867-12.544 9.045-11.989 112.981-12.928l93.44-0.853-64.256-96.341c-35.328-53.035-65.621-99.499-67.371-103.253-6.699-14.805-2.901-30.464 10.24-42.368 11.477-10.368 18.731-13.184 33.963-13.184 13.013 0 13.653 0.213 20.736 6.272 8.96 7.637 183.467 268.459 187.435 280.107 5.248 15.317-0.427 38.528-11.264 46.251-11.093 7.893-10.155 7.808-109.909 8.704l-95.147 0.853 64.256 96.341c35.328 53.035 65.621 99.499 67.371 103.253 6.827 15.019 2.773 30.933-10.837 42.752-15.275 13.312-34.347 18.091-46.549 11.691z" />
<glyph unicode="&#xe93d;" glyph-name="cloud-off" d="M21.675 954.752c-7.68-5.077-15.701-13.824-19.712-21.504-2.987-5.675-2.475-27.051 0.811-33.493 1.493-2.987 34.304-37.163 72.917-75.861l70.144-70.4-6.784-5.547c-35.521-28.854-65.441-62.89-89.040-101.232l-0.987-1.723c-13.947-23.186-26.236-49.963-35.468-78.125l-0.798-2.814c-12.373-39.211-11.733-33.323-12.331-110.976-0.555-65.963-0.341-71.979 2.816-86.187 18.603-83.2 64.085-158.848 127.189-211.541 57.713-48.911 130.74-81.418 210.975-89.509l1.633-0.133c13.653-1.323 85.973-1.749 238.080-1.365 203.093 0.512 219.477 0.768 232.789 3.627l14.336 3.072 65.024-64.768c35.755-35.627 67.499-66.005 70.485-67.499 3.541-1.792 9.856-2.773 18.048-2.773 11.221 0 13.483 0.597 20.523 5.248 7.68 5.077 15.701 13.824 19.712 21.504 1.067 2.048 1.963 9.429 1.963 16.384 0 11.093-0.597 13.483-5.035 20.139-6.443 9.643-946.091 949.291-955.861 955.819-6.443 4.352-8.789 4.907-20.395 4.907-11.776 0-13.909-0.512-21.035-5.248zM397.269 830.293c-9.614-2.715-17.284-9.449-21.208-18.224l-0.083-0.208c-4.053-8.32-4.779-11.819-4.779-24.235 0-12.757 0.555-15.488 4.693-22.485 6.827-11.648 16.597-15.829 46.635-20.139 13.184-1.92 29.824-4.992 36.992-6.869 52.352-13.696 98.944-41.259 138.923-82.219 35.285-36.139 56.619-73.515 72.96-127.701 5.12-16.981 8.875-23.595 16.683-29.483 9.003-6.827 16.981-8.064 52.608-8.064 18.304 0 40.107-0.853 48.427-1.877 38.229-4.693 72.875-21.717 100.053-49.195 47.659-48.128 61.824-116.736 37.76-182.229-2.219-5.587-4.317-12.404-5.913-19.412l-0.188-0.983c-3.328-19.797 13.611-37.589 41.173-43.307 24.363-5.077 38.272 9.557 51.584 54.272 6.566 21.673 10.346 46.582 10.346 72.373 0 28.878-4.739 56.649-13.482 82.579l0.533-1.821c-28.587 87.381-105.557 153.856-197.76 170.795-11.905 1.878-26.206 3.269-40.714 3.858l-0.758 0.024-26.155 1.109-6.443 16.384c-41.472 105.472-136.619 191.872-246.784 223.957-38.528 11.264-81.621 17.195-95.104 13.099zM478.72 420.693l271.36-271.36h-195.797c-167.595 0-198.485 0.384-214.741 2.645-84.503 11.561-156.598 56.987-203.296 121.906l-0.608 0.889c-21.589 30.080-41.941 76.245-49.237 111.872-22.997 111.787 18.304 224.683 108.501 296.704 5.931 4.736 11.136 8.619 11.605 8.661 0.469 0 122.965-122.069 272.213-271.317z" />
<glyph unicode="&#xe93e;" glyph-name="cloud-rain" d="M355.84 958.805c-63.531-4.181-129.835-26.965-184.107-63.232-22.902-14.937-42.807-31.426-60.663-49.907l-0.095-0.099c-46.465-47.073-80.988-106.043-98.585-171.927l-0.615-2.708c-7.4-28.597-11.648-61.427-11.648-95.249 0-25.947 2.5-51.31 7.273-75.861l-0.403 2.491c16.171-81.451 59.349-157.696 119.68-211.157 23.339-20.693 33.195-26.539 44.757-26.453 10.923 0.085 20.181 4.779 29.739 15.189 17.579 19.029 18.816 39.893 3.371 55.509-7.335 7.114-15.060 14.393-22.889 21.562l-0.834 0.753c-59.008 54.101-91.947 126.037-94.976 207.36-1.92 51.84 6.528 92.245 29.269 139.776 17.493 36.608 34.432 60.16 62.464 86.827 53.459 51.202 126.126 82.724 206.155 82.724 46.386 0 90.299-10.59 129.452-29.483l-1.783 0.776c75.093-35.755 129.536-97.664 155.819-177.195 10.283-31.147 11.819-34.347 19.883-41.003 9.173-7.552 17.195-8.832 56.491-8.875 52.395-0.043 68.821-2.987 98.645-17.749 55.040-27.264 87.893-74.411 94.848-136.32 6.272-55.723-18.219-114.389-62.421-149.547-8.99-6.735-19.165-13.202-29.826-18.878l-1.278-0.621c-23.125-12.075-32.043-20.651-33.835-32.512-2.688-18.176 9.771-43.563 25.387-51.669 6.187-3.2 20.437-3.2 29.44 0 28.373 10.112 62.208 33.493 88.832 61.355 43.397 45.356 70.11 106.986 70.11 174.855 0 20.136-2.351 39.722-6.795 58.5l0.343-1.718c-11.563 49.749-32.597 87.595-68.864 123.861-50.944 50.901-112.469 75.819-187.221 75.819-12.971 0-15.403 0.427-16.299 2.987-5.722 14.545-9.154 22.519-12.687 30.437l2.489-6.245c-27.819 64.939-78.72 125.099-139.691 165.163-59.716 39.736-133.095 63.404-212.002 63.404-9.477 0-18.873-0.341-28.179-1.013l1.248 0.072zM324.864 445.568c-9.351-2.542-16.968-8.642-21.456-16.719l-0.090-0.177-3.797-7.125-0.469-183.168c-0.299-120.064 0.171-185.387 1.28-189.611 4.48-16.64 16.853-25.771 36.565-27.051 20.693-1.323 34.261 4.651 41.984 18.475l4.267 7.595v373.76l-3.797 7.125c-2.391 4.254-5.427 7.848-9.021 10.784l-0.067 0.053c-11.264 8.064-30.763 10.624-45.397 6.059zM666.197 445.568c-9.351-2.542-16.968-8.642-21.456-16.719l-0.090-0.177-3.797-7.125-0.469-183.168c-0.299-120.064 0.171-185.387 1.28-189.611 4.48-16.64 16.853-25.771 36.565-27.051 20.693-1.323 34.261 4.651 41.984 18.475l4.267 7.595v373.76l-3.797 7.125c-2.391 4.254-5.427 7.848-9.021 10.784l-0.067 0.053c-11.264 8.064-30.763 10.624-45.397 6.059zM495.531 360.235c-9.351-2.542-16.968-8.642-21.456-16.719l-0.090-0.177-3.797-7.125-0.469-183.168c-0.299-120.064 0.171-185.387 1.28-189.611 4.48-16.64 16.853-25.771 36.565-27.051 20.693-1.323 34.261 4.651 41.984 18.475l4.267 7.595v373.76l-3.797 7.125c-2.391 4.254-5.427 7.848-9.021 10.784l-0.067 0.053c-11.264 8.064-30.763 10.624-45.397 6.059z" />
</font>
</defs>
</svg>
