<?xml version="1.0" standalone="no"?>
<!DOCTYPE svg PUBLIC "-//W3C//DTD SVG 1.1//EN" "http://www.w3.org/Graphics/SVG/1.1/DTD/svg11.dtd" >
<svg xmlns="http://www.w3.org/2000/svg">
<metadata>Generated by IcoMoon</metadata>
<defs>
<font id="icomoon" horiz-adv-x="1024">
<font-face units-per-em="1024" ascent="960" descent="-64" />
<missing-glyph horiz-adv-x="1024" />
<glyph unicode="&#x20;" horiz-adv-x="512" d="" />
<glyph unicode="&#xe900;" glyph-name="phone-call" d="M719.374 142.198l-95.034 95.034c-27.418 27.418-72.036 27.416-99.45 0l-41.752-41.752c-95.36 49.936-173.724 128.3-223.66 223.66l41.754 41.754c27.416 27.418 27.416 72.032 0 99.45l-95.032 95.032c-27.418 27.418-72.032 27.418-99.45 0l-76.026-76.028c-39.724-39.722-40.966-109.748-3.498-197.174 33.776-78.812 95.768-165.606 174.554-244.392s165.58-140.778 244.392-174.554c42.374-18.16 80.656-27.226 113.384-27.226 34.798 0 63.32 10.252 83.79 30.722l76.026 76.026c13.284 13.282 20.598 30.942 20.598 49.726 0.002 18.78-7.314 36.44-20.596 49.722zM676.94 85.18l-76.026-76.026c-20.584-20.582-69.592-17.136-131.106 9.226-71.962 30.842-152.082 88.314-225.6 161.832-73.516 73.518-130.99 153.636-161.832 225.598-26.36 61.51-29.812 110.522-9.226 131.106l76.026 76.026c4.024 4.022 10.568 4.022 14.59 0l95.032-95.032c4.022-4.022 4.022-10.568 0-14.588l-71.97-71.972 9.052-19.108c58.112-122.68 157.68-222.25 280.362-280.362l19.108-9.050 71.97 71.97c2.628 2.628 5.7 3.022 7.294 3.022s4.664-0.392 7.292-3.020l95.032-95.032c2.628-2.628 3.022-5.698 3.022-7.294 0.004-1.598-0.392-4.668-3.020-7.296zM931.502 882.476c-58.324 49.992-135.58 77.524-217.536 77.524-81.954 0-159.212-27.532-217.536-77.524-59.646-51.126-92.496-119.492-92.496-192.504s32.85-141.376 92.496-192.504c10.69-9.16 22.018-17.562 33.892-25.182-21.924-33.034-47.554-63.396-76.382-90.406 62.88 5.2 122.502 21.864 176.808 47.854 26.772-6.448 54.71-9.79 83.218-9.79 81.956 0 159.212 27.532 217.536 77.524 59.648 51.124 92.498 119.492 92.498 192.504s-32.85 141.376-92.498 192.504zM713.966 479.95c-137.864 0-250.026 94.216-250.026 210.022s112.162 210.022 250.026 210.022 250.026-94.216 250.026-210.022c0.002-115.806-112.162-210.022-250.026-210.022zM753.978 689.972c0-22.094-17.91-40.004-40.004-40.004s-40.004 17.91-40.004 40.004c0 22.094 17.91 40.004 40.004 40.004s40.004-17.91 40.004-40.004zM613.964 689.972c0-22.094-17.91-40.004-40.004-40.004s-40.004 17.91-40.004 40.004c0 22.094 17.91 40.004 40.004 40.004s40.004-17.91 40.004-40.004zM893.994 689.972c0-22.094-17.91-40.004-40.004-40.004s-40.004 17.91-40.004 40.004c0 22.094 17.91 40.004 40.004 40.004s40.004-17.91 40.004-40.004z" />
<glyph unicode="&#xe901;" glyph-name="magnifying-glass" d="M1015.031-11.778l-248.848 248.848c66.753 76.743 107.168 176.873 107.168 286.311 0 240.901-195.945 436.619-436.619 436.619-240.901 0-436.619-195.945-436.619-436.619s195.945-436.619 436.619-436.619c109.439 0 209.568 40.415 286.311 107.168l248.848-248.848c5.903-5.903 13.85-9.082 21.57-9.082s15.667 2.952 21.57 9.082c11.807 11.807 11.807 31.333 0 43.14zM61.19 523.381c0 207.071 168.472 375.315 375.315 375.315 207.071 0 375.315-168.472 375.315-375.315s-168.245-375.542-375.315-375.542c-206.843 0-375.315 168.472-375.315 375.542z" />
<glyph unicode="&#xe902;" glyph-name="right-arrow" d="M1012.268 476.314c-0.012 0.012-0.022 0.026-0.036 0.038l-209.008 208c-15.658 15.582-40.984 15.524-56.57-0.136-15.584-15.658-15.524-40.984 0.134-56.568l140.328-139.648h-847.116c-22.092 0-40-17.908-40-40s17.908-40 40-40h847.114l-140.324-139.648c-15.658-15.584-15.718-40.91-0.134-56.568 15.586-15.662 40.914-15.716 56.57-0.136l209.008 208c0.012 0.012 0.022 0.026 0.036 0.038 15.666 15.636 15.616 41.044-0.002 56.628z" />
<glyph unicode="&#xe903;" glyph-name="report" d="M928 576c0 8.837-7.163 16-16 16v0h-272v256c0 8.837-7.163 16-16 16v0c-17.023-0.094-33.624-1.604-49.778-4.416l1.778 0.256v52.16c0 8.837-7.163 16-16 16v0h-384c-4.419-0.034-8.42-1.797-11.365-4.644l0.005 0.004-128-128c-2.843-2.94-4.606-6.941-4.64-11.353v-800.007c0-8.837 7.163-16 16-16v0h512c8.837 0 16 7.163 16 16v0 276.16c14.376-2.556 30.978-4.066 47.914-4.16h0.086c167.832 0.155 303.845 136.168 304 303.985v0.015c0 4.32-0.16 8.64-0.32 12.96 0.184 0.904 0.299 1.952 0.32 3.023v0.017zM608 831.52v-248.96l-194.56-194.56c-38.244 46.475-61.433 106.593-61.433 172.127 0 144.561 112.835 262.769 255.237 271.356l0.756 0.036zM160 873.44v-73.44h-73.44zM544 0h-480v768h112c8.837 0 16 7.163 16 16v0 112h352v-43.040c-130.117-36.179-224.019-153.603-224.019-292.96s93.902-256.781 221.885-292.452l2.135-0.508zM624 288c-0.003 0-0.006 0-0.009 0-73.446 0-140.063 29.234-188.852 76.7l0.062-0.060 195.36 195.36h265.44c-0.218-150.134-121.866-271.782-271.979-272h-0.021zM688 624l288 0.096c8.619 0.201 15.529 7.236 15.529 15.884 0 0.311-0.009 0.62-0.027 0.926l0.002-0.042c-9.048 160.451-141.367 287.136-303.274 287.136-0.081 0-0.161 0-0.242 0h0.013c-8.837 0-16-7.163-16-16v0-272c0-8.837 7.163-16 16-16v0zM958.112 656h-254.112v239.536c132.116-7.915 238.326-109.114 253.983-238.233l0.129-1.303zM304 320c-79.529 0-144-64.471-144-144s64.471-144 144-144c79.529 0 144 64.471 144 144v0c-0.127 79.478-64.522 143.873-143.988 144h-0.012zM304 64c-61.856 0-112 50.144-112 112s50.144 112 112 112c61.856 0 112-50.144 112-112v0c-0.073-61.827-50.174-111.927-111.993-112h-0.007zM352 144c-0.11-20.704-13.268-38.307-31.665-45.013l-0.335-0.107v-18.88h-32v18.88c-18.732 6.813-31.89 24.416-32 45.107v0.013h32c0-8.837 7.163-16 16-16s16 7.163 16 16c0 8.837-7.163 16-16 16v0c-26.349 0.211-47.628 21.62-47.628 47.999 0 20.635 13.021 38.229 31.296 45.013l0.332 0.108v18.88h32v-18.88c18.732-6.813 31.89-24.416 32-45.107v-0.013h-32c0 8.837-7.163 16-16 16s-16-7.163-16-16c0-8.837 7.163-16 16-16v0c26.477-0.082 47.918-21.523 48-47.992v-0.008zM128 704h160v-32h-160zM128 608h160v-32h-160zM128 512h160v-32h-160zM128 416h160v-32h-160zM640 192h64v-32h-64zM736 192h256v-32h-256zM640 96h64v-32h-64zM736 96h256v-32h-256zM640 0h64v-32h-64zM736 0h256v-32h-256z" />
<glyph unicode="&#xe904;" glyph-name="global" d="M512 752c-167.895 0-304-136.105-304-304s136.105-304 304-304c167.895 0 304 136.105 304 304v0c-0.155 167.832-136.168 303.845-303.985 304h-0.015zM783.2 464h-127.52c-0.91 44.652-6.517 87.521-16.347 128.752l0.827-4.112c26.699 12.681 49.7 27.801 70.312 45.611l-0.392-0.331c42.049-44.647 69.154-103.783 73.084-169.168l0.036-0.752zM686.88 656.16c-16.078-13.784-34.263-25.883-53.826-35.628l-1.534-0.692c-10.3 34.273-25.776 64.095-45.776 90.276l0.496-0.676c38.798-11.203 72.442-29.517 101.051-53.617l-0.411 0.337zM400.32 464c0.742 40.305 5.542 79.080 14.008 116.463l-0.728-3.823c29.318-10.547 63.147-16.644 98.4-16.644s69.082 6.097 100.491 17.294l-2.091-0.65c7.738-33.56 12.538-72.335 13.272-112.103l0.008-0.537zM623.68 432c-0.742-40.305-5.542-79.080-14.008-116.463l0.728 3.823c-29.318 10.547-63.147 16.644-98.4 16.644s-69.082-6.097-100.491-17.294l2.091 0.65c-7.738 33.56-12.538 72.335-13.272 112.103l-0.008 0.537zM512 720c33.44 0 68.32-41.92 90.080-112.32-26.807-9.933-57.772-15.68-90.080-15.68s-63.273 5.747-91.929 16.274l1.849-0.594c21.76 70.4 56.64 112.32 90.080 112.32zM437.76 709.44c-19.504-25.505-34.98-55.327-44.765-87.622l-0.515-1.978c-21.097 10.437-39.282 22.536-55.718 36.619l0.358-0.299c28.198 23.763 61.842 42.077 98.717 52.801l1.923 0.479zM313.92 633.92c20.22-17.479 43.221-32.599 68.067-44.482l1.853-0.798c-9.003-37.119-14.61-79.988-15.51-124.014l-0.010-0.626h-127.52c3.966 66.137 31.071 125.273 73.248 170.057l-0.128-0.137zM240.8 432h127.52c0.91-44.652 6.517-87.521 16.347-128.752l-0.827 4.112c-26.699-12.681-49.7-27.801-70.312-45.611l0.392 0.331c-42.049 44.647-69.154 103.783-73.084 169.168l-0.036 0.752zM337.12 239.84c16.078 13.784 34.263 25.883 53.826 35.628l1.534 0.692c10.3-34.273 25.776-64.095 45.776-90.276l-0.496 0.676c-38.798 11.203-72.442 29.517-101.051 53.617l0.411-0.337zM512 176c-33.44 0-68.32 41.92-90.080 112.32 26.807 9.933 57.772 15.68 90.080 15.68s63.273-5.747 91.929-16.274l-1.849 0.594c-21.76-70.4-56.64-112.32-90.080-112.32zM586.24 186.56c19.504 25.505 34.98 55.327 44.765 87.622l0.515 1.978c21.097-10.437 39.282-22.536 55.718-36.619l-0.358 0.299c-28.198-23.763-61.842-42.077-98.717-52.801l-1.923-0.479zM710.080 262.080c-20.22 17.479-43.221 32.599-68.067 44.482l-1.853 0.798c9.003 37.119 14.61 79.988 15.51 124.014l0.010 0.626h127.52c-3.966-66.137-31.071-125.273-73.248-170.057l0.128 0.137zM864 176h32v-32h-32v32zM960 61.12v114.88c-0.082 26.477-21.523 47.918-47.992 48h-128.008c-26.477-0.082-47.918-21.523-48-47.992v-114.888c-18.606-6.892-31.628-24.486-31.628-45.121 0-26.379 21.279-47.788 47.608-47.998h192.020c26.349 0.211 47.628 21.62 47.628 47.999 0 20.635-13.021 38.229-31.296 45.013l-0.332 0.108zM768 176c0 8.837 7.163 16 16 16v0h128c8.837 0 16-7.163 16-16v0-112h-160zM944 0h-192c-8.837 0-16 7.163-16 16s7.163 16 16 16v0h192c8.837 0 16-7.163 16-16s-7.163-16-16-16v0zM288 61.12v114.88c-0.082 26.477-21.523 47.918-47.992 48h-128.008c-26.477-0.082-47.918-21.523-48-47.992v-114.888c-18.606-6.892-31.628-24.486-31.628-45.121 0-26.379 21.279-47.788 47.608-47.998h192.020c26.349 0.211 47.628 21.62 47.628 47.999 0 20.635-13.021 38.229-31.296 45.013l-0.332 0.108zM96 176c0 8.837 7.163 16 16 16v0h128c8.837 0 16-7.163 16-16v0-112h-160zM272 0h-192c-8.837 0-16 7.163-16 16s7.163 16 16 16v0h192c8.837 0 16-7.163 16-16s-7.163-16-16-16v0zM960 765.12v114.88c-0.082 26.477-21.523 47.918-47.992 48h-128.008c-26.477-0.082-47.918-21.523-48-47.992v-114.888c-18.606-6.892-31.628-24.486-31.628-45.121 0-26.379 21.279-47.788 47.608-47.998h192.020c26.349 0.211 47.628 21.62 47.628 47.999 0 20.635-13.021 38.229-31.296 45.013l-0.332 0.108zM768 880c0 8.837 7.163 16 16 16v0h128c8.837 0 16-7.163 16-16v0-112h-160zM944 704h-192c-8.837 0-16 7.163-16 16s7.163 16 16 16v0h192c8.837 0 16-7.163 16-16s-7.163-16-16-16v0zM192 176h32v-32h-32v32zM864 880h32v-32h-32v32zM192 880h32v-32h-32v32zM288 765.12v114.88c-0.082 26.477-21.523 47.918-47.992 48h-128.008c-26.477-0.082-47.918-21.523-48-47.992v-114.888c-18.606-6.892-31.628-24.486-31.628-45.121 0-26.379 21.279-47.788 47.608-47.998h192.020c26.349 0.211 47.628 21.62 47.628 47.999 0 20.635-13.021 38.229-31.296 45.013l-0.332 0.108zM96 880c0 8.837 7.163 16 16 16v0h128c8.837 0 16-7.163 16-16v0-112h-160zM272 704h-192c-8.837 0-16 7.163-16 16s7.163 16 16 16v0h192c8.837 0 16-7.163 16-16s-7.163-16-16-16v0zM944 416c-0.11-20.704-13.268-38.307-31.665-45.013l-0.335-0.107v-18.88c0-8.837-7.163-16-16-16s-16 7.163-16 16v0 18.88c-18.732 6.813-31.89 24.416-32 45.107v0.013c0 8.837 7.163 16 16 16s16-7.163 16-16v0c0-8.837 7.163-16 16-16s16 7.163 16 16c0 8.837-7.163 16-16 16v0c-26.349 0.211-47.628 21.62-47.628 47.999 0 20.635 13.021 38.229 31.296 45.013l0.332 0.108v18.88c0 8.837 7.163 16 16 16s16-7.163 16-16v0-18.88c18.732-6.813 31.89-24.416 32-45.107v-0.013c0-8.837-7.163-16-16-16s-16 7.163-16 16v0c0 8.837-7.163 16-16 16s-16-7.163-16-16c0-8.837 7.163-16 16-16v0c26.477-0.082 47.918-21.523 48-47.992v-0.008zM112 496c8.837 0 16-7.163 16-16v0c0-8.837 7.163-16 16-16s16 7.163 16 16v0c-0.089 20.695-13.259 38.29-31.666 44.95l-0.334 0.106v18.944c0 8.837-7.163 16-16 16s-16-7.163-16-16v0-18.944c-18.787-6.758-31.979-24.422-31.979-45.168 0-26.448 21.44-47.888 47.888-47.888 0.032 0 0.064 0 0.096 0h-0.005c8.837 0 16-7.163 16-16s-7.163-16-16-16c-8.837 0-16 7.163-16 16v0c0 8.837-7.163 16-16 16s-16-7.163-16-16v0c0.089-20.695 13.259-38.29 31.666-44.95l0.334-0.106v-18.944c0-8.837 7.163-16 16-16s16 7.163 16 16v0 18.944c18.787 6.758 31.979 24.422 31.979 45.168 0 26.448-21.44 47.888-47.888 47.888-0.032 0-0.064 0-0.096 0h0.005c-8.837 0-16 7.163-16 16s7.163 16 16 16v0zM557.12 864c-6.724 18.796-24.38 32.003-45.12 32.003s-38.396-13.207-45.016-31.67l-0.104-0.334h-146.88v-32h146.88c6.724-18.796 24.38-32.003 45.12-32.003s38.396 13.207 45.016 31.67l0.104 0.334h146.88v32zM512 832c-8.837 0-16 7.163-16 16s7.163 16 16 16c8.837 0 16-7.163 16-16v0c0-8.837-7.163-16-16-16v0zM512 96c-20.695-0.089-38.29-13.259-44.95-31.666l-0.106-0.334h-114.944v-32h114.944c6.689-18.799 24.329-32.015 45.056-32.015s38.367 13.217 44.952 31.682l0.104 0.333h114.944v32h-114.944c-6.766 18.741-24.361 31.911-45.045 32h-0.011zM512 32c-8.837 0-16 7.163-16 16s7.163 16 16 16c8.837 0 16-7.163 16-16v0c0-8.837-7.163-16-16-16v0z" />
<glyph unicode="&#xe905;" glyph-name="business" d="M893.44 360.96c60.16 46.165 98.56 118.094 98.56 198.991 0 0.017 0 0.034 0 0.052v-0.003c0 0.006 0 0.012 0 0.018 0 126.858-98.548 230.698-223.265 239.142l-0.735 0.040v80.8c-0.082 26.477-21.523 47.918-47.992 48h-640.008c-26.477-0.082-47.918-21.523-48-47.992v-864.008c0.082-26.477 21.523-47.918 47.992-48h640.008c26.477 0.082 47.918 21.523 48 47.992v81.288c50.020 7.493 88.882 47.117 95.143 96.888l0.057 0.552c19.213 6.463 32.807 24.312 32.807 45.336 0 20.727-13.212 38.368-31.673 44.961l-0.333 0.104v13.92c-0.005 0.322-0.008 0.702-0.008 1.082 0 24.589 11.441 46.505 29.29 60.716l0.158 0.121zM736 16c0-8.837-7.163-16-16-16v0h-640c-8.837 0-16 7.163-16 16v0 864c0 8.837 7.163 16 16 16v0h640c8.837 0 16-7.163 16-16v0-80.64c-7.52-0.48-15.2-1.28-22.72-2.4-83.11-13.611-150.863-68.531-182.29-142.596l-0.59-1.564c-11.659-27.745-18.433-59.994-18.433-93.825 0-80.165 38.036-151.447 97.046-196.782l0.587-0.433c18.578-14.594 30.401-37.060 30.401-62.287 0-0.152 0-0.305-0.001-0.457v0.023-13.92c-18.795-6.697-32.007-24.338-32.007-45.064 0-21.024 13.593-38.873 32.47-45.237l0.337-0.098c6.318-50.324 45.18-89.947 94.583-97.364l0.617-0.076zM752 128c-38.505 0.050-70.644 27.247-78.307 63.477l-0.093 0.523h156.8c-7.756-36.753-39.895-63.95-78.395-64h-0.005zM848 224h-192c-8.837 0-16 7.163-16 16s7.163 16 16 16v0h192c8.837 0 16-7.163 16-16s-7.163-16-16-16v0zM832 299.040v-11.040h-160v11.040c0 0.086 0 0.188 0 0.29 0 35.621-16.746 67.33-42.795 87.685l-0.246 0.185c-51.566 40.435-84.392 102.736-84.392 172.704 0 29.073 5.667 56.822 15.957 82.203l-0.526-1.467c27.641 65.464 86.303 112.987 157.054 124.481l1.186 0.159c10.082 1.73 21.693 2.718 33.536 2.718 114.92 0 208.095-93.096 208.224-207.986v-0.012c-0.412-70.388-33.697-132.919-85.265-173.069l-0.495-0.371c-25.813-20.226-42.246-51.401-42.246-86.414 0-0.389 0.002-0.777 0.006-1.165v0.059zM752 640c26.51 0 48-21.49 48-48v0c0-8.837 7.163-16 16-16s16 7.163 16 16v0c-0.050 38.505-27.247 70.644-63.477 78.307l-0.523 0.093v17.6c0 8.837-7.163 16-16 16s-16-7.163-16-16v0-17.6c-36.817-7.672-64.080-39.852-64.080-78.4 0-44.183 35.817-80 80-80 0.028 0 0.057 0 0.085 0h-0.004c26.51 0 48-21.49 48-48s-21.49-48-48-48c-26.51 0-48 21.49-48 48v0c0 8.837-7.163 16-16 16s-16-7.163-16-16v0c0.050-38.505 27.247-70.644 63.477-78.307l0.523-0.093v-17.6c0-8.837 7.163-16 16-16s16 7.163 16 16v0 17.6c36.817 7.672 64.080 39.852 64.080 78.4 0 44.183-35.817 80-80 80-0.028 0-0.057 0-0.085 0h0.004c-26.51 0-48 21.49-48 48s21.49 48 48 48v0zM572.8 281.6l-96 128c-3.077 3.677-7.667 5.998-12.8 5.998s-9.723-2.322-12.779-5.972l-0.021-0.026-96-128c-1.98-2.633-3.171-5.958-3.171-9.561 0-2.641 0.64-5.133 1.773-7.328l-0.042 0.090c2.594-5.252 7.913-8.801 14.060-8.801 0.063 0 0.126 0 0.189 0.001h31.99v-176c0-8.837 7.163-16 16-16v0h96c8.837 0 16 7.163 16 16v0 176h32c0.053-0.001 0.116-0.001 0.18-0.001 6.148 0 11.467 3.549 14.020 8.71l0.041 0.091c1.091 2.106 1.731 4.598 1.731 7.239 0 3.603-1.191 6.928-3.201 9.603l0.030-0.041zM512 288c-8.837 0-16-7.163-16-16v0-176h-64v176c0 8.837-7.163 16-16 16v0h-16l64 85.28 64-85.28zM208 224h-64c-8.837 0-16-7.163-16-16v0-128c0-8.837 7.163-16 16-16v0h64c8.837 0 16 7.163 16 16v0 128c0 8.837-7.163 16-16 16v0zM192 96h-32v96h32zM336 224h-64c-8.837 0-16-7.163-16-16v0-128c0-8.837 7.163-16 16-16v0h64c8.837 0 16 7.163 16 16v0 128c0 8.837-7.163 16-16 16v0zM320 96h-32v96h32zM272 640c-8.837 0-16 7.163-16 16v0c0 8.837-7.163 16-16 16s-16-7.163-16-16v0c0.089-20.695 13.259-38.29 31.666-44.95l0.334-0.106v-18.944c0-8.837 7.163-16 16-16s16 7.163 16 16v0 18.944c18.787 6.758 31.979 24.422 31.979 45.168 0 26.448-21.44 47.888-47.888 47.888-0.032 0-0.064 0-0.096 0h0.005c-8.837 0-16 7.163-16 16s7.163 16 16 16c8.837 0 16-7.163 16-16v0c0-8.837 7.163-16 16-16s16 7.163 16 16v0c-0.089 20.695-13.259 38.29-31.666 44.95l-0.334 0.106v18.944c0 8.837-7.163 16-16 16s-16-7.163-16-16v0-18.944c-18.787-6.758-31.979-24.422-31.979-45.168 0-26.448 21.44-47.888 47.888-47.888 0.032 0 0.064 0 0.096 0h-0.005c8.837 0 16-7.163 16-16s-7.163-16-16-16v0zM272 864c-97.202 0-176-78.798-176-176s78.798-176 176-176c97.202 0 176 78.798 176 176v0c-0.064 97.176-78.823 175.936-175.994 176h-0.006zM272 544c-79.529 0-144 64.471-144 144s64.471 144 144 144c79.529 0 144-64.471 144-144v0c-0.127-79.478-64.522-143.873-143.988-144h-0.012zM416 448c8.837 0 16 7.163 16 16s-7.163 16-16 16v0h-288c-8.837 0-16-7.163-16-16s7.163-16 16-16v0zM960 896v32h-32v-32h-32v-32h32v-32h32v32h32v32zM960 64h-32v-32h-32v-32h32v-32h32v32h32v32h-32z" />
<glyph unicode="&#xe906;" glyph-name="protection" d="M631.933 215.697h-63.842c36.406 19.954 61.147 58.64 61.147 103.001 0 64.722-52.656 117.376-117.376 117.376s-117.376-52.656-117.376-117.376c0-44.361 24.743-83.048 61.147-103.001h-63.844c-65.222 0-118.283-53.061-118.283-118.283v-55.826h31.262v55.826c0 47.982 39.036 87.020 87.020 87.020h240.146c47.982 0 87.020-39.036 87.020-87.020v-120.344h-65.38v92.549h-31.262v-92.549h-220.901v92.549h-31.262v-92.549h-65.38v33.384h-31.262v-64.649h476.709v151.606c0 65.224-53.061 118.285-118.283 118.285zM425.747 318.698c0 47.484 38.63 86.114 86.114 86.114s86.114-38.63 86.114-86.114-38.63-86.114-86.114-86.114-86.114 38.63-86.114 86.114zM1019.106 555.272c-12.661 50.303-32.759 98.354-59.73 142.822l-26.727-16.213c9.372-15.454 17.861-31.367 25.441-47.679-15.821 8.228-33.736 12.836-52.546 12.836-33.982 0-65.020-15.041-86.109-39.299-4.827 29.67-14.093 68.386-31.89 109.694-22.148 51.412-52.969 96.113-91.603 132.865-22.878 21.761-48.538 40.681-76.735 56.731 99.544-22.294 190.795-75.236 259.831-152.663l19.549-23.328c6.14-7.807 12.117-15.898 17.77-24.053l25.694 17.809c-6.057 8.737-12.465 17.409-19.049 25.769l-20.464 24.424c-99.19 111.344-241.534 175.205-390.537 175.205-118.841 0-230.84-38.859-323.881-112.372-90.234-71.293-155.304-171.639-183.223-282.548l-4.896-19.447h34.608l2.413 12.718c7.395 38.957 41.583 67.235 81.295 67.235s73.9-28.276 81.295-67.235l2.413-12.718h29.393l2.411 12.718c7.395 38.957 41.583 67.235 81.295 67.235s73.9-28.276 81.295-67.235l2.413-12.718h29.393l2.411 12.718c6.403 33.73 32.896 59.438 65.664 65.735v-122.878h31.262v122.878c32.767-6.296 59.261-32.004 65.664-65.735l2.413-12.718h29.393l2.411 12.718c0.031 0.16 0.069 0.315 0.1 0.475l0.117-0.019c0.033 0.215 0.138 0.877 0.283 1.901 8.303 37.732 41.89 64.878 80.793 64.878 39.712 0 73.9-28.276 81.293-67.235l2.411-12.718h29.393l2.413 12.718c7.395 38.957 41.583 67.235 81.295 67.235 39.714 0 73.902-28.276 81.295-67.235l2.411-12.718h34.751zM118.318 647.038c-18.803 0-36.713-4.606-52.529-12.828 64.317 139.149 190.23 240.112 339.502 273.105-28.395-16.113-54.22-35.127-77.231-57.014-38.634-36.752-69.455-81.453-91.603-132.865-17.824-41.373-27.090-80.144-31.913-109.833-21.092 24.337-52.181 39.437-86.226 39.437zM315.124 647.038c-29.405 0-56.604-11.265-77.064-30.014 4.977 25.312 13.266 55.908 27.111 88.041 39.918 92.654 107.355 158.774 200.813 197.158-38.715-57.064-63.188-129.237-71.468-211.903-2.695-26.904-3.383-51.612-3.105-72.594-20.371 18.326-47.252 29.312-76.287 29.312zM511.931 647.038c-35.462 0-67.717-16.382-88.808-42.523-2.497 72.835 5.767 209.154 88.867 306.695 59.349-69.74 79.778-158.924 86.307-223.191 3.249-31.979 3.464-60.962 2.639-83.752-21.085 26.285-53.432 42.771-89.004 42.771zM708.739 647.038c-28.968 0-55.793-10.936-76.145-29.185 0.273 20.956-0.415 45.616-3.105 72.468-8.28 82.666-32.753 154.837-71.468 211.903 93.070-38.232 160.349-103.981 200.338-196.059 14.114-32.5 22.534-63.584 27.571-89.252-20.477 18.816-47.727 30.125-77.191 30.125zM437.875 96.385h31.262v-31.262h-31.262zM496.231 96.385h31.262v-31.262h-31.262zM554.588 96.385h31.262v-31.262h-31.262z" />
<glyph unicode="&#xe907;" glyph-name="user" d="M874.039 810.039c-96.703 96.703-225.281 149.961-362.039 149.961s-265.336-53.258-362.039-149.961c-96.703-96.703-149.961-225.281-149.961-362.039s53.258-265.336 149.961-362.039c96.703-96.703 225.281-149.961 362.039-149.961s265.336 53.258 362.039 149.961c96.703 96.703 149.961 225.281 149.961 362.039s-53.258 265.336-149.961 362.039zM222.211 101.406c16.906 145.469 141.977 257.781 289.789 257.781 77.922 0 151.195-30.359 206.313-85.469 46.563-46.57 75.93-107.375 83.484-172.305-78.516-65.758-179.609-105.414-289.797-105.414s-211.273 39.648-289.789 105.406zM512 420.984c-85.742 0-155.508 69.766-155.508 155.508 0 85.75 69.766 155.508 155.508 155.508s155.508-69.758 155.508-155.508c0-85.742-69.766-155.508-155.508-155.508zM853.438 152.133c-15.289 61.641-47.172 118.477-92.703 164.008-36.875 36.875-80.5 64.539-128.078 81.875 57.195 38.789 94.852 104.32 94.852 178.477 0 118.828-96.68 215.508-215.508 215.508s-215.508-96.68-215.508-215.508c0-74.195 37.688-139.75 94.93-178.531-43.773-15.953-84.281-40.617-119.133-73.086-50.469-47-85.516-106.93-101.766-172.695-68.82 79.336-110.523 182.797-110.523 295.82 0 249.234 202.766 452 452 452s452-202.766 452-452c0-113.047-41.719-216.531-110.563-295.867z" />
<glyph unicode="&#xe908;" glyph-name="conversation" d="M1020.314 156.312l-59.474 173.086c28.668 58.604 43.818 123.78 43.92 189.358 0.176 114.026-43.94 221.84-124.224 303.581-80.3 81.756-187.304 127.778-301.305 129.584-118.21 1.868-229.322-43.096-312.857-126.628-80.548-80.546-125.224-186.732-126.638-300.205-79.388-59.772-126.246-152.962-126.092-252.5 0.074-46.58 10.558-92.882 30.424-134.752l-40.966-119.216c-7.042-20.494-1.898-42.746 13.426-58.070 10.784-10.786 25.002-16.528 39.624-16.528 6.152 0 12.376 1.016 18.446 3.102l119.218 40.966c41.87-19.866 88.172-30.35 134.752-30.424 0.168 0 0.328 0 0.496 0 101.020 0.004 194.92 48.070 254.474 129.404 61.974 1.632 123.292 16.634 178.726 43.752l173.088-59.476c7.212-2.478 14.608-3.686 21.918-3.686 17.376 0 34.272 6.824 47.090 19.644 18.208 18.21 24.32 44.652 15.952 69.008zM329.061 18.618c-0.13 0-0.268 0-0.398 0-41.228 0.062-82.17 10.226-118.392 29.39-7.448 3.938-16.192 4.62-24.156 1.884l-122.246-42.006 42.006 122.244c2.736 7.966 2.056 16.71-1.884 24.156-19.164 36.224-29.328 77.164-29.392 118.394-0.102 66.318 25.696 129.176 70.81 176.244 14.736-89.832 57.55-172.612 123.914-237.796 65.874-64.702 148.678-105.898 238.022-119.366-47.176-46.498-110.768-73.144-178.284-73.144zM961.258 130.404c-1.734-1.734-3.79-2.206-6.102-1.41l-185.296 63.672c-3.218 1.106-6.566 1.654-9.902 1.654-4.918 0-9.818-1.19-14.252-3.538-52.906-27.988-112.69-42.832-172.894-42.924-0.198 0-0.378 0-0.576 0-201.726 0-368.353 163.868-371.549 365.547-1.61 101.57 37.026 197.028 108.788 268.791s167.236 110.384 268.793 108.784c201.872-3.202 365.853-170.136 365.541-372.127-0.094-60.204-14.936-119.99-42.922-172.892-3.94-7.446-4.62-16.19-1.884-24.156l63.67-185.296c0.794-2.32 0.318-4.374-1.414-6.104zM753.785 680.975h-363.121c-16.832 0-30.476-13.646-30.476-30.476 0-16.832 13.646-30.476 30.476-30.476h363.121c16.832 0 30.476 13.646 30.476 30.476s-13.644 30.476-30.476 30.476zM753.785 555.633h-363.121c-16.832 0-30.476-13.646-30.476-30.476s13.646-30.476 30.476-30.476h363.121c16.832 0 30.476 13.646 30.476 30.476s-13.644 30.476-30.476 30.476zM614.009 430.295h-223.346c-16.832 0-30.476-13.646-30.476-30.476 0-16.832 13.646-30.476 30.476-30.476h223.344c16.832 0 30.476 13.646 30.476 30.476s-13.642 30.476-30.474 30.476z" />
<glyph unicode="&#xe909;" glyph-name="tick" d="M357.376 147.456c-8.704 0-17.050 3.43-23.194 9.574l-226.304 226.304c-12.8 12.8-12.8 33.536 0 46.336s33.536 12.8 46.336 0l203.162-203.11 512.358 512.41c12.8 12.8 33.536 12.8 46.336 0s12.8-33.536 0-46.336l-535.552-535.552c-6.144-6.195-14.438-9.626-23.142-9.626z" />
<glyph unicode="&#xe90a;" glyph-name="twitter" d="M920.576 701.952c-30.72-13.312-62.464-22.528-96.256-26.624 34.816 20.48 61.44 53.248 73.728 93.184-32.768-19.456-68.608-32.768-106.496-40.96-30.72 32.768-74.752 53.248-122.88 53.248-93.184 0-167.936-75.776-167.936-167.936 0-13.312 1.024-25.6 4.096-37.888-139.264 6.144-262.144 73.728-345.088 175.104-59.392-106.496 7.168-194.56 51.2-224.256-26.624 0-53.248 8.192-75.776 20.48 0-82.944 58.368-151.552 134.144-166.912-16.384-5.12-53.248-8.192-75.776-3.072 21.504-66.56 83.968-115.712 156.672-116.736-57.344-45.056-141.312-80.896-248.832-69.632 74.752-48.128 162.816-75.776 258.048-75.776 309.248 0 477.184 256 477.184 477.184 0 7.168 0 14.336-1.024 21.504 34.816 25.6 63.488 55.296 84.992 89.088z" />
<glyph unicode="&#xe90b;" glyph-name="facebook-circular-logo" d="M512.003 957.868c-282.769 0-512.003-229.234-512.003-512.003 0-253.61 184.587-463.642 426.611-504.313v397.496h-123.51v143.043h123.51v105.474c0 122.38 74.746 189.070 183.934 189.070 52.294 0 97.235-3.897 110.281-5.613v-127.92l-75.729-0.037c-59.367 0-70.813-28.205-70.813-69.61v-91.292h141.656l-18.476-143.043h-123.18v-400.989c253.323 30.832 449.717 246.214 449.717 507.88 0 282.622-229.234 511.856-511.997 511.856z" />
<glyph unicode="&#xe90c;" glyph-name="pinterest" d="M441.14 282.72c-26.88-140.96-59.72-276.12-157-346.72-30.020 213.080 44.1 373.1 78.5 542.98-58.68 98.8 7.060 297.6 130.84 248.6 152.3-60.24-131.88-367.26 58.9-405.6 199.2-40.020 280.5 345.62 157 471.020-178.48 181.1-519.52 4.14-477.58-255.14 10.2-63.38 75.7-82.62 26.18-170.080-114.24 25.32-148.32 115.4-143.94 235.5 7.060 196.6 176.64 334.24 346.74 353.28 215.1 24.080 416.98-78.96 444.86-281.32 31.4-228.38-97.1-475.72-327.1-457.94-62.36 4.84-88.52 35.74-137.4 65.42z" />
<glyph unicode="&#xe90d;" glyph-name="instagram" d="M767.994 960h-511.988c-140.784 0-255.994-115.21-255.994-255.994v-512.012c0-140.747 115.21-255.994 255.994-255.994h511.988c140.784 0 255.994 115.247 255.994 255.994v512.012c0 140.784-115.21 255.994-255.994 255.994zM938.652 191.994c0-94.078-76.528-170.658-170.658-170.658h-511.988c-94.090 0-170.658 76.581-170.658 170.658v512.012c0 94.103 76.568 170.658 170.658 170.658h511.988c94.13 0 170.658-76.556 170.658-170.658v-512.012zM853.367 725.343c0-35.345-28.653-63.998-63.998-63.998s-63.998 28.653-63.998 63.998c0 35.345 28.653 63.998 63.998 63.998s63.998-28.653 63.998-63.998zM512 704.006c-141.412 0-255.994-114.595-255.994-255.994 0-141.347 114.582-256.019 255.994-256.019 141.372 0 255.994 114.672 255.994 256.019 0 141.399-114.622 255.994-255.994 255.994zM512 277.329c-94.245 0-170.658 76.413-170.658 170.683s76.413 170.658 170.658 170.658 170.658-76.388 170.658-170.658-76.413-170.683-170.658-170.683z" />
<glyph unicode="&#xe90e;" glyph-name="email" d="M663.512 405.498l-85.762-86.052c-34.778-34.9-95.97-35.652-131.5 0l-85.766 86.052-308.032-309.032c11.466-5.302 24.108-8.466 37.548-8.466h844c13.44 0 26.078 3.16 37.54 8.464l-308.028 309.034zM934 808h-844c-13.44 0-26.082-3.164-37.544-8.466l329.154-330.246c0.022-0.022 0.048-0.026 0.070-0.048s0.026-0.052 0.026-0.052l107.026-107.38c11.368-11.368 35.172-11.368 46.54 0l107.004 107.362c0 0 0.026 0.048 0.048 0.070 0 0 0.048 0.026 0.070 0.048l329.146 330.248c-11.462 5.304-24.1 8.464-37.54 8.464zM9.572 757.576c-5.932-11.996-9.572-25.312-9.572-39.576v-540c0-14.264 3.636-27.58 9.57-39.576l308.566 309.566-308.564 309.586zM1014.428 757.58l-308.562-309.59 308.562-309.57c5.932 11.996 9.572 25.312 9.572 39.58v540c0 14.268-3.64 27.584-9.572 39.58z" />
<glyph unicode="&#xe90f;" glyph-name="placeholder" d="M497.435 959.74c-203.446-7.138-372.46-165.864-391.986-368.471-3.989-40.521-1.68-79.783 5.459-117.365v0c0 0 0.63-4.409 2.729-12.807 6.299-28.134 15.747-55.428 27.504-81.043 40.941-96.999 135.631-259.294 348.105-435.866 13.017-10.918 32.123-10.918 45.35 0 212.474 176.362 307.164 338.657 348.315 436.076 11.967 25.614 21.205 52.699 27.504 81.043 1.89 8.188 2.729 12.807 2.729 12.807v0c4.829 25.195 7.348 51.019 7.348 77.473 0 230.53-190.849 416.34-423.059 408.152zM511.922 348.351c-109.596 0-198.407 88.811-198.407 198.407s88.811 198.407 198.407 198.407 198.407-88.811 198.407-198.407-88.811-198.407-198.407-198.407z" />
<glyph unicode="&#xe910;" glyph-name="recruit" d="M688 480c0-8.837-7.163-16-16-16s-16 7.163-16 16c0 8.837 7.163 16 16 16s16-7.163 16-16zM816 480c0-8.837-7.163-16-16-16s-16 7.163-16 16c0 8.837 7.163 16 16 16s16-7.163 16-16zM816 400h-32c0-17.648-14.352-32-32-32h-64v-32h64c35.296 0 64 28.704 64 64zM812.288 269.728l-3.376 10.128c36.768 14.496 64.016 47.872 69.808 88.16h1.28c35.296 0 64 28.704 64 64 0 13.104-3.984 25.296-10.768 35.44 7.088 29.648 10.768 60.096 10.768 90.576v113.968c0 26.464-21.536 48-48 48h-206.032c-43.040 0-80.8-27.184-94.816-67.168-39.968-14-67.152-51.76-67.152-94.8 0-30.48 3.68-60.912 10.768-90.592-6.784-10.16-10.768-22.336-10.768-35.44 0-35.296 28.704-64 64-64h1.28c5.808-40.288 33.040-73.648 69.808-88.16l-3.376-10.128c-90.272-18.736-160.224-85.008-185.424-170.144l-9.52 57.152c20.368 32.784 31.232 70.272 31.232 108.96v150.32c0 20.832-13.424 38.432-32 45.056v450.944c0 17.648-14.352 32-32 32h-384c-17.648 0-32-14.352-32-32v-544c0-17.648 14.352-32 32-32h0.992c1.664-6.752 5.44-12.832 11.008-17.296l57.552-46.032c8.608-6.896 15.328-15.952 19.44-26.224l2.736-6.832c13.92-34.784 36.976-64.528 66.864-86.768l-28.144-168.848h-162.448v-32h992v77.344c0 117.328-81.776 216.736-195.712 240.384zM669.84 239.2l32.944-16.48-35.536-21.328-7.136 35.728c3.2 0.768 6.448 1.456 9.728 2.080zM732.496 144h7.008l40-160h-87.024zM740.464 176h-8.928l-7.408 22.208 11.872 7.136 11.872-7.12zM769.232 222.72l32.944 16.48c3.28-0.624 6.528-1.312 9.744-2.080l-7.136-35.728zM880 400v64c17.648 0 32-14.352 32-32s-14.352-32-32-32zM560 432c0 17.648 14.352 32 32 32v-64c-17.648 0-32 14.352-32 32zM592 512v-16c-9.088 0-17.712-1.968-25.536-5.392-4.256 22.224-6.464 44.816-6.464 67.424 0 31.488 21.328 58.8 51.872 66.448l9.312 2.336 2.336 9.312c7.632 30.544 34.96 51.872 66.448 51.872h206.032c8.832 0 16-7.184 16-16v-113.968c0-22.624-2.208-45.216-6.464-67.424-7.84 3.424-16.448 5.392-25.536 5.392v16c0 26.464-21.536 48-48 48h-128c-8.832 0-16 7.184-16 16v48h-32v-33.616c-36.464-7.424-64-39.744-64-78.384zM624 384v128c0 22.096 15.008 40.752 35.376 46.32 7.056-17.744 24.4-30.32 44.624-30.32h128c8.832 0 16-7.184 16-16v-128c0-44.112-35.888-80-80-80h-64c-44.112 0-80 35.888-80 80zM704 272h64c3.248 0 6.464 0.208 9.648 0.496l2.8-8.384-44.448-22.224-44.432 22.208 2.8 8.384c3.168-0.272 6.384-0.48 9.632-0.48zM629.424 227.312l15.344-76.72 51.248 30.752 7.328-22-43.824-175.344h-67.52v96h-32v-96h-64v45.344c0 88.896 54.016 165.952 133.424 197.968zM48 912h384v-450.944c-0.608-0.224-1.264-0.336-1.856-0.576-5.52 20.4-24.016 35.52-46.144 35.52-12.336 0-23.488-4.816-32-12.48-8.512 7.68-19.664 12.48-32 12.48-5.632 0-10.976-1.152-16-2.944v34.944h96v32h-96v16c0 5.632-1.152 10.976-2.944 16h98.944v32h-224v-32h34.944c-1.792-5.024-2.944-10.368-2.944-16v-16h-128v-32h128v-32h-128v-32h128v-75.152c0-11.504-9.344-20.848-20.848-20.848-4.128 0-8.128 1.216-11.568 3.504l-19.008 12.672c-15.52 10.352-33.584 15.824-52.272 15.824-22.304 0-41.44-13.136-50.56-32h-5.744zM169.424 251.52l-2.736 6.816c-6.144 15.376-16.224 28.976-29.152 39.328l-57.536 46.032c0 13.408 10.912 24.304 24.32 24.304 12.336 0 24.272-3.616 34.512-10.448l19.008-12.672c8.704-5.808 18.848-8.88 29.312-8.88 29.152 0 52.848 23.696 52.848 52.848v187.152c0 8.816 7.168 16 16 16s16-7.184 16-16v-240h32v112c0 8.816 7.168 16 16 16s16-7.184 16-16v-112h32v112c0 8.816 7.168 16 16 16s16-7.184 16-16v-112h32v80c0 8.816 7.168 16 16 16s16-7.184 16-16v-150.32c0-31.744-8.544-62.576-24.816-89.68h-210.208c-26.784 18.944-47.312 44.96-59.552 75.52zM237.552 144h196.896l26.672-160h-250.24zM976-16h-64v96h-32v-96h-67.52l-43.824 175.36 7.328 22 51.248-30.752 15.344 76.72c79.408-32.032 133.424-109.088 133.424-197.984zM336 688c0 36.16-20.096 67.68-49.712 84.048 10.912 11.488 17.712 26.912 17.712 43.952 0 35.296-28.704 64-64 64s-64-28.704-64-64c0-17.040 6.8-32.464 17.712-43.952-29.616-16.368-49.712-47.888-49.712-84.048v-32h192zM208 816c0 17.648 14.352 32 32 32s32-14.352 32-32-14.352-32-32-32-32 14.352-32 32zM176 688c0 35.296 28.704 64 64 64s64-28.704 64-64zM80 624h64v-32h-64z" />
<glyph unicode="&#xe911;" glyph-name="creative" d="M1024 860.903v99.097h-99.097v-33.032h-825.806v33.032h-99.097v-99.097h99.097v33.032h241.598c-165.558-66.279-284.11-225.544-290.733-412.903h-33.445v-99.097h99.097v99.097h-32.619c8.423 221.151 184.766 399.971 404.942 412.193l-109.139-109.139 9.926-64.562c-114.44-49.102-190.53-163.047-190.53-288.041 0-101.921 49.218-196.889 132.129-255.818v-8.44h-33.032v-33.032h33.032v-33.032h-33.032v-33.032h33.032v-33.032h-33.032v-33.032h33.032v-66.065h363.355v66.065h33.032v33.032h-33.032v33.032h33.032v33.032h-33.032v33.032h33.032v33.032h-33.032v8.44c82.911 58.93 132.129 153.897 132.129 255.818 0 124.994-76.090 238.939-190.53 288.041l9.926 64.562-109.139 109.139c220.177-12.222 396.519-191.042 404.942-412.193h-32.619v-99.097h99.097v99.097h-33.445c-6.623 187.359-125.176 346.624-290.717 412.903h241.581v-33.032h99.097zM957.935 926.968h33.032v-33.032h-33.032v33.032zM66.065 893.935h-33.032v33.032h33.032v-33.032zM82.581 414.968h-33.032v33.032h33.032v-33.032zM660.645-30.968h-297.29v33.032h297.29v-33.032zM660.645 35.097h-297.29v33.032h297.29v-33.032zM660.645 101.161h-297.29v33.032h297.29v-33.032zM630.107 685.865c98.073-45.651 162.667-145.391 162.667-254.381 0-93.845-46.658-181.116-124.812-233.439l-7.317-4.905v-25.914h-132.129v33.032h-33.032v-33.032h-132.129v25.914l-7.317 4.905c-78.154 52.323-124.812 139.594-124.812 233.439 0 108.99 64.595 208.731 162.667 254.381l16.268-105.736h-30.291v-33.032h264.258v33.032h-30.291l16.268 105.736zM610.023 772.558l-29.613-192.429h-136.803l-29.613 192.429 81.491 81.507v-94.604c-28.424-7.383-49.548-33.016-49.548-63.719 0-36.435 29.63-66.065 66.065-66.065s66.065 29.63 66.065 66.065c0 30.703-21.124 56.337-49.548 63.719v94.604l81.507-81.507zM512 728.774c18.217 0 33.032-14.815 33.032-33.032s-14.815-33.032-33.032-33.032c-18.217 0-33.032 14.815-33.032 33.032s14.815 33.032 33.032 33.032zM941.419 448h33.032v-33.032h-33.032v33.032zM512 497.548c-45.535 0-82.581-37.046-82.581-82.581 0-39.87 28.424-73.233 66.065-80.913v-100.765h33.032v100.765c37.64 7.68 66.065 41.026 66.065 80.913 0 45.535-37.046 82.581-82.581 82.581zM512 365.419c-27.318 0-49.548 22.231-49.548 49.548s22.231 49.548 49.548 49.548 49.548-22.231 49.548-49.548-22.231-49.548-49.548-49.548z" />
<glyph unicode="&#xe912;" glyph-name="help" d="M984.363 120.089l23.121 30.839c10.653 14.185 16.516 31.79 16.516 49.548v243.992c0 23.75-15.242 44.242-37.065 49.806-9.742 2.5-19.815 1.855-28.984-1.597v50.887c0 25.056-17.79 46.823-41.339 50.637-0.347 0.048-0.71 0-1.056 0.048-61.492 169.782-221.992 283.169-403.556 283.169-69.315 0-137.25-16.702-198.194-48.411v31.895h33.032v99.097h-330.323v-99.097h33.032v-55.266c0-10.669-3.516-21.202-9.911-29.726l-23.121-30.839c-10.653-14.185-16.516-31.79-16.516-49.548v-243.992c0-23.75 15.242-44.242 37.065-49.806 9.742-2.5 19.815-1.855 28.984 1.597v-50.887c0-25.056 17.79-46.823 41.339-50.637 0.347-0.048 0.71 0 1.056-0.048 61.492-169.782 221.992-283.169 403.556-283.169 69.266 0 137.234 16.75 198.194 48.492v-31.976h-33.032v-99.097h330.323v99.097h-33.032v55.266c0 10.653 3.516 21.202 9.911 29.726zM810.25 584.855c-0.331-0.282-0.645-0.548-0.96-0.831-0.315 0.282-0.629 0.548-0.96 0.831-11.081 9.427-25.75 13.476-40.282 11.129-10.831-1.766-20.331-7.435-27.548-15.363-8.806 15.081-19.105 29.056-30.573 41.952l93.75 93.75c33.806-36.75 60.879-80.202 79.145-128.847-2.234-1.355-4.492-2.685-6.508-4.403-0.065-0.056-0.153-0.121-0.218-0.185-6.935 6.758-15.758 11.476-25.565 13.081-14.435 2.363-29.202-1.669-40.282-11.113zM147.685 312.911c0.065 0.056 0.153 0.121 0.218 0.185 6.935-6.758 15.758-11.476 25.565-13.081 14.435-2.347 29.185 1.685 40.282 11.129 0.331 0.282 0.645 0.548 0.96 0.831 0.315-0.282 0.629-0.548 0.96-0.831 9.016-7.677 20.395-11.79 32.137-11.79 2.694 0 5.419 0.234 8.129 0.661 10.863 1.766 20.379 7.468 27.613 15.411 8.79-15.113 18.911-29.266 30.339-42.185l-93.581-93.581c-33.806 36.75-60.863 80.202-79.129 128.831 2.25 1.371 4.492 2.702 6.508 4.419zM337.371 250.024c43.306-38.105 98.637-61.887 158.113-65.621v-132.129c-95.758 3.944-184.218 41.903-251.806 104.048zM528.516 184.387c41.056 2.508 80.298 14.435 115.613 34.911v-0.79c0-18.992 6.621-37.54 18.645-52.258l36.242-44.347c4.371-5.331 7.395-11.589 9.21-18.185-54.815-31.274-116.419-48.935-179.71-51.556zM644.129 393.879v-135.452c-38.863-27.185-84.363-41.653-132.129-41.653-94.702 0-179.863 58.266-214.71 145.702v123c14.008-10.476 30.718-16.387 48.476-16.387 0.597 0 1.185 0 1.782 0.016 17.823 0.379 32.323 15.218 32.323 33.032v135.435c38.879 27.169 84.331 41.653 132.129 41.653 94.008 0 179.863-58.387 214.71-145.492v-123.21c-14.419 10.839-31.613 16.831-50.258 16.387-17.823-0.395-32.323-15.218-32.323-33.032zM686.492 645.847c-43.419 38.121-98.831 61.984-157.976 65.766v132.113c95.758-3.944 184.218-41.919 251.806-104.048zM495.484 711.597c-41.073-2.508-80.315-14.419-115.613-34.911v0.79c0 18.992-6.621 37.54-18.645 52.258l-36.242 44.347c-4.371 5.331-7.379 11.573-9.21 18.145 54.831 31.315 116.387 48.976 179.71 51.597zM49.548 926.968h264.258v-33.032h-264.258zM99.097 352.435v231.226h-33.032v-132.194c0-5.597-2.823-11.282-7.379-14.798-2.815-2.194-7.452-4.395-13.452-2.935-7.065 1.798-12.202 9.282-12.202 17.798v243.992c0 10.669 3.516 21.21 9.911 29.734l23.121 30.831c10.653 14.194 16.516 31.798 16.516 49.548v55.266h198.194v-55.476c0-19.008 6.621-37.573 18.645-52.258l36.242-44.331c7.194-8.823 11.177-19.968 11.177-31.347v-175.355c-13.145-0.492-25.581 4.645-34.984 13.847-9.395 9.177-14.565 21.5-14.565 34.645v82.581h-33.032v-273.685l-1.185-0.427c0.363-1.008 0.806-1.952 1.185-2.944v-5.468c0-8.887-5.976-16.815-13.629-18.048-5.032-0.863-9.823 0.492-13.573 3.677-3.718 3.145-5.831 7.734-5.831 12.589v234.758h-33.032v-234.758c0-4.855-2.113-9.444-5.831-12.605-3.75-3.169-8.589-4.476-13.573-3.677-7.653 1.25-13.629 9.161-13.629 18.048v232.992h-33.032v-232.976c0-4.855-2.113-9.444-5.831-12.597-3.75-3.177-8.589-4.492-13.589-3.685-7.637 1.218-13.613 9.161-13.613 18.032zM974.452-30.968h-264.258v33.032h264.258zM743.226 35.097v55.476c0 19.008-6.621 37.573-18.645 52.258l-36.242 44.331c-7.194 8.823-11.177 19.968-11.177 31.347v175.355c12.984 0.774 25.565-4.645 34.984-13.847 9.395-9.177 14.565-21.5 14.565-34.645v-82.581h33.032v282.54c0 8.887 5.976 16.815 13.629 18.048 5.032 0.815 9.823-0.492 13.573-3.677 3.718-3.161 5.831-7.75 5.831-12.605v-234.758h33.032v234.758c0 4.855 2.113 9.444 5.831 12.605 3.75 3.169 8.524 4.508 13.573 3.677 7.653-1.25 13.629-9.161 13.629-18.048v-232.976h33.032v232.976c0 4.855 2.113 9.444 5.831 12.597 3.75 3.177 8.556 4.532 13.589 3.685 7.637-1.234 13.613-9.177 13.613-18.048v-231.226h33.032v132.194c0 5.597 2.823 11.282 7.379 14.798 2.815 2.194 7.452 4.444 13.452 2.935 7.065-1.798 12.202-9.282 12.202-17.798v-243.992c0-10.669-3.516-21.21-9.911-29.734l-23.121-30.831c-10.653-14.194-16.516-31.798-16.516-49.548v-55.266zM650.419 784.073l-12.597-30.556c24.065-9.927 46.984-22.742 68.129-38.121l19.403 26.742c-23.234 16.895-48.46 31-74.935 41.935zM574.944 772.331c10.637-2.048 21.21-4.629 31.427-7.685l9.452 31.645c-11.266 3.371-22.911 6.226-34.637 8.492z" />
<glyph unicode="&#xe913;" glyph-name="customer-review" d="M674.938 176.32c-6.711 1.133-13.586 1.703-20.438 1.703h-65.422v41.734c37.68 25.148 62.555 68.031 62.555 116.633v75.070c0 25.859-7.102 51.133-20.539 73.078l-25.609-15.68c10.547-17.227 16.125-37.078 16.125-57.398v-15.742l-3.945 7.289c-12.008 22.195-35.141 35.984-60.375 35.984h-91.586c-25.234 0-48.367-13.789-60.375-35.984l-3.938-7.289v15.742c0 60.719 49.391 110.109 110.109 110.109 29.289 0 56.859-11.375 77.625-32.023l21.172 21.297c-26.43 26.281-61.516 40.758-98.797 40.758-77.273 0-140.141-62.867-140.141-140.141v-75.070c0-48.602 24.883-91.492 62.563-116.633v-41.734h-65.422c-67.414 0-122.258-54.844-122.258-122.266v-119.758h30.031v119.758c0 50.859 41.367 92.234 92.227 92.234h66.578c6.297-36.492 38.156-64.352 76.422-64.352s70.125 27.859 76.422 64.352h66.578c5.188 0 10.383-0.43 15.453-1.289zM559.047 161.219c0-26.219-21.328-47.547-47.547-47.547s-47.547 21.328-47.547 47.547v43.352c14.852-5.375 30.859-8.313 47.547-8.313s32.695 2.938 47.547 8.313zM511.5 226.281c-59.5 0-108.094 47.445-110.016 106.477l30.266 55.961c6.75 12.484 19.766 20.242 33.953 20.242h91.586c14.195 0 27.211-7.758 33.961-20.242l30.266-55.953c-1.93-59.039-50.523-106.484-110.016-106.484zM707.469 165.977l-13.023-27.055c31.766-15.289 52.281-47.938 52.281-83.164v-119.758h30.031v119.758c0 46.695-27.195 89.953-69.289 110.219zM656.641 8.070h30.031v-72.070h-30.031zM336.328 8.070h30.031v-72.070h-30.031zM265.945 818.484l-34.719 70.336-34.719-70.336-77.625-11.281 56.172-54.758-13.258-77.313 69.43 36.5 69.43-36.5-13.258 77.313 56.172 54.758zM260.773 730.023l-29.547 15.539-29.547-15.539 5.641 32.906-23.906 23.305 33.039 4.797 14.773 29.938 14.773-29.938 33.039-4.797-23.906-23.305zM556.227 818.484l-34.719 70.344-34.711-70.344-77.633-11.281 56.172-54.758-13.258-77.313 69.43 36.5 69.438-36.5-13.266 77.32 56.172 54.75zM551.063 730.023l-29.555 15.539-29.547-15.539 5.641 32.906-23.906 23.305 33.039 4.797 14.773 29.938 14.773-29.938 33.039-4.797-23.906-23.305zM791.773 888.828l-34.719-70.344-77.625-11.281 56.172-54.75-13.258-77.32 69.43 36.5 69.438-36.5-13.266 77.32 56.172 54.75-77.625 11.281zM821.32 730.023l-29.547 15.539-29.555-15.539 5.648 32.906-23.906 23.305 33.039 4.797 14.773 29.938 14.773-29.938 33.039-4.797-23.906-23.305zM967.945 960h-184.383v-30.031h184.383c13.797 0 25.023-11.227 25.023-25.023v-260.25c0-13.805-11.227-25.031-25.023-25.031h-681.664v-106.148l-150.391 106.148h-80.836c-13.797 0-25.023 11.227-25.023 25.031v130.781h-30.031v-130.781c0-30.359 24.695-55.055 55.055-55.055h71.313l189.945-134.086v134.086h651.633c30.359 0 55.055 24.695 55.055 55.055v260.25c0 30.359-24.695 55.055-55.055 55.055zM30.031 904.945c0 13.797 11.227 25.023 25.023 25.023h698.484v30.031h-698.484c-30.359 0-55.055-24.695-55.055-55.055v-99.438h30.031zM306.297 55.758h30.031c0 17.742 14.43 32.18 32.172 32.18v30.023c-34.297 0-62.203-27.906-62.203-62.203zM960.938 824.867v75.070h-75.070v-30.023h45.039v-45.047zM60.063 726.773v-75.078h75.070v30.031h-45.047v45.047zM436.43 3.062h30.023v-30.023h-30.023zM496.484 3.062h30.031v-30.023h-30.031zM556.547 3.062h30.023v-30.023h-30.023z" />
<glyph unicode="&#xe914;" glyph-name="conversation-1" d="M32 464h282.080l107.52-92.144c2.778-2.387 6.419-3.841 10.4-3.841 8.831 0 15.991 7.155 16 15.984v80.001h96c8.837 0 16 7.163 16 16v0 144h224c8.837 0 16 7.163 16 16v0 288c0 8.837-7.163 16-16 16v0h-448c-8.837 0-16-7.163-16-16v0-144h-288c-8.837 0-16-7.163-16-16v0-288c0-8.837 7.163-16 16-16v0zM352 912h416v-256h-416zM48 752h272v-112c0-8.837 7.163-16 16-16v0h192v-128h-96c-8.837 0-16-7.163-16-16v0-61.216l-85.6 73.36c-2.769 2.396-6.405 3.856-10.382 3.856-0.006 0-0.013 0-0.019 0h-271.999zM448 864h224v-32h-224zM704 864h32v-32h-32zM384 800h352v-32h-352zM384 736h352v-32h-352zM992 80h-16v80c0 0.037 0 0.080 0 0.123 0 16.73-4.304 32.455-11.865 46.127l0.249-0.491 38.928 38.928c2.895 2.895 4.686 6.895 4.686 11.313 0 5.216-2.496 9.848-6.358 12.769l-0.040 0.029c-35.051 26.617-57.485 68.277-57.6 115.181v32.019c0 97.202-78.798 176-176 176s-176-78.798-176-176v0-32c-0.115-46.923-22.548-88.583-57.242-114.939l-0.358-0.261c-3.897-2.95-6.389-7.58-6.389-12.792 0-4.422 1.794-8.424 4.693-11.32v0l38.928-38.928c-7.322-13.189-11.632-28.924-11.632-45.666 0-0.033 0-0.066 0-0.099v0.005-80h-72.896c5.527 9.147 8.824 20.181 8.896 31.98v16.020c0 8.837-7.163 16-16 16v0h-16v144c0 26.51-21.49 48-48 48v0h-288c-26.51 0-48-21.49-48-48v0-144h-16c-8.837 0-16-7.163-16-16v0-16c0.072-11.819 3.369-22.853 9.055-32.285l-0.159 0.285h-24.896c-8.837 0-16-7.163-16-16v0-96c0-8.837 7.163-16 16-16v0h960c8.837 0 16 7.163 16 16v0 96c0 8.837-7.163 16-16 16v0zM624 384v32c0 79.529 64.471 144 144 144s144-64.471 144-144v0-32c0.137-50.906 21.741-96.739 56.233-128.945l0.103-0.095-24-24c-16.896 15.494-39.502 25.002-64.328 25.040h-48.008v20.224c29.152 20.461 47.978 53.918 48 91.773v64.003c0 0.002 0 0.004 0 0.006 0 5.039-2.329 9.533-5.969 12.466l-0.031 0.024-80 64c-2.713 2.187-6.202 3.51-10 3.51-8.837 0-16-7.163-16-16 0-0.002 0-0.004 0-0.006v0c-0.087-19.736-14.614-36.052-33.557-38.933l-0.219-0.027-64.496-9.2c-7.805-1.151-13.728-7.803-13.728-15.838 0-0.001 0-0.001 0-0.002v0-64c0.024-37.858 18.85-71.313 47.643-91.538l0.357-0.238v-20.224h-48c-24.845-0.011-47.47-9.504-64.456-25.057l0.072 0.065-24 24c34.601 32.283 56.22 78.097 56.384 128.962v0.030zM768 288c-44.161 0.055-79.945 35.839-80 79.995v50.133l50.752 7.248c24.868 3.753 45.282 19.823 55.066 41.689l0.182 0.455 54-43.2v-56.32c-0.055-44.161-35.839-79.945-79.995-80h-0.005zM736 260.8c9.576-2.995 20.586-4.72 32-4.72s22.424 1.725 32.785 4.929l-0.785-0.209v-20.8c0-17.673-14.327-32-32-32s-32 14.327-32 32v0zM592 160c0 35.346 28.654 64 64 64v0h50.272c7.249-27.799 32.131-47.985 61.728-47.985s54.479 20.186 61.63 47.542l0.098 0.443h50.272c35.346 0 64-28.654 64-64v0-80h-352zM112 288c0 8.837 7.163 16 16 16v0h288c8.837 0 16-7.163 16-16v0-144h-320zM80 112h384c0-17.673-14.327-32-32-32v0h-320c-17.673 0-32 14.327-32 32v0zM976-16h-928v64h928z" />
<glyph unicode="&#xe915;" glyph-name="checking" d="M352 384c0-123.712 100.288-224 224-224s224 100.288 224 224c0 123.712-100.288 224-224 224v0c-123.657-0.137-223.863-100.343-224-223.987v-0.013zM768 384c0-106.039-85.961-192-192-192s-192 85.961-192 192c0 106.039 85.961 192 192 192v0c105.991-0.118 191.882-86.009 192-191.989v-0.011zM886.624 176l4.688 4.688c2.894 2.895 4.685 6.895 4.685 11.312s-1.79 8.417-4.685 11.312l-56 56c18.148 36.593 28.767 79.686 28.767 125.259 0 118.48-71.771 220.196-174.208 264.045l-1.871 0.712v278.672c0 8.837-7.163 16-16 16v0h-640c-8.837 0-16-7.163-16-16v0-960c0-8.837 7.163-16 16-16v0h640c8.837 0 16 7.163 16 16v0 150.672c4.32 1.824 8.416 4.048 12.624 6.080l56-56c2.895-2.894 6.895-4.685 11.312-4.685s8.417 1.79 11.312 4.685v0l4.752 4.624 100.112-100.128c13.132-13.132 31.273-21.254 51.312-21.254 40.077 0 72.566 32.489 72.566 72.566 0 20.039-8.122 38.18-21.254 51.312v0zM832 384c0-141.385-114.615-256-256-256s-256 114.615-256 256c0 141.385 114.615 256 256 256v0c141.315-0.173 255.827-114.685 256-255.983v-0.017zM656-16h-608v928h608v-251.536c-24.165 7.321-51.938 11.536-80.695 11.536-159.058 0-288-128.942-288-288s128.942-288 288-288c28.757 0 56.529 4.215 82.733 12.060l-2.038-0.524zM729.728 140.896c36.242 23.227 66.148 53.133 88.684 88.224l0.692 1.152 38.272-38.272-89.376-89.376zM935.424-16c-0.028 0-0.062 0-0.095 0-11.171 0-21.283 4.538-28.592 11.871l-100.113 100.129 57.376 57.376 100.112-100.128c7.345-7.341 11.888-17.484 11.888-28.688 0-22.401-18.159-40.56-40.56-40.56-0.005 0-0.011 0-0.016 0h0.001zM96 720h512c8.837 0 16 7.163 16 16v0 128c0 8.837-7.163 16-16 16v0h-512c-8.837 0-16-7.163-16-16v0-128c0-8.837 7.163-16 16-16v0zM112 848h480v-96h-480zM80 688h320v-32h-320zM80 624h192v-32h-192zM80 560h192v-32h-192zM80 496h192v-32h-192zM80 48h544v-32h-544zM80 112h256v-32h-256zM80 176h256v-32h-256zM507.312 427.312c-2.895 2.894-6.895 4.685-11.312 4.685s-8.417-1.79-11.312-4.685l-48-48c-2.894-2.895-4.685-6.895-4.685-11.312s1.79-8.417 4.685-11.312l96-96c2.895-2.894 6.895-4.685 11.312-4.685s8.417 1.79 11.312 4.685l160 160c2.894 2.895 4.685 6.895 4.685 11.312s-1.79 8.417-4.685 11.312l-48 48c-2.895 2.894-6.895 4.685-11.312 4.685s-8.417-1.79-11.312-4.685l-100.688-100.688zM656 457.376l25.376-25.376-137.376-137.376-73.376 73.376 25.376 25.376 36.688-36.688c2.895-2.894 6.895-4.685 11.312-4.685s8.417 1.79 11.312 4.685v0z" />
<glyph unicode="&#xe916;" glyph-name="cyber-security" d="M592 349.056v18.944c0 44.183-35.817 80-80 80s-80-35.817-80-80v0-18.944c-18.741-6.766-31.911-24.361-32-45.045v-112.011c0-26.51 21.49-48 48-48v0h128c26.51 0 48 21.49 48 48v0 112c-0.089 20.695-13.259 38.29-31.666 44.95l-0.334 0.106zM512 416c26.51 0 48-21.49 48-48v0-16h-96v16c0 26.51 21.49 48 48 48v0zM592 192c0-8.837-7.163-16-16-16v0h-128c-8.837 0-16 7.163-16 16v0 112c0 8.837 7.163 16 16 16v0h128c8.837 0 16-7.163 16-16v0zM528 267.552v20.448h-32v-20.448c-9.632-5.636-16-15.931-16-27.713 0-17.673 14.327-32 32-32s32 14.327 32 32c0 11.782-6.368 22.077-15.849 27.631l-0.151 0.082zM848 304c4.418 0.001 8.417 1.792 11.312 4.688l52.384 52.384c9.216-5.645 20.361-9.012 32.287-9.072h0.017c35.346 0 64 28.654 64 64s-28.654 64-64 64c-35.346 0-64-28.654-64-64v0c0.060-11.943 3.427-23.088 9.229-32.581l-0.157 0.277-47.696-47.696h-58.592c10.868 43.224 17.14 92.862 17.216 143.952v0.048c0 8.837-7.163 16-16 16v0h-6.896c5.015 11.283 9.785 24.916 13.505 38.974l0.447 1.986 43.584 7.264c7.627 1.311 13.358 7.874 13.36 15.776v0 96c-0.002 7.902-5.733 14.465-13.265 15.762l-0.095 0.014-43.584 7.264c-7.457 28.808-18.275 54.091-32.284 77.226l0.716-1.274 25.76 36.048c1.86 2.581 2.975 5.807 2.975 9.293 0 4.419-1.791 8.419-4.687 11.315l-67.888 67.888c-2.896 2.896-6.896 4.687-11.315 4.687-3.486 0-6.712-1.115-9.341-3.008l0.047 0.032-36.048-25.76c-21.861 13.293-47.144 24.111-73.965 31.126l-1.987 0.442-7.264 43.584c-1.311 7.627-7.874 13.358-15.776 13.36h-96c-7.902-0.002-14.465-5.733-15.762-13.265l-0.014-0.095-7.264-43.584c-28.808-7.457-54.091-18.275-77.226-32.284l1.274 0.716-36.048 25.76c-2.581 1.86-5.807 2.975-9.293 2.975-4.419 0-8.419-1.791-11.315-4.687l-67.888-67.888c-2.896-2.896-4.687-6.896-4.687-11.315 0-3.486 1.115-6.712 3.008-9.341l-0.032 0.047 25.76-36.048c-13.293-21.861-24.111-47.144-31.126-73.965l-0.442-1.987-43.584-7.264c-7.627-1.311-13.358-7.874-13.36-15.776v0-96c0.002-7.902 5.733-14.465 13.265-15.762l0.095-0.014 43.584-7.264c4.167-16.044 8.937-29.677 14.666-42.793l-0.714 1.833h-6.896c-8.837 0-16-7.163-16-16v0c0.076-51.138 6.348-100.776 18.106-148.249l-0.89 4.249h-58.592l-47.696 47.696c5.645 9.216 9.012 20.361 9.072 32.287v0.017c0 35.346-28.654 64-64 64s-64-28.654-64-64c0-35.346 28.654-64 64-64v0c11.943 0.060 23.088 3.427 32.581 9.229l-0.277-0.157 52.384-52.384c2.895-2.896 6.894-4.687 11.312-4.688h73.792c7.77-26.121 15.562-47.359 24.448-68.014l-1.536 4.014h-96.704c-4.418-0.001-8.417-1.792-11.312-4.688l-52.384-52.384c-9.216 5.645-20.361 9.012-32.287 9.072h-0.017c-35.346 0-64-28.654-64-64s28.654-64 64-64c35.346 0 64 28.654 64 64v0c-0.060 11.943-3.427 23.088-9.229 32.581l0.157-0.277 47.696 47.696h104.624c37.206-75.192 86.262-138.912 145.471-191.442l0.641-0.558 68.048-60.048c2.807-2.488 6.522-4.008 10.592-4.008s7.785 1.52 10.609 4.022l68.031 60.033c59.85 53.088 108.906 116.808 144.495 188.404l1.617 3.596h104.624l47.696-47.696c-5.645-9.216-9.012-20.361-9.072-32.287v-0.017c0-35.346 28.654-64 64-64s64 28.654 64 64c0 35.346-28.654 64-64 64v0c-11.943-0.060-23.088-3.427-32.581-9.229l0.277 0.157-52.384 52.384c-2.895 2.896-6.894 4.687-11.312 4.688h-96.704c7.35 16.641 15.142 37.879 21.766 59.625l1.146 4.375zM944 448c17.673 0 32-14.327 32-32s-14.327-32-32-32c-17.673 0-32 14.327-32 32v0c0 17.673 14.327 32 32 32v0zM48 416c0 17.673 14.327 32 32 32s32-14.327 32-32c0-17.673-14.327-32-32-32v0c-17.673 0-32 14.327-32 32v0zM80 96c-17.673 0-32 14.327-32 32s14.327 32 32 32c17.673 0 32-14.327 32-32v0c0-17.673-14.327-32-32-32v0zM976 128c0-17.673-14.327-32-32-32s-32 14.327-32 32c0 17.673 14.327 32 32 32v0c17.673 0 32-14.327 32-32v0zM208 573.552v68.896l40.72 6.784c6.51 1.112 11.621 6.029 13.005 12.342l0.019 0.106c7.045 32.285 19.313 60.816 36.014 86.169l-0.59-0.953c1.61 2.455 2.568 5.463 2.568 8.694 0 3.492-1.119 6.722-3.017 9.353l0.032-0.047-24 33.712 48.72 48.72 33.712-24.080c2.583-1.866 5.814-2.984 9.306-2.984 3.232 0 6.24 0.958 8.755 2.606l-0.061-0.037c24.4 16.111 52.931 28.379 83.537 35.114l1.679 0.31c6.419 1.403 11.336 6.514 12.435 12.929l0.013 0.095 6.704 40.72h68.896l6.784-40.72c1.112-6.51 6.029-11.621 12.342-13.005l0.106-0.019c32.285-7.045 60.816-19.313 86.169-36.014l-0.953 0.59c2.455-1.61 5.463-2.568 8.694-2.568 3.492 0 6.722 1.119 9.353 3.017l-0.047-0.032 33.712 24.080 48.72-48.72-24-33.712c-1.866-2.583-2.984-5.814-2.984-9.306 0-3.232 0.958-6.24 2.606-8.755l-0.037 0.061c16.111-24.4 28.379-52.931 35.114-83.537l0.31-1.679c1.403-6.419 6.514-11.336 12.929-12.435l0.095-0.013 40.64-6.784v-68.896l-40.72-6.784c-6.51-1.112-11.621-6.029-13.005-12.342l-0.019-0.106c-4.85-22.051-11.843-41.493-20.966-59.681l0.662 1.457c-30.37 0.173-59.627 4.65-87.284 12.851l2.212-0.563c19.477 27.921 31.12 62.565 31.12 99.929 0 97.202-78.798 176-176 176s-176-78.798-176-176c0-37.364 11.643-72.008 31.499-100.503l-0.379 0.574c-25.445-7.638-54.702-12.115-84.979-12.288h-0.093c-8.461 16.731-15.454 36.173-19.989 56.541l-0.315 1.683c-1.403 6.419-6.514 11.336-12.929 12.435l-0.095 0.013zM398.72 519.248c-19.151 24.226-30.72 55.213-30.72 88.902 0 79.529 64.471 144 144 144s144-64.471 144-144c0-33.689-11.569-64.676-30.951-89.205l0.231 0.303c-39.69 16.575-73.566 39.573-101.962 68.042l-0.006 0.006c-2.895 2.894-6.895 4.685-11.312 4.685s-8.417-1.79-11.312-4.685v0c-28.408-28.465-62.283-51.461-99.916-67.283l-2.052-0.765zM569.456 40l-57.456-50.656-57.456 50.656c-118.1 104.597-193.557 255.039-198.302 423.176l-0.018 0.824h24c0.295-0.001 0.644-0.001 0.992-0.001 89.112 0 170.247 34.157 231.025 90.093l-0.242-0.22c60.537-55.716 141.671-89.873 230.783-89.873 0.343 0 0.687 0.001 1.030 0.002h23.947c-4.759-168.959-80.211-319.401-197.688-423.464l-0.616-0.536z" />
<glyph unicode="&#xe917;" glyph-name="mobile-analytics" d="M944 768h-368v112c-0.082 26.477-21.523 47.918-47.992 48h-448.008c-26.477-0.082-47.918-21.523-48-47.992v-864.008c0.082-26.477 21.523-47.918 47.992-48h448.008c26.477 0.082 47.918 21.523 48 47.992v48.008h368c26.477 0.082 47.918 21.523 48 47.992v608.008c-0.082 26.477-21.523 47.918-47.992 48h-0.008zM459.52 896l-8-32h-295.040l-8 32zM544 16c0-8.837-7.163-16-16-16v0h-448c-8.837 0-16 7.163-16 16v0 864c0 8.837 7.163 16 16 16v0h35.52l12.96-51.84c1.782-7.033 8.052-12.154 15.519-12.16h320.001c7.468 0.006 13.738 5.127 15.496 12.049l0.024 0.111 12.96 51.84h35.52c8.837 0 16-7.163 16-16v0-112h-368c-26.477-0.082-47.918-21.523-48-47.992v-608.008c0.082-26.477 21.523-47.918 47.992-48h368.008zM960 112c0-8.837-7.163-16-16-16v0h-768c-8.837 0-16 7.163-16 16v0 496h800zM960 640h-800v80c0 8.837 7.163 16 16 16v0h768c8.837 0 16-7.163 16-16v0zM192 704h32v-32h-32zM256 704h32v-32h-32zM320 704h32v-32h-32zM896 704h32v-32h-32zM640 192v336c0 8.837-7.163 16-16 16v0h-64c-8.837 0-16-7.163-16-16v0-336h-32v240c0 8.837-7.163 16-16 16v0h-64c-8.837 0-16-7.163-16-16v0-240h-32v176c0 8.837-7.163 16-16 16v0h-64c-8.837 0-16-7.163-16-16v0-176h-32v384h-32v-400c0-8.837 7.163-16 16-16v0h656v32zM352 192h-32v160h32zM480 192h-32v224h32zM608 192h-32v320h32zM752 576h-64c-8.837 0-16-7.163-16-16v0-64c0-8.837 7.163-16 16-16v0h64c8.837 0 16 7.163 16 16v0 64c0 8.837-7.163 16-16 16v0zM736 512h-32v32h32zM752 448h-64c-8.837 0-16-7.163-16-16v0-64c0-8.837 7.163-16 16-16v0h64c8.837 0 16 7.163 16 16v0 64c0 8.837-7.163 16-16 16v0zM736 384h-32v32h32zM752 320h-64c-8.837 0-16-7.163-16-16v0-64c0-8.837 7.163-16 16-16v0h64c8.837 0 16 7.163 16 16v0 64c0 8.837-7.163 16-16 16v0zM736 256h-32v32h32zM800 576h32v-32h-32zM864 576h32v-32h-32zM800 512h96v-32h-96zM800 448h96v-32h-96zM800 384h96v-32h-96zM800 320h96v-32h-96zM800 256h32v-32h-32zM864 256h32v-32h-32z" />
<glyph unicode="&#xe918;" glyph-name="analysis" d="M983.44 95.184l-92.128 92.128c-2.895 2.894-6.895 4.685-11.312 4.685s-8.417-1.79-11.312-4.685l-4.688-4.688-69.184 69.184c23.349 37.759 37.185 83.54 37.185 132.553 0 100.428-58.091 187.289-142.504 228.813l-1.497 0.666v314.16c0 8.837-7.163 16-16 16v0h-640c-8.837 0-16-7.163-16-16v0-960c0-8.837 7.163-16 16-16v0h640c8.837 0 16 7.163 16 16v0 186.16q10.368 5.056 20.192 11.024l69.184-69.184-4.688-4.688c-2.894-2.895-4.685-6.895-4.685-11.312s1.79-8.417 4.685-11.312l92.128-92.128c15.179-15.179 36.149-24.568 59.312-24.568 46.326 0 83.88 37.554 83.88 83.88 0 23.163-9.389 44.133-24.568 59.312v0zM800 384c0-0.119 0-0.26 0-0.401 0-123.491-100.109-223.6-223.6-223.6-41.408 0-80.186 11.255-113.444 30.874l1.043-0.569v1.696h-2.784c-65.715 39.803-108.96 110.916-108.96 192.13 0 123.641 100.231 223.872 223.872 223.872s223.872-100.231 223.872-223.872c0-0.046 0-0.091 0-0.137v0.007zM208 256h-64v256h64zM376.48 224c9.516-11.726 19.59-22.19 30.477-31.75l0.291-0.25h-295.248v32zM368 532.672c-30.002-41.189-48-92.797-48-148.608 0-47.192 12.867-91.378 35.285-129.242l-0.645 1.178h-50.64v384h64zM544 637.776c-23.792-3.008-45.4-8.845-65.681-17.24l1.681 0.616v114.848h64zM656-16h-608v928h608v-284.976c-23.871 8.2-51.377 12.948-79.987 12.976h-0.013v112c0 8.837-7.163 16-16 16v0h-96c-8.837 0-16-7.163-16-16v0-146.64c-18.185-10.651-33.917-22.542-48.108-36.038l0.108 0.102v86.576c0 8.837-7.163 16-16 16v0h-96c-8.837 0-16-7.163-16-16v0-400h-32v272c0 8.837-7.163 16-16 16v0h-96c-8.837 0-16-7.163-16-16v0-272h-16c-8.837 0-16-7.163-16-16v0-64c0-8.837 7.163-16 16-16v0h356.336c35.584-20.135 78.146-32 123.48-32 28.682 0 56.255 4.75 81.975 13.505l-1.791-0.529zM734.944 183.68c15.44 12.358 29.017 25.936 40.979 40.864l0.397 0.512 65.056-65.056-41.376-41.376zM924.128-16c-0.045 0-0.098 0-0.15 0-14.278 0-27.2 5.804-36.536 15.182l-80.818 80.818 73.376 73.376 80.816-80.816c9.379-9.388 15.179-22.353 15.179-36.672 0-28.65-23.219-51.876-51.866-51.888h-0.001zM384 384c0-106.039 85.961-192 192-192s192 85.961 192 192c0 106.039-85.961 192-192 192v0c-105.991-0.118-191.882-86.009-192-191.989v-0.011zM480 511.696c17.99 13.787 39.52 23.936 62.96 28.919l1.040 0.185v-313.6c-24.478 5.158-46.008 15.297-64.382 29.353l0.382-0.281zM416 384c0.012 36.063 12.035 69.315 32.286 95.977l-0.286-0.393v-191.168c-19.965 26.269-31.988 59.521-32 95.581v0.003zM576 544c29.481-0.011 57.081-8.051 80.737-22.052l-0.737 0.404v-276.704c-22.918-13.597-50.519-21.637-79.997-21.648h-0.003zM736 384c0-0.011 0-0.024 0-0.037 0-44.671-18.371-85.052-47.97-113.999l-0.030-0.029v228.128c29.629-28.975 48-69.356 48-114.027 0-0.013 0-0.026 0-0.038v0.002zM112 848h128v-32h-128zM80 784h160v-32h-160zM80 720h160v-32h-160zM336 48h224v-32h-224zM592 48h32v-32h-32zM336 112h224v-32h-224zM592 112h32v-32h-32z" />
<glyph unicode="&#xe919;" glyph-name="creative-1" d="M384 512h-32c0-35.346-28.654-64-64-64s-64 28.654-64 64v0h-32c0-53.019 42.981-96 96-96s96 42.981 96 96v0zM400 384h-1.6c58.951 37.307 97.538 102.14 97.6 175.991v80.009h16c8.837 0 16 7.163 16 16v0 32c0 132.548-107.452 240-240 240s-240-107.452-240-240v0-32c0-8.837 7.163-16 16-16v0h16v-80c0.062-73.86 38.649-138.693 96.749-175.497l0.851-0.503h-1.6c-79.478-0.127-143.873-64.522-144-143.988v-256.012c0-8.837 7.163-16 16-16v0h480c8.837 0 16 7.163 16 16v0 256c-0.127 79.478-64.522 143.873-143.988 144h-0.012zM80 672v16c0 114.875 93.125 208 208 208s208-93.125 208-208v0-16h-9.44l-63.2 63.36c-14.439 14.525-34.432 23.514-56.525 23.514-9.087 0-17.819-1.521-25.955-4.322l0.56 0.168-248-82.72zM112 560v84.48l239.52 79.84c4.523 1.563 9.736 2.465 15.159 2.465 13.277 0 25.29-5.408 33.958-14.142l0.003-0.003 63.36-63.2v-89.44c0-97.202-78.798-176-176-176s-176 78.798-176 176v0zM365.76 352l-29.76-35.84v35.84zM304 352v-204.16l-16-32-16 32v204.16zM240 352v-35.84l-29.76 35.84zM512 0h-64v208h-32v-208h-256v208h-32v-208h-64v240c0.122 59.257 46.184 107.716 104.456 111.661l0.344 0.019 71.2-85.44v-122.24c0.016-2.631 0.665-5.107 1.802-7.289l-0.042 0.089 32-64c2.71-5.209 8.067-8.705 14.24-8.705s11.53 3.496 14.198 8.616l0.042 0.089 32 64c1.095 2.093 1.744 4.569 1.76 7.195v122.245l71.2 85.44c58.616-3.964 104.678-52.423 104.8-111.668v-0.012zM192 640h32v-64h-32v64zM352 640h32v-64h-32v64zM944 928h-320c-26.477-0.082-47.918-21.523-48-47.992v-608.008c0.082-26.477 21.523-47.918 47.992-48h52.168l31.52-105.44c-11.985-8.807-19.677-22.849-19.677-38.688 0-26.439 21.433-47.872 47.872-47.872 0.044 0 0.088 0 0.132 0h95.993c0.037 0 0.081 0 0.125 0 26.439 0 47.872 21.433 47.872 47.872 0 15.839-7.692 29.881-19.544 38.595l-0.133 0.093 31.52 105.44h52.16c26.477 0.082 47.918 21.523 48 47.992v608.008c-0.082 26.477-21.523 47.918-47.992 48h-0.008zM832 64h-96c-8.837 0-16 7.163-16 16s7.163 16 16 16v0h96c8.837 0 16-7.163 16-16s-7.163-16-16-16v0zM829.6 128h-91.2l-32.8 108.8 62.4 83.2v-34.88c-18.803-6.788-32-24.48-32-45.255 0-26.51 21.49-48 48-48s48 21.49 48 48c0 20.774-13.197 38.466-31.666 45.149l-0.334 0.106v34.88l62.4-83.2zM784 256c8.837 0 16-7.163 16-16s-7.163-16-16-16c-8.837 0-16 7.163-16 16v0c0 8.837 7.163 16 16 16v0zM960 272c0-8.837-7.163-16-16-16v0h-56l-91.2 121.6c-3.077 3.677-7.667 5.998-12.8 5.998s-9.723-2.322-12.779-5.972l-0.021-0.026-91.2-121.6h-56c-8.837 0-16 7.163-16 16v0 608c0 8.837 7.163 16 16 16v0h320c8.837 0 16-7.163 16-16v0zM912 864h-64v-32h48v-48h32v64c0 8.837-7.163 16-16 16v0zM896 752h32v-32h-32v32zM814.080 768h-32c0-0.055 0-0.12 0-0.185 0-9.796-4.043-18.647-10.552-24.975l-0.008-0.008c-10.912-11.845-17.602-27.725-17.602-45.168s6.69-33.323 17.645-45.215l-0.042 0.047c6.524-6.412 10.567-15.33 10.567-25.192s-4.043-18.78-10.562-25.187l-0.005-0.005c-10.902-11.867-17.584-27.761-17.584-45.216s6.682-33.349 17.628-45.264l-0.044 0.048c6.529-6.425 10.574-15.356 10.574-25.232s-4.045-18.807-10.569-25.227l-0.005-0.005c-10.905-11.658-17.602-27.37-17.602-44.648 0-0.2 0.001-0.399 0.003-0.599v0.030h32c0 0.057-0.001 0.125-0.001 0.193 0 9.816 4.049 18.686 10.569 25.032l0.008 0.008c10.902 11.867 17.584 27.761 17.584 45.216s-6.682 33.349-17.628 45.264l0.044-0.048c-6.529 6.425-10.574 15.356-10.574 25.232s4.045 18.807 10.569 25.227l0.005 0.005c10.907 11.853 17.594 27.737 17.594 45.184s-6.687 33.331-17.637 45.231l0.043-0.047c-6.537 6.396-10.591 15.309-10.591 25.168s4.053 18.772 10.584 25.162l0.006 0.006c10.895 11.628 17.587 27.31 17.587 44.555 0 0.215-0.001 0.431-0.003 0.646v-0.033z" />
<glyph unicode="&#xe91a;" glyph-name="check" d="M512 793.302c-190.4 0-345.302-154.902-345.302-345.302s154.902-345.302 345.302-345.302 345.302 154.902 345.302 345.302-154.902 345.302-345.302 345.302zM673.75 523.776l-202.070-202.070c-13.936-13.94-36.572-13.95-50.516 0l-70.914 70.916c-13.95 13.95-13.95 36.566 0 50.516s36.568 13.95 50.516 0l45.656-45.656 176.81 176.81c13.948 13.948 36.566 13.948 50.516 0 13.952-13.948 13.952-36.566 0.002-50.516zM512 960c-282.982 0-512-228.992-512-512 0-282.982 228.992-512 512-512 282.982 0 512 228.992 512 512 0 282.982-228.992 512-512 512zM512 31.256c-229.792 0-416.744 186.952-416.744 416.744s186.952 416.744 416.744 416.744 416.744-186.952 416.744-416.744-186.952-416.744-416.744-416.744z" />
<glyph unicode="&#xe91b;" glyph-name="down-arrow" d="M512 256c-8.184 0-16.376 3.128-22.624 9.376l-320 320c-12.504 12.504-12.504 32.752 0 45.248s32.752 12.504 45.248 0l297.376-297.376 297.376 297.376c12.504 12.504 32.752 12.504 45.248 0s12.504-32.752 0-45.248l-320-320c-6.248-6.248-14.44-9.376-22.624-9.376z" />
<glyph unicode="&#xe91c;" glyph-name="log-out" d="M950.4 293.6c-24.8 12-54.8 1.4-66.8-23.4-33.2-69-84.8-127.4-149.4-169-66.2-42.6-143-65.2-222.2-65.2-227.2 0-412 184.8-412 412s184.8 412 412 412c79.2 0 156-22.6 222.4-65 64.6-41.4 116.2-100 149.4-169 12-24.8 41.8-35.4 66.8-23.4 24.8 12 35.4 41.8 23.4 66.8-41.2 85.8-105.2 158.4-185.6 209.8-82.4 52.8-178 80.8-276.4 80.8-136.8 0-265.4-53.2-362-150-96.8-96.6-150-225.2-150-362s53.2-265.4 150-362c96.8-96.8 225.2-150 362-150 98.4 0 194 28 276.4 81 80.2 51.6 144.4 124.2 185.6 209.8 11.8 25 1.4 54.8-23.6 66.8zM538.6 253.4c9.8-9.8 22.6-14.6 35.4-14.6s25.6 4.8 35.4 14.6l125.8 125.8c18.4 18.4 28.4 42.8 28.4 68.6s-10.2 50.4-28.4 68.6l-125.8 125.8c-19.6 19.6-51.2 19.6-70.8 0s-19.6-51.2 0-70.8l73.8-73.8h-284.2c-27.6 0-50-22.4-50-50s22.4-50 50-50h284.4l-73.8-73.8c-19.6-19.2-19.6-50.8-0.2-70.4z" />
<glyph unicode="&#xe91d;" glyph-name="add" d="M520-32c-17.6 0-32 14.4-32 32v880c0 17.6 14.4 32 32 32s32-14.4 32-32v-880c0-17.6-14.4-32-32-32zM960 408h-880c-17.6 0-32 14.4-32 32s14.4 32 32 32h880c17.6 0 32-14.4 32-32s-14.4-32-32-32z" />
<glyph unicode="&#xe91e;" glyph-name="add-1" d="M1007.484 464.516h-478.968v478.968c0 9.121-7.395 16.516-16.516 16.516s-16.516-7.395-16.516-16.516v-478.968h-478.968c-9.121 0-16.516-7.395-16.516-16.516s7.395-16.516 16.516-16.516h478.968v-478.968c0-9.121 7.395-16.516 16.516-16.516s16.516 7.395 16.516 16.516v478.968h478.968c9.121 0 16.516 7.395 16.516 16.516s-7.395 16.516-16.516 16.516z" />
<glyph unicode="&#xe91f;" glyph-name="remove" d="M981.332 490.668h-938.665c-23.565 0-42.668-19.103-42.668-42.668s19.102-42.668 42.668-42.668h938.668c23.565 0 42.668 19.102 42.668 42.668s-19.105 42.668-42.67 42.668z" />
</font>
</defs>
</svg>
