<?xml version="1.0" standalone="no"?>
<!DOCTYPE svg PUBLIC "-//W3C//DTD SVG 1.1//EN" "http://www.w3.org/Graphics/SVG/1.1/DTD/svg11.dtd" >
<svg xmlns="http://www.w3.org/2000/svg">
<metadata>Generated by IcoMoon</metadata>
<defs>
<font id="icomoon" horiz-adv-x="1024">
<font-face units-per-em="1024" ascent="960" descent="-64" />
<missing-glyph horiz-adv-x="1024" />
<glyph unicode="&#x20;" horiz-adv-x="512" d="" />
<glyph unicode="&#xe900;" glyph-name="car" d="M1016.893 583.673c-2.434 7.086-11.061 12.597-18.264 12.597-31.191 0-62.377 0-93.568 0-7.2 0-15.83-5.511-18.267-12.597-2.382-6.936-4.162-13.124-5.345-18.944l-62.502 172.915c-10.309 28.513-37.61 47.67-67.927 47.67h-478.033c-30.319 0-57.616-19.157-67.93-47.675l-62.504-172.93c-1.186 5.825-2.966 12.021-5.35 18.965-2.434 7.086-11.064 12.597-18.264 12.597-31.189 0-62.377 0-93.568 0-7.2 0-15.83-5.511-18.264-12.597-9.476-27.59-9.471-43.384 0.003-70.976 2.434-7.086 11.064-12.597 18.264-12.597 31.191 0 62.38 0 93.568 0 0.088 0 0.182 0.023 0.272 0.026l-1.412-3.91c-19.079-6.339-32.854-24.3-32.854-45.509v-316.96c0-12.737 10.322-23.059 23.059-23.059h116.054c12.735 0 23.059 10.322 23.059 23.059v112.253h529.763v-112.253c0-12.737 10.324-23.059 23.059-23.059h116.054c12.737 0 23.059 10.322 23.059 23.059v316.96c0 21.204-13.77 39.162-32.841 45.506l-1.414 3.913c0.086-0.003 0.176-0.023 0.262-0.023 31.191 0 62.377 0 93.568 0 7.203 0 15.83 5.511 18.264 12.597 9.473 27.59 9.468 43.384-0.003 70.973zM281.817 700.456h460.308l72.932-201.77h-606.17l72.93 201.77zM294.656 356.544h-97.089c-20.83 0-37.714 16.884-37.714 37.714 0 20.828 16.881 37.714 37.714 37.714h97.089c20.828 0 37.714-16.884 37.714-37.714 0.003-20.83-16.886-37.714-37.714-37.714zM826.43 356.544h-97.089c-20.828 0-37.714 16.884-37.714 37.714 0 20.828 16.886 37.714 37.714 37.714h97.089c20.83 0 37.714-16.884 37.714-37.714s-16.884-37.714-37.714-37.714z" />
<glyph unicode="&#xe901;" glyph-name="cart" d="M823.844 166.9h-366.19c-52.806 0-99.629 34.171-113.919 83.125l-123.772 413.653c-4.397 14.978-19.014 25.258-35.707 25.258h-96.982c-22.515 0-40.715 17.99-40.715 40.157s18.2 40.156 40.715 40.156h96.982c52.807 0 99.588-34.173 113.879-83.125l23.166-77.502h622.731c25.407 0 49.507-11.927 64.452-31.925 14.818-19.838 19.095-44.655 11.722-68.106l-83.992-262.946c-16.45-47.465-61.518-78.746-112.369-78.746zM494.42-33.876c-44.908 0-81.429 36.021-81.429 80.312s36.521 80.312 81.429 80.312c44.908 0 81.43-36.021 81.43-80.312s-36.521-80.312-81.43-80.312zM779.421-33.876c-44.905 0-81.426 36.021-81.426 80.312s36.521 80.312 81.426 80.312c44.911 0 81.432-36.021 81.432-80.312s-36.521-80.312-81.432-80.312z" />
<glyph unicode="&#xe902;" glyph-name="check-mark" d="M327.402 601.611l-71.68-71.68 256-256 511.999 512-71.68 71.68-440.319-440.321-184.32 184.321zM460.522 89.606c-199.68 0-358.4 158.72-358.4 358.4s158.72 358.4 358.4 358.4c61.44 0 122.879-15.36 179.199-46.080l51.2 87.040c-71.68 40.96-148.479 61.44-230.399 61.44-256 0-460.8-204.8-460.8-460.8s204.8-460.8 460.8-460.8c255.999 0 460.799 204.8 460.799 460.8h-102.4c0-199.68-158.72-358.4-358.399-358.4z" />
<glyph unicode="&#xe903;" glyph-name="clock" d="M512 917.333c-259.206 0-469.333-210.128-469.333-469.333s210.128-469.333 469.333-469.333c259.206 0 469.333 210.128 469.333 469.333v0c-0.315 259.079-210.255 469.018-469.303 469.333h-0.030zM670.165 289.835c-7.721-7.718-18.386-12.492-30.165-12.492s-22.445 4.774-30.165 12.492l-128 128c-7.722 7.719-12.499 18.384-12.501 30.165v256.001c0 23.564 19.103 42.667 42.667 42.667s42.667-19.103 42.667-42.667v0-238.336l115.499-115.499c7.718-7.721 12.492-18.386 12.492-30.165s-4.774-22.445-12.492-30.165v0z" />
<glyph unicode="&#xe904;" glyph-name="customer" d="M512 546c95.944 0 174 78.056 174 174s-78.056 174-174 174-174-78.056-174-174 78.056-174 174-174zM512 834c62.86 0 114-51.14 114-114s-51.14-114-114-114-114 51.14-114 114 51.14 114 114 114zM864 546c60.654 0 110 49.346 110 110s-49.346 110-110 110-110-49.346-110-110 49.346-110 110-110zM864 706c27.57 0 50-22.43 50-50s-22.43-50-50-50-50 22.43-50 50 22.43 50 50 50zM888.2 478h-46.4c-54.678 0-101.878-32.304-123.386-78.704-44.282 48.34-107.888 78.704-178.456 78.704h-55.914c-70.568 0-134.174-30.364-178.456-78.704-21.51 46.4-68.71 78.704-123.388 78.704h-46.4c-74.88 0-135.8-60.552-135.8-134.98v-218.42c0-32.312 26.388-58.6 58.824-58.6h183.454c3.076-35.8 33.18-64 69.766-64h399.914c36.584 0 66.688 28.2 69.766 64h181.358c33.592 0 60.92 27.22 60.92 60.68v216.34c-0.002 74.428-60.922 134.98-135.802 134.98zM60 343.020c0 41.344 34.004 74.98 75.8 74.98h46.4c41.796 0 75.8-33.636 75.8-74.98v-20.542c-20.174-52.528-16-84.008-16-196.478h-182zM722 72.042c0-5.538-4.504-10.042-10.042-10.042h-399.916c-5.538 0-10.042 4.506-10.042 10.042v163.914c0 100.38 81.664 182.044 182.042 182.044h55.914c100.38 0 182.044-81.664 182.044-182.042zM964 126.68c0-1.034 11.184-0.68-182-0.68 0 113.302 4.142 144.036-16 196.478v20.542c0 41.344 34.004 74.98 75.8 74.98h46.4c41.796 0 75.8-33.636 75.8-74.98zM160 546c60.654 0 110 49.346 110 110s-49.346 110-110 110-110-49.346-110-110 49.346-110 110-110zM160 706c27.57 0 50-22.43 50-50s-22.43-50-50-50-50 22.43-50 50 22.43 50 50 50z" />
<glyph unicode="&#xe905;" glyph-name="double-right-arrow" d="M61.778 857.586c-12.108 0.266-23.997-3.244-34.016-10.047s-17.669-16.564-21.887-27.916c-4.218-11.352-4.794-23.735-1.648-35.43s9.857-22.114 19.201-29.818l356.529-305.433-356.529-305.323c-6.464-4.751-11.877-10.786-15.901-17.722-4.024-6.943-6.571-14.636-7.483-22.61-0.912-7.967-0.168-16.043 2.184-23.709s6.263-14.773 11.487-20.862c5.224-6.083 11.648-11.025 18.871-14.513s15.088-5.448 23.104-5.762c8.016-0.307 16.009 1.038 23.479 3.959s14.257 7.359 19.934 13.025l408.193 349.25c6.41 5.47 11.558 12.26 15.087 19.912s5.358 15.981 5.358 24.409c0 8.427-1.828 16.756-5.358 24.408s-8.677 14.449-15.087 19.919l-408.193 349.586c-10.312 9.159-23.538 14.353-37.325 14.677zM539.645 857.586c-12.108 0.266-23.997-3.244-34.016-10.047s-17.669-16.564-21.887-27.916c-4.218-11.352-4.794-23.735-1.649-35.43s9.858-22.114 19.201-29.818l356.531-305.433-356.531-305.323c-6.463-4.751-11.877-10.786-15.901-17.722-4.024-6.943-6.571-14.636-7.483-22.61-0.912-7.967-0.168-16.043 2.184-23.709s6.263-14.773 11.487-20.862c5.224-6.083 11.648-11.025 18.872-14.513s15.088-5.448 23.104-5.762c8.016-0.307 16.009 1.038 23.479 3.959s14.257 7.359 19.934 13.025l408.193 349.25c6.41 5.47 11.558 12.26 15.087 19.912s5.359 15.981 5.359 24.409c0 8.427-1.83 16.756-5.359 24.408s-8.677 14.449-15.087 19.919l-408.193 349.586c-10.312 9.159-23.538 14.353-37.325 14.677z" />
<glyph unicode="&#xe906;" glyph-name="down" d="M512 277.333c-0.073 0-0.16-0.001-0.247-0.001-11.721 0-22.338 4.726-30.049 12.377l-255.997 255.997c-7.753 7.753-12.548 18.463-12.548 30.293 0 23.661 19.181 42.841 42.841 42.841 11.83 0 22.541-4.795 30.293-12.548v0l225.707-226.133 225.707 225.707c7.412 6.377 17.129 10.259 27.753 10.259 23.564 0 42.667-19.103 42.667-42.667 0-10.624-3.883-20.341-10.307-27.809l0.047 0.056-256-256c-7.667-7.606-18.211-12.323-29.857-12.373h-0.010z" />
<glyph unicode="&#xe907;" glyph-name="down-1" d="M704 608c0 159.058-128.942 288-288 288s-288-128.942-288-288c0-159.058 128.942-288 288-288v0c159.058 0 288 128.942 288 288v0zM416 384c-123.712 0-224 100.288-224 224s100.288 224 224 224c123.712 0 224-100.288 224-224v0c0-123.712-100.288-224-224-224v0zM502.72 694.72c-5.8 5.846-13.837 9.466-22.72 9.466s-16.92-3.619-22.718-9.463l-128.002-128.002c-5.846-5.8-9.466-13.837-9.466-22.72s3.619-16.92 9.463-22.718l0.002-0.002c5.8-5.846 13.837-9.466 22.72-9.466s16.92 3.619 22.718 9.463l128.002 128.002c5.846 5.8 9.466 13.837 9.466 22.72s-3.619 16.92-9.463 22.718l-0.002 0.002zM352 672c0 17.673-14.327 32-32 32v0c-17.673 0-32-14.327-32-32s14.327-32 32-32c17.673 0 32 14.327 32 32v0zM512 576c-17.673 0-32-14.327-32-32s14.327-32 32-32c17.673 0 32 14.327 32 32v0c0 17.673-14.327 32-32 32v0zM893.12 237.44c-5.202 11.049-16.244 18.56-29.041 18.56-0.028 0-0.056 0-0.084 0h-63.996v256c0 17.673-14.327 32-32 32s-32-14.327-32-32v0-288c0-17.673 14.327-32 32-32v0h27.52l-91.52-110.080-91.52 110.080h27.52c17.673 0 32 14.327 32 32v0 96c0 17.673-14.327 32-32 32s-32-14.327-32-32v0-64h-64c-0.015 0-0.034 0-0.052 0-17.673 0-32-14.327-32-32 0-7.814 2.801-14.974 7.453-20.53l-0.041 0.050 160-192c5.912-7.098 14.752-11.583 24.64-11.583s18.728 4.485 24.598 11.531l0.042 0.052 160 192c4.622 5.51 7.43 12.678 7.43 20.501 0 4.869-1.087 9.483-3.032 13.614l0.083-0.195z" />
<glyph unicode="&#xe908;" glyph-name="graduation" d="M541.664 793.952l389.024-226.048c15.136-8.8 15.136-30.624 0-39.424l-389.024-226.048c-23.904-13.888-53.408-13.888-77.28 0l-389.024 226.048c-15.136 8.8-15.136 30.624 0 39.424l389.024 226.048c23.872 13.856 53.376 13.856 77.28 0zM930.56 528.32l-388.8-225.92c-24-13.76-53.44-13.76-77.44 0l-389.12 225.92c-15.040 8.96-15.040 30.72 0 39.68l389.12 225.92c24 13.76 53.44 13.76 77.44 0l388.8-225.92c15.36-8.96 15.36-30.72 0-39.68zM565.888 260.896c-19.296-11.040-40.928-16.832-62.848-16.832s-43.552 5.792-62.592 16.672l-232.768 135.264v-120.16c0-26.88 14.080-51.52 37.44-64.96l162.24-93.76c59.2-33.92 132.16-33.92 191.040 0l162.56 93.76c23.040 13.44 37.44 38.080 37.44 64.96v120.16zM937.6 233.376v243.52l-57.632-33.472v-210.016c-13.536-9.216-22.432-24.736-22.432-42.336 0-28.288 22.944-51.232 51.232-51.232s51.232 22.912 51.232 51.2c0 17.6-8.896 33.088-22.4 42.336z" />
<glyph unicode="&#xe909;" glyph-name="grid" d="M372.364 811.055c0-56.554-45.846-102.4-102.4-102.4s-102.4 45.846-102.4 102.4c0 56.554 45.846 102.4 102.4 102.4s102.4-45.846 102.4-102.4zM856.436 811.055c0-56.554-45.846-102.4-102.4-102.4s-102.4 45.846-102.4 102.4c0 56.554 45.846 102.4 102.4 102.4s102.4-45.846 102.4-102.4zM614.4 811.055c0-56.554-45.846-102.4-102.4-102.4s-102.4 45.846-102.4 102.4c0 56.554 45.846 102.4 102.4 102.4s102.4-45.846 102.4-102.4zM372.364 569.018c0-56.554-45.846-102.4-102.4-102.4s-102.4 45.846-102.4 102.4c0 56.554 45.846 102.4 102.4 102.4s102.4-45.846 102.4-102.4zM856.436 569.018c0-56.554-45.846-102.4-102.4-102.4s-102.4 45.846-102.4 102.4c0 56.554 45.846 102.4 102.4 102.4s102.4-45.846 102.4-102.4zM614.4 569.018c0-56.554-45.846-102.4-102.4-102.4s-102.4 45.846-102.4 102.4c0 56.554 45.846 102.4 102.4 102.4s102.4-45.846 102.4-102.4zM372.364 326.982c0-56.554-45.846-102.4-102.4-102.4s-102.4 45.846-102.4 102.4c0 56.554 45.846 102.4 102.4 102.4s102.4-45.846 102.4-102.4zM856.436 326.982c0-56.554-45.846-102.4-102.4-102.4s-102.4 45.846-102.4 102.4c0 56.554 45.846 102.4 102.4 102.4s102.4-45.846 102.4-102.4zM614.4 326.982c0-56.554-45.846-102.4-102.4-102.4s-102.4 45.846-102.4 102.4c0 56.554 45.846 102.4 102.4 102.4s102.4-45.846 102.4-102.4zM614.4 84.945c0-56.554-45.846-102.4-102.4-102.4s-102.4 45.846-102.4 102.4c0 56.554 45.846 102.4 102.4 102.4s102.4-45.846 102.4-102.4z" />
<glyph unicode="&#xe90a;" glyph-name="headset" d="M355.113 673.137l36.198-36.198c66.673 66.662 174.715 66.662 241.357 0l36.229 36.198c-86.671 86.661-227.113 86.661-313.784 0zM853.33 516.27c0 188.529-152.76 341.33-341.33 341.33-188.518 0-341.33-152.801-341.33-341.33-37.704 0-68.27-30.566-68.27-68.27v-204.8c0-37.704 30.566-68.27 68.27-68.27h102.4c18.852 0 34.13 15.268 34.13 34.14v170.66c0 18.77-8.52 46.94-18.934 62.536l-49.326 73.994c0 150.835 122.245 273.070 273.070 273.070 150.866 0 273.070-122.235 273.070-273.070l-49.336-73.994c-10.414-15.596-18.944-43.766-18.944-62.536v-180.204c-50.033-56.832-123.126-92.856-204.8-92.856h-68.27v-68.27h68.27c111.596 0 210.33 53.77 272.599 136.53h68.731c37.704 0 68.27 30.566 68.27 68.27v204.8c0 37.704-30.566 68.27-68.27 68.27z" />
<glyph unicode="&#xe90b;" glyph-name="home" d="M996.391 514.609c-0.023 0.023-0.047 0.047-0.070 0.070l-417.711 417.695c-17.805 17.813-41.477 27.625-66.656 27.625s-48.852-9.805-66.664-27.617l-417.492-417.484c-0.141-0.141-0.281-0.289-0.422-0.43-36.563-36.773-36.5-96.438 0.18-133.117 16.758-16.766 38.891-26.477 62.555-27.492 0.961-0.094 1.93-0.141 2.906-0.141h16.648v-307.398c0-60.828 49.492-110.32 110.336-110.32h163.422c16.563 0 30 13.43 30 30v241c0 27.758 22.578 50.336 50.336 50.336h96.391c27.758 0 50.336-22.578 50.336-50.336v-241c0-16.57 13.43-30 30-30h163.422c60.844 0 110.336 49.492 110.336 110.32v307.398h15.438c25.172 0 48.844 9.805 66.664 27.617 36.719 36.742 36.734 96.508 0.047 133.273z" />
<glyph unicode="&#xe90c;" glyph-name="loan" d="M593.606 331.788c171.826 0 311.616 140.908 311.616 314.105s-139.791 314.107-311.616 314.107-311.616-140.908-311.616-314.105 139.791-314.107 311.616-314.107zM493.474 547.878c9.065 13.856 27.648 17.745 41.503 8.677 20.192-13.206 27.807-14.423 54.45-14.238 26.005 0.172 41.094 19.554 44.108 37.492 1.467 8.725 2.029 30.030-24.375 39.365-30.972 10.949-62.669 23.464-84.72 40.76s-32.149 47.154-26.35 77.918c6.286 33.35 29.55 59.898 60.716 69.285 0.282 0.084 0.558 0.152 0.839 0.236v11.365c0 16.558 13.424 29.982 29.982 29.982s29.982-13.424 29.982-29.982v-9.476c20.364-4.861 34.585-14.178 40.36-18.493 13.262-9.916 15.976-28.703 6.062-41.967s-28.701-15.978-41.965-6.060c-6.144 4.593-23.124 14.467-47.967 6.982-14.513-4.373-18.277-18.693-19.085-22.976-1.585-8.417 0.194-16.306 4.431-19.628 15.285-11.989 42.801-22.605 67.698-31.405 45.911-16.228 71.439-58.763 63.526-105.843-3.884-23.1-15.505-44.531-32.725-60.352-11.729-10.778-25.381-18.461-40.336-22.848v-13.614c0-16.558-13.424-29.982-29.982-29.982s-29.982 13.424-29.982 29.982v10.624c-19.386 2.351-35.661 8.413-57.496 22.696-13.854 9.065-17.739 27.648-8.675 41.503zM113.642 231.046h-68.363c-16.558 0-29.982-13.424-29.982-29.982v-235.040c0-16.558 13.424-29.982 29.982-29.982h68.365v295.004zM999.91 233.139c-56.195 56.197-147.634 56.199-203.827 0l-126.627-126.625c-14.877-14.877-35.057-23.236-56.097-23.236h-179.001c-16.166 0-30.078 12.425-30.84 28.573-0.812 17.242 12.926 31.475 29.99 31.475h181.944c36.582 0 68.311 26.044 74.6 62.081 1.445 8.275 2.199 16.784 2.199 25.467 0.002 16.588-13.438 30.048-30.024 30.048h-99.695c-32.581 0-63.868 14.779-96.994 30.43-34.745 16.412-70.672 33.384-112.681 36.178-36.742 2.449-73.568-1.575-109.461-11.939-38.431-11.097-66.057-45.241-69.407-84.662-0.128 0.010-0.258 0.012-0.388 0.020v-294.806l516.546-0.142c35.515 0 68.907 13.832 94.024 38.947l215.731 215.731c11.731 11.721 11.731 30.734 0.006 42.459z" />
<glyph unicode="&#xe90d;" glyph-name="loan-1" d="M511.962 960c-159.906 0-290-130.094-290-290s130.094-290 290-290 290 130.094 290 290-130.094 290-290 290zM541.962 525.16v-35.16h-60v32.462l-42.562 3.648 5.126 59.782 65.826-5.642c2.218-0.19 4.104-0.188 5.604 0.010 14.824 1.95 26.008 14.736 26.008 29.742 0 16.542-13.458 30-30 30-49.626 0-90 40.374-90 90 0 20.108 6.49 39.13 18.768 55.012 10.64 13.764 25.072 23.798 41.232 29.364v35.622h60v-33.982l44.242-6.32-8.484-59.396-61.326 8.76c-11.042 1.578-21.85-2.54-28.194-10.746-4.082-5.278-6.238-11.612-6.238-18.316 0-16.542 13.458-30 30-30 49.626 0 90-40.374 90-90-0.002-38.638-24.786-72.356-60.002-84.84zM1004.798 411.352c-26.686 27.726-71.74 27.208-98.95-0.004l-141.796-141.796c-5.698-5.7-10.118-12.52-13.198-19.966-19.312-46.684-65.34-79.614-118.92-79.614h-200.13v60h200.132c37.902 0 68.628 30.726 68.628 68.628 0 24.59-12.942 46.148-32.378 58.266-47.054-23.572-100.112-36.866-156.224-36.866-95.114 0-181.47 38.154-244.616 99.938-40.542-4.354-79.538-22.196-109.884-52.542l-157.424-157.5 273.896-273.896c48.336 48.336 113.894 75.49 182.25 75.49h159.928c54.794 0 107.328 21.842 145.968 60.69l241.78 243.072c26.486 26.484 26.798 69.232 0.938 96.1z" />
<glyph unicode="&#xe90e;" glyph-name="low-price" d="M852.802 301.766c3.58-4.216 10.084-4.216 13.662-0.002l123.38 145.316c4.952 5.832 0.82 14.762-6.83 14.762h-57.464v278.216c0 9.87-8.052 17.922-17.924 17.922h-95.984c-9.872 0-17.924-8.050-17.924-17.922v-278.214h-57.464c-7.652 0-11.784-8.93-6.832-14.762l123.38-145.316zM512 759.496c99.596 0 180.336-80.74 180.336-180.338s-80.74-180.338-180.336-180.338c-99.598 0-180.338 80.74-180.338 180.338s80.74 180.338 180.338 180.338zM567.292 627.18c-7.86 18.72-22.828 29.536-39.284 33.708l-0.008 0.002v5.41c0 8.836-7.164 16-16 16s-16-7.164-16-16v-5.632c-23.272-6.094-40.742-24.748-39.522-49.868 1.454-29.954 26.858-42.588 53.084-46.894 10.918-1.792 28.87-5.452 30.496-18.856 0.108-0.896 0.164-1.446 0.17-1.662 0.252-10.562-13.834-14.558-22.136-15.566-1.894-0.23-3.454-0.358-4.67-0.386-12.606-0.302-26.768 5.128-30.102 18.496-2.106 8.56-10.752 13.792-19.312 11.688-8.56-2.106-13.792-10.752-11.688-19.312 5.402-21.662 22.456-36.008 43.676-40.914v-5.372c0-8.836 7.164-16 16-16s16 7.164 16 16v5.050c23.8 4.838 44.734 20.646 44.104 47.068-0.044 1.838-0.142 3.398-0.294 4.662-3.718 30.628-30.068 42.164-57.122 46.606-9.348 1.534-25.758 4.996-26.334 16.894-0.498 10.258 8.46 16.132 17.476 17.946 13.082 2.634 26.576-2.616 31.962-15.442 3.416-8.146 12.792-11.98 20.938-8.562 8.148 3.416 11.982 12.79 8.566 20.936zM512 732.866c-84.886 0-153.706-68.82-153.706-153.706s68.82-153.706 153.706-153.706 153.706 68.82 153.706 153.706-68.818 153.706-153.706 153.706zM512 700.866c-67.22 0-121.706-54.486-121.706-121.706s54.486-121.706 121.706-121.706 121.706 54.486 121.706 121.706c0 67.218-54.486 121.706-121.706 121.706zM500.298 59.954c6.132-7.222 17.272-7.222 23.404 0l211.354 248.93c8.482 9.992 1.404 25.288-11.702 25.288h-98.438v65.148c-32.708-20.58-71.418-32.496-112.916-32.496-41.496 0-80.206 11.916-112.914 32.494v-65.146h-98.438c-13.106 0-20.184-15.296-11.702-25.288zM399.086 759.002c32.708 20.58 71.416 32.494 112.914 32.494s80.208-11.916 112.916-32.496v51.76c0 16.91-13.792 30.702-30.704 30.702h-164.422c-16.91 0-30.704-13.792-30.704-30.702zM157.536 301.766l-123.38 145.316c-4.952 5.832-0.82 14.762 6.832 14.762h57.464v278.214c0 9.872 8.052 17.922 17.924 17.922h95.984c9.872 0 17.922-8.052 17.922-17.922v-278.216h57.464c7.65 0 11.782-8.93 6.83-14.762l-123.38-145.316c-3.578-4.214-10.082-4.214-13.66 0.002z" />
<glyph unicode="&#xe90f;" glyph-name="mail" d="M125.686 763.272l276.64-276.76c60.336-60.22 158.964-60.272 219.35 0l276.64 276.76c2.786 2.786 2.38 7.374-0.852 9.628-28.216 19.678-62.546 31.344-99.526 31.344h-571.872c-36.982 0-71.312-11.668-99.528-31.344-3.232-2.254-3.638-6.842-0.852-9.628zM51.758 629.938c0 29.080 7.21 56.556 19.91 80.706 1.986 3.778 7.020 4.542 10.038 1.524l273.138-273.138c86.494-86.62 227.77-86.67 314.316 0l273.138 273.138c3.018 3.018 8.052 2.254 10.038-1.524 12.698-24.15 19.91-51.628 19.91-80.706v-363.874c0-96.186-78.242-174.308-174.308-174.308h-571.872c-96.064 0-174.308 78.122-174.308 174.308z" />
<glyph unicode="&#xe910;" glyph-name="mail-1" d="M1014.98 756.558l-310.558-308.558 310.558-308.558c5.614 11.734 9.020 24.706 9.020 38.558v540c0 13.854-3.406 26.824-9.020 38.558zM934 808h-844c-13.854 0-26.824-3.406-38.558-9.020l396.926-394.926c35.096-35.096 92.168-35.096 127.264 0l396.926 394.926c-11.734 5.614-24.704 9.020-38.558 9.020zM9.020 756.558c-5.614-11.734-9.020-24.704-9.020-38.558v-540c0-13.854 3.406-26.826 9.020-38.558l310.558 308.558-310.558 308.558zM662 405.578l-43.946-43.946c-58.478-58.478-153.632-58.478-212.11 0l-43.944 43.946-310.558-308.558c11.734-5.614 24.704-9.020 38.558-9.020h844c13.854 0 26.824 3.406 38.558 9.020l-310.558 308.558z" />
<glyph unicode="&#xe911;" glyph-name="menu" d="M256 755.2c0 28.276 22.924 51.2 51.2 51.2h665.6c28.276 0 51.2-22.924 51.2-51.2s-22.924-51.2-51.2-51.2h-665.6c-28.276 0-51.2 22.926-51.2 51.2zM972.8 499.2h-921.6c-28.276 0-51.2-22.926-51.2-51.2 0-28.276 22.924-51.2 51.2-51.2h921.6c28.276 0 51.2 22.924 51.2 51.2 0 28.274-22.924 51.2-51.2 51.2zM972.8 192h-460.8c-28.274 0-51.2-22.924-51.2-51.2 0-28.274 22.926-51.2 51.2-51.2h460.8c28.276 0 51.2 22.926 51.2 51.2 0 28.276-22.924 51.2-51.2 51.2z" />
<glyph unicode="&#xe912;" glyph-name="money" d="M925.008 255.936l66.752 378.56c0.816 4.672-0.464 9.44-3.504 13.056-3.040 3.632-7.536 5.712-12.256 5.712h-856.832c-8.832 0-16-7.168-16-16s7.168-16 16-16h168.96l-63.44-359.776c-0.816-4.672 0.464-9.44 3.504-13.056 3.040-3.632 7.536-5.712 12.256-5.712h668.8c7.76 0 14.4 5.584 15.76 13.216zM259.52 274.72l61.104 346.56h636.304l-61.104-346.56zM915.504 533.28c-3.040 3.632-7.536 5.712-12.256 5.712-11.488 0-21.392 4.272-27.904 12.016-6.704 8-9.248 18.976-7.152 30.896 0.816 4.672-0.464 9.44-3.504 13.056-3.040 3.632-7.536 5.712-12.256 5.712h-440.224c-7.76 0-14.4-5.584-15.76-13.216-4.64-26.272-30.656-48.464-56.8-48.464-7.76 0-14.4-5.584-15.76-13.216l-26.448-150c-0.816-4.672 0.464-9.44 3.504-13.056 3.040-3.632 7.536-5.712 12.256-5.712 11.488 0 21.392-4.272 27.904-12.016 6.704-8 9.248-18.976 7.152-30.88-0.816-4.656 0.464-9.44 3.504-13.056 3.040-3.632 7.536-5.712 12.256-5.712h440.24c7.76 0 14.4 5.584 15.76 13.216 4.64 26.272 30.656 48.464 56.8 48.464 7.76 0 14.4 5.584 15.76 13.216l26.448 150c0.816 4.672-0.464 9.44-3.504 13.056zM863.168 387.856c-32.16-5.408-60.4-29.392-71.248-60.544h-411.12c-0.992 14.288-6.16 27.456-15.2 38.24-8.784 10.464-20.416 17.68-33.744 21.136l21.408 121.456c32.16 5.408 60.4 29.392 71.248 60.544h411.136c0.992-14.288 6.16-27.456 15.2-38.24 8.784-10.464 20.416-17.68 33.744-21.136l-21.408-121.456zM622.608 545.568c-52.384 0-102.496-42.528-111.712-94.8-4.72-26.768 1.536-52.048 17.6-71.184 15.776-18.8 38.992-29.168 65.36-29.168 52.384 0 102.496 42.528 111.712 94.784 4.72 26.768-1.536 52.048-17.584 71.184-15.776 18.8-38.992 29.168-65.36 29.168zM674.032 450.784c-6.656-37.68-42.624-68.352-80.192-68.352-16.736 0-31.248 6.304-40.848 17.728-9.872 11.76-13.648 27.776-10.592 45.056 6.656 37.68 42.624 68.352 80.208 68.352 16.736 0 31.248-6.304 40.848-17.728 9.872-11.776 13.632-27.776 10.592-45.056zM782.032 483.136c-8.72 1.504-16.992-4.288-18.528-12.992l-6.336-35.952c-1.536-8.688 4.288-16.992 12.992-18.528 0.944-0.16 1.872-0.24 2.784-0.24 7.632 0 14.368 5.456 15.744 13.232l6.336 35.952c1.536 8.688-4.288 16.992-12.992 18.528zM446.288 480.336c-8.688 1.552-16.992-4.272-18.528-12.992l-6.336-35.952c-1.536-8.688 4.288-16.992 12.992-18.528 0.944-0.16 1.872-0.24 2.784-0.24 7.632 0 14.368 5.456 15.744 13.232l6.336 35.952c1.536 8.688-4.288 16.992-12.992 18.528zM183.408 495.088c8.832 0 16 7.168 16 16s-7.168 16-16 16h-141.344c-8.832 0-16-7.168-16-16s7.168-16 16-16zM196.256 368.912c8.832 0 16 7.168 16 16s-7.168 16-16 16h-67.744c-8.832 0-16-7.168-16-16s7.168-16 16-16zM66.336 258.72c0-8.832 7.168-16 16-16h86.432c8.832 0 16 7.168 16 16s-7.168 16-16 16h-86.432c-8.832 0-16-7.168-16-16zM274.976 760.672c-8.832 0-16-7.168-16-16s7.168-16 16-16h183.376c8.832 0 16 7.168 16 16s-7.168 16-16 16zM485.344 135.328c8.832 0 16 7.168 16 16s-7.168 16-16 16h-196.816c-8.832 0-16-7.168-16-16s7.168-16 16-16zM599.104 135.328c8.832 0 16 7.168 16 16s-7.168 16-16 16h-24.896c-8.832 0-16-7.168-16-16s7.168-16 16-16z" />
<glyph unicode="&#xe913;" glyph-name="money-1" d="M590.736 545.974c15.57-5.666 32.784 2.362 38.452 17.93s-2.36 32.784-17.93 38.452-32.784-2.362-38.452-17.93c-5.666-15.57 2.362-32.786 17.93-38.452zM272.969 725.481c-15.57 5.666-32.784-2.36-38.452-17.93s2.36-32.786 17.93-38.452 32.784 2.362 38.452 17.93c5.668 15.57-2.36 32.786-17.93 38.452zM850.351 705.243c-99.548 79-223.923 126.006-356.119 129.617-114.176 3.12-227.983 45.252-320.457 118.638-7.542 5.986-17.494 7.986-26.76 5.384-9.268-2.604-16.722-9.496-20.044-18.53l-125.126-340.289c-4.468-12.154-0.636-25.802 9.508-33.852 100.846-80.030 228.027-126.062 358.119-129.617 3.598-0.098 7.19-0.236 10.78-0.406-73.852-21.298-143.961-56.688-206.603-106.4-10.1-8.014-13.948-21.584-9.562-33.706l123.126-340.289c3.286-9.078 10.736-16.020 20.024-18.654 9.25-2.624 19.246-0.662 26.836 5.362 92.472 73.384 206.281 115.518 320.459 118.638 130.089 3.554 257.271 49.586 358.117 129.617 10.16 8.062 13.988 21.742 9.488 33.906l-125.126 338.289c-3.336 9.018-10.792 15.892-20.052 18.484-9.26 2.59-19.202 0.584-26.732-5.392-11.048-8.768-22.444-17.074-34.136-24.92l43.808 120.362c4.412 12.134 0.568 25.732-9.548 33.758zM371.109 496.572c-109.93 3.004-217.495 39.63-305.301 103.592l103.662 281.909c96.084-66.292 209.365-104.082 323.125-107.19 108.7-2.97 215.593-39.616 303.365-103.63l-59.852-164.441c-55.998-25.12-116.202-40.766-177.485-45.8-60.306 21.828-123.35 33.808-187.513 35.56zM854.587 504.688l103.568-280.005c-87.794-63.938-195.355-100.562-305.263-103.564-113.694-3.106-226.905-40.85-322.953-107.068l-101.936 281.723c136.791 99.784 261.679 100.256 328.431 104.87 0.258 0.016 0.516 0.038 0.774 0.060 107.184 7.54 209.859 43.766 297.379 103.984zM462.636 720.299c-46.742 17.012-98.342-7.040-115.358-53.792-16.97-46.634 7.16-98.38 53.792-115.352 46.92-17.074 98.4 7.212 115.356 53.79 17.012 46.74-7.044 98.338-53.79 115.354zM460.042 625.467c-5.658-15.542-22.9-23.592-38.452-17.93-15.542 5.658-23.588 22.906-17.93 38.45 5.66 15.548 22.908 23.588 38.454 17.93 15.578-5.67 23.602-22.868 17.928-38.45zM412.742 226.901c-15.57-5.666-23.598-22.882-17.93-38.452s22.882-23.596 38.452-17.93 23.598 22.882 17.93 38.452c-5.668 15.568-22.884 23.596-38.452 17.93zM771.551 293.645c15.57 5.666 23.598 22.882 17.93 38.452s-22.882 23.598-38.452 17.93-23.598-22.882-17.93-38.452c5.666-15.568 22.882-23.596 38.452-17.93zM561.364 344.844c-46.742-17.012-70.806-68.608-53.792-115.354 17.014-46.74 68.606-70.806 115.354-53.792 46.632 16.972 70.764 68.72 53.792 115.354-16.972 46.636-68.726 70.764-115.354 53.792zM602.406 232.083c-15.538-5.658-32.792 2.386-38.45 17.93-5.674 15.578 2.344 32.778 17.93 38.452 15.542 5.658 32.792-2.386 38.452-17.93 5.658-15.546-2.388-32.794-17.932-38.452z" />
<glyph unicode="&#xe914;" glyph-name="money-2" d="M944 656c-8.214-0.143-17.903-0.224-27.611-0.224-142.296 0-280.519 17.444-412.645 50.309l11.724-2.468c-122.328 30.887-262.759 48.612-407.33 48.612-9.894 0-19.768-0.083-29.623-0.248l1.484 0.020c-0.001 0-0.003 0-0.004 0-8.834 0-15.996-7.162-15.996-15.996 0-0.001 0-0.003 0-0.004v0-480c0-0.001 0-0.003 0-0.004 0-8.834 7.162-15.996 15.996-15.996 0.001 0 0.003 0 0.004 0v0c8.214 0.143 17.903 0.224 27.611 0.224 142.296 0 280.518-17.444 412.645-50.309l-11.724 2.468c122.328-30.887 262.759-48.612 407.33-48.612 9.894 0 19.768 0.083 29.623 0.248l-1.484-0.020c0.001 0 0.003 0 0.004 0 8.834 0 15.996 7.162 15.996 15.996 0 0.001 0 0.003 0 0.004v0 480c0 0.001 0 0.003 0 0.004 0 8.834-7.162 15.996-15.996 15.996-0.001 0-0.003 0-0.004 0v0zM928 176.047c-4.201-0.038-9.168-0.059-14.139-0.059-141.404 0-278.752 17.367-410.026 50.084l11.635-2.454c-121.57 30.751-261.134 48.398-404.819 48.398-5.151 0-10.296-0.023-15.436-0.068l0.787 0.005v448c4.201 0.038 9.168 0.059 14.139 0.059 141.404 0 278.752-17.367 410.026-50.084l-11.635 2.454c121.57-30.751 261.134-48.398 404.82-48.398 5.15 0 10.294 0.023 15.433 0.068l-0.784-0.005zM160 670.695c-0.328-8.598-7.357-15.45-15.996-15.492h-0.004c-0.001 0-0.003 0-0.004 0-8.834 0-15.996-7.162-15.996-15.996 0-0.001 0-0.003 0-0.004v0-288c0-0.001 0-0.003 0-0.004 0-8.834 7.162-15.996 15.996-15.996 0.001 0 0.003 0 0.004 0v0c8.873-0.132 16.016-7.356 16.016-16.248 0-0.251-0.006-0.5-0.017-0.748l0.001 0.035c0.001-8.628 6.829-15.661 15.376-15.991l0.030-0.001c313.305-11.358 367.252-80.099 672.594-92.492 8.657 0.054 15.69 6.93 15.999 15.519l0.001 0.028c0.328 8.598 7.357 15.45 15.996 15.492h0.004c0.001 0 0.003 0 0.004 0 8.834 0 15.996 7.162 15.996 15.996 0 0.001 0 0.003 0 0.004v0 288c0 0.001 0 0.003 0 0.004 0 8.834-7.162 15.996-15.996 15.996-0.001 0-0.003 0-0.004 0v0c-8.833 0.009-15.991 7.167-16 15.999v0.001c0.016 0.265 0.025 0.576 0.025 0.888 0 8.652-6.834 15.708-15.399 16.065l-0.032 0.001c-313.232 11.37-366.726 79.918-671.953 92.476-0.173 0.007-0.375 0.010-0.579 0.010-8.69 0-15.768-6.897-16.061-15.515l-0.001-0.027zM188.656 653.68c111.087-5.062 215.903-20.707 316.885-46.020l-10.948 2.324c100.198-25.544 216.634-42.642 336.21-47.568l3.43-0.112c4.699-14.397 15.583-25.609 29.431-30.658l0.335-0.107v-261.531c-13.124-4.843-23.384-14.787-28.538-27.363l-0.118-0.325c-111.087 5.062-215.903 20.707-316.885 46.020l10.948-2.324c-100.198 25.544-216.634 42.642-336.21 47.568l-3.43 0.112c-4.699 14.397-15.583 25.609-29.431 30.658l-0.335 0.107v261.531c13.124 4.843 23.384 14.787 28.538 27.363l0.118 0.325zM512 324.797c68.043 0 123.203 55.16 123.203 123.203s-55.16 123.203-123.203 123.203c-68.043 0-123.203-55.16-123.203-123.203v0c0.077-68.012 55.191-123.126 123.196-123.203h0.007zM512 539.203c50.37 0 91.203-40.833 91.203-91.203s-40.833-91.203-91.203-91.203c-50.37 0-91.203 40.833-91.203 91.203v0c0.056 50.347 40.856 91.147 91.198 91.203h0.005z" />
<glyph unicode="&#xe915;" glyph-name="money-3" d="M683.326 788.674c-187.848 0-340.674-152.826-340.674-340.674s152.826-340.674 340.674-340.674 340.674 152.826 340.674 340.674-152.826 340.674-340.674 340.674zM683.326 167.326c-154.764 0-280.674 125.91-280.674 280.674s125.91 280.674 280.674 280.674 280.674-125.91 280.674-280.674-125.91-280.674-280.674-280.674zM71.162 649.204h187.438v-60h-187.438zM71.162 306.796h187.438v-60h-187.438zM0 478h258.6v-60h-258.6zM683.326 545.484c18.606 0 33.742-15.136 33.742-33.742h60c0 41.198-26.726 76.248-63.742 88.79v48.758h-60v-48.758c-37.016-12.542-63.742-47.592-63.742-88.79 0-51.69 42.052-93.742 93.742-93.742 18.606 0 33.742-15.136 33.742-33.742s-15.136-33.742-33.742-33.742-33.742 15.136-33.742 33.742h-60c0-41.198 26.726-76.248 63.742-88.79v-48.758h60v48.758c37.016 12.542 63.742 47.592 63.742 88.79 0 51.69-42.052 93.742-93.742 93.742-18.606 0-33.742 15.136-33.742 33.742s15.136 33.742 33.742 33.742z" />
<glyph unicode="&#xe916;" glyph-name="motorcycle" d="M511.62 373.32h0.76c42.449 0 76.86-34.411 76.86-76.86v-283.6c0-42.449-34.411-76.86-76.86-76.86h-0.76c-42.449 0-76.86 34.411-76.86 76.86v283.6c0 42.449 34.411 76.86 76.86 76.86zM822.24 873.3h-98.68c-7.88 15.34-23.82 25.86-42.26 25.86h-45.74c-14.94 0-28.82 7.18-38 18.98-19.82 25.48-50.78 41.88-85.56 41.88s-65.74-16.4-85.56-41.88c-9.18-11.8-23.040-18.98-38-18.98h-45.74c-18.44 0-34.38-10.52-42.26-25.86h-98.68c-11.96 0-21.66-9.7-21.66-21.66s9.7-21.66 21.66-21.66h98.68c7.88-15.34 23.82-25.86 42.26-25.86h45.74c14.94 0 28.82-7.18 38-18.98 19.82-25.48 50.78-41.88 85.56-41.88s65.74 16.4 85.56 41.88c9.18 11.8 23.040 18.98 38 18.98h45.74c18.44 0 34.38 10.52 42.26 25.86h98.68c11.96 0 21.66 9.7 21.66 21.66s-9.7 21.66-21.66 21.66zM512 791.6c-33.4 0-60.46 27.060-60.46 60.46s27.060 60.46 60.46 60.46 60.46-27.060 60.46-60.46-27.060-60.46-60.46-60.46zM760.080 592.080c-10.32 53.24-58.98 104.74-112.080 116.5-32.24 6.7-76.1 13.26-136 13.38-59.88-0.1-103.74-6.68-136-13.38-53.1-11.76-101.76-63.24-112.080-116.5-6.48-32.46-14.5-122.94-13.84-182.8-0.66-59.86 7.36-150.36 13.84-182.8 10.32-53.26 58.98-104.74 112.080-116.5 7.3-1.52 15.24-3.020 23.78-4.46v190.56c0 61.86 50.34 112.2 112.2 112.2s112.2-50.34 112.2-112.2v-190.56c8.54 1.44 16.48 2.94 23.78 4.46 53.1 11.76 101.76 63.24 112.080 116.5 6.48 32.44 14.5 122.94 13.84 182.8 0.66 59.86-7.36 150.36-13.84 182.8zM385.54 501.5c-1.42-7.3-8.080-14.36-15.38-15.98-4.42-0.92-10.44-1.82-18.66-1.84-8.22 0-14.22 0.92-18.66 1.84-7.28 1.62-13.96 8.68-15.38 15.98-0.88 4.46-1.9 22.64-1.9 47.22s1 42.78 1.9 47.22c1.42 7.3 8.080 14.36 15.38 15.98 4.42 0.92 10.44 1.82 18.66 1.84 8.22 0 14.22-0.92 18.66-1.84 7.28-1.62 13.96-8.68 15.38-15.98 0.88-4.46 1.9-24.040 1.9-47.22 0-24.6-1-42.78-1.9-47.22zM706.5 501.5c-1.42-7.3-8.080-14.36-15.38-15.98-4.42-0.92-10.44-1.82-18.66-1.84-8.22 0-14.22 0.92-18.66 1.84-7.28 1.62-13.96 8.68-15.38 15.98-0.88 4.46-1.9 22.64-1.9 47.22s1 42.78 1.9 47.22c1.42 7.3 8.080 14.36 15.38 15.98 4.42 0.92 10.44 1.82 18.66 1.84 8.22 0 14.22-0.92 18.66-1.84 7.28-1.62 13.96-8.68 15.38-15.98 0.88-4.46 1.9-24.040 1.9-47.22 0-24.6-1-42.78-1.9-47.22z" />
<glyph unicode="&#xe917;" glyph-name="next" d="M364.131 747.94c-0.279 0.007-0.608 0.010-0.938 0.010-23.567 0-42.671-19.104-42.671-42.671 0-13.222 6.014-25.040 15.455-32.867l0.071-0.057 261.083-223.666-261.083-223.584c-10.603-7.856-17.4-20.326-17.4-34.383 0-23.567 19.104-42.671 42.671-42.671 11.77 0 22.427 4.765 30.147 12.472l-0.001-0.001 298.917 255.75c9.187 7.874 14.971 19.491 14.971 32.458s-5.784 24.584-14.914 32.41l-0.058 0.048-298.917 256c-7.254 6.466-16.799 10.5-27.281 10.755l-0.052 0.001z" />
<glyph unicode="&#xe918;" glyph-name="no-money" d="M512 621.896c-16.966 0-30.72 13.754-30.72 30.72v0 62.915c0 16.966 13.754 30.72 30.72 30.72s30.72-13.754 30.72-30.72v0-62.915c0-16.966-13.754-30.72-30.72-30.72v0zM512 149.75c-16.966 0-30.72 13.754-30.72 30.72v0 62.915c0 16.966 13.754 30.72 30.72 30.72s30.72-13.754 30.72-30.72v0-62.915c0-16.966-13.754-30.72-30.72-30.72v0zM418.97 555.090c1.556 16.118 11.264 31.744 27.269 43.889 17.869 13.588 41.83 21.862 67.451 23.306 2.425 0.144 5.26 0.227 8.115 0.227s5.69-0.082 8.505-0.245l-0.389 0.018c0.881-0.061 27.412-2.099 50.729-16.947l44.032 44.032c-39.936 30.72-87.706 34.028-91.259 34.232-3.455 0.208-7.494 0.326-11.561 0.326s-8.106-0.118-12.114-0.352l0.554 0.026c-37.755-2.109-73.728-14.807-101.222-35.738-29.819-22.671-48.015-53.535-51.2-86.907-2.755-28.621 5.509-56.545 23.89-80.753 10.757-13.892 23.582-25.56 38.132-34.746l0.606-0.357 45.21 45.21c-31.089 14.346-49.203 39.117-46.746 64.778zM591.35 381.164c7.168-8.622 15.36-22.61 13.681-40.274-1.546-16.108-11.264-31.693-27.259-43.889-17.879-13.588-41.841-21.862-67.482-23.296-2.422-0.142-5.254-0.223-8.105-0.223s-5.683 0.081-8.494 0.24l0.39-0.018c-1.024 0.072-33.997 2.632-58.737 22.692l-43.571-43.571c41.155-36.506 94.894-40.233 98.785-40.458s7.864-0.338 11.796-0.338 7.588 0.102 11.346 0.317c37.765 2.099 73.728 14.787 101.263 35.727 29.829 22.692 48.026 53.565 51.2 86.938 2.898 30.218-6.912 60.559-27.648 85.443-12.095 14.301-26.53 26.175-42.79 35.148l-0.781 0.395-46.336-46.346c17.572-6.349 32.604-16.312 42.742-28.488zM889.385 607.457c-63.904 148.897-209.26 251.29-378.532 251.29-226.849 0-410.747-183.898-410.747-410.747s183.898-410.747 410.747-410.747c226.849 0 410.747 183.898 410.747 410.747v0c0 0.155 0 0.339 0 0.523 0 57.399-11.848 112.030-33.232 161.581l1.017-2.648zM512 782.93c0.146 0 0.32 0 0.493 0 77.44 0 148.715-26.398 205.316-70.686l-0.732 0.552-469.873-469.873c-43.736 55.869-70.134 127.143-70.134 204.583 0 0.173 0 0.347 0 0.52v-0.027c0 184.975 149.955 334.93 334.93 334.93zM512 113.070c-0.149 0-0.326 0-0.502 0-80.881 0-155.038 28.786-212.786 76.672l0.552-0.445 471.439 471.439c47.441-57.196 76.227-131.353 76.227-212.234 0-0.177 0-0.353 0-0.53v0.028c0-184.975-149.955-334.93-334.93-334.93z" />
<glyph unicode="&#xe919;" glyph-name="payment-method" d="M345.1 176.196c-0.26 1.28-0.64 2.54-1.14 3.76-0.5 1.2-1.12 2.36-1.84 3.44-0.72 1.1-1.56 2.12-2.48 3.040s-1.94 1.76-3.040 2.48c-1.080 0.72-2.24 1.34-3.46 1.84-1.2 0.5-2.46 0.9-3.74 1.14-2.58 0.52-5.24 0.52-7.8 0-1.28-0.24-2.54-0.64-3.76-1.14-1.2-0.5-2.36-1.12-3.44-1.84-1.1-0.72-2.12-1.56-3.040-2.48s-1.76-1.94-2.48-3.040c-0.74-1.080-1.34-2.24-1.84-3.44-0.5-1.22-0.9-2.48-1.14-3.76-0.26-1.28-0.4-2.6-0.4-3.9s0.14-2.62 0.4-3.9c0.24-1.28 0.64-2.54 1.14-3.74 0.5-1.22 1.1-2.38 1.84-3.46 0.72-1.1 1.56-2.12 2.48-3.040s1.94-1.76 3.040-2.48c1.080-0.722 2.24-1.342 3.44-1.842 1.22-0.5 2.48-0.9 3.76-1.14 1.28-0.26 2.6-0.4 3.9-0.4s2.62 0.14 3.9 0.4c1.28 0.24 2.54 0.64 3.74 1.14 1.22 0.5 2.38 1.122 3.46 1.842 1.1 0.72 2.12 1.56 3.040 2.48s1.76 1.94 2.48 3.040c0.72 1.080 1.34 2.24 1.84 3.46 0.5 1.2 0.88 2.46 1.14 3.74s0.4 2.6 0.4 3.9-0.14 2.62-0.4 3.9zM919.986 170.036c-0.078 0.2-0.158 0.398-0.242 0.594-18.408 43.074-61.58 58.994-112.672 41.544l-139.336-38.532c-8.056 24.396-28.15 45.156-56.562 55.7-0.176 0.064-0.352 0.128-0.53 0.188l-153.162 51.984c-12.748 16.478-52.68 58.642-127.446 58.642-52.25 0-98.472-35.844-124.916-74.914h-185.12c-11.046 0-20-8.954-20-20v-252.154c0-11.046 8.954-20 20-20h118.914c11.046 0 20 8.954 20 20v17.268h55.766c11.046 0 20 8.954 20 20v5.756c32.508-2.836 43.2-9.002 73.056-26.218 22.96-13.24 57.662-33.25 120.154-61.348 0.29-0.13 0.584-0.254 0.878-0.37 11.994-4.718 35.44-12.13 64.346-12.13 20.12 0 42.89 3.594 66.262 14.188l307.982 110.272c0.548 0.196 1.088 0.416 1.616 0.66 29.434 13.542 73.296 51.708 51.012 108.87zM118.914 13.090h-78.914v212.154h78.914v-212.154zM194.68 50.358h-35.766v174.886h35.766v-174.886zM852.992 97.852l-307.844-110.222c-0.27-0.096-0.636-0.24-0.902-0.348-0.27-0.11-0.54-0.226-0.806-0.348-42.874-19.704-83.628-7.908-99.6-1.698-60.364 27.162-92.582 45.74-116.122 59.314-32.728 18.872-48.498 27.968-93.038 31.646v161.084c18.958 31.072 55.722 62.878 95.358 62.878 67.972 0 96.774-44.21 97.906-45.994 2.442-3.972 6.196-6.966 10.61-8.464l158.95-53.948c25.386-9.528 38.802-31.268 32.636-52.948-2.846-10.012-9.422-18.316-18.514-23.382-9.014-5.022-19.434-6.264-29.366-3.516l-179.186 56.784c-10.536 3.338-21.772-2.494-25.108-13.024-3.338-10.53 2.494-21.77 13.024-25.108l179.498-56.882c0.19-0.060 0.38-0.118 0.572-0.172 7.166-2.038 14.462-3.046 21.714-3.046 13.276 0 26.406 3.382 38.322 10.022 18.426 10.266 31.75 27.094 37.518 47.384 0.46 1.62 0.868 3.24 1.222 4.86l150.166 41.6c21.688 7.408 50.158 10.078 62.834-19.116 13.12-34.274-20.98-53.128-29.844-57.356zM718.12 696.914c-0.26 1.28-0.64 2.54-1.16 3.76-0.5 1.2-1.1 2.36-1.84 3.44-0.72 1.1-1.56 2.12-2.48 3.040s-1.94 1.76-3.040 2.48c-1.080 0.72-2.24 1.34-3.44 1.84-1.22 0.5-2.48 0.9-3.74 1.14-2.58 0.52-5.24 0.52-7.82 0-1.28-0.24-2.54-0.64-3.74-1.14-1.22-0.5-2.38-1.12-3.46-1.84-1.1-0.72-2.12-1.56-3.040-2.48s-1.76-1.94-2.48-3.040c-0.72-1.080-1.34-2.24-1.84-3.44-0.5-1.22-0.9-2.48-1.14-3.76-0.26-1.28-0.4-2.6-0.4-3.9s0.14-2.62 0.4-3.9c0.24-1.28 0.64-2.54 1.14-3.74 0.5-1.22 1.12-2.38 1.84-3.46 0.72-1.1 1.56-2.12 2.48-3.040s1.94-1.76 3.040-2.48c1.080-0.72 2.24-1.34 3.46-1.84 1.2-0.5 2.46-0.88 3.74-1.14s2.6-0.4 3.9-0.4c1.3 0 2.62 0.14 3.92 0.4 1.26 0.26 2.52 0.64 3.74 1.14 1.2 0.5 2.36 1.12 3.44 1.84 1.1 0.72 2.12 1.56 3.040 2.48s1.76 1.94 2.48 3.040c0.74 1.080 1.34 2.24 1.84 3.46 0.52 1.2 0.9 2.46 1.16 3.74s0.38 2.6 0.38 3.9c0 1.3-0.12 2.62-0.38 3.9zM1004 892.218h-118.914c-11.046 0-20-8.954-20-20v-17.268h-55.766c-11.046 0-20-8.954-20-20v-5.756c-32.508 2.838-43.2 9.002-73.054 26.218-22.96 13.24-57.662 33.25-120.156 61.348-0.29 0.132-0.582 0.254-0.88 0.37-20.342 8.004-73.656 23.752-130.598-2.054l-80.48-28.816-67.838 67.836c-7.81 7.81-20.474 7.81-28.284 0l-222.716-222.714c-7.204-7.206-8.586-19.7 0-28.286l380.574-380.574c6.090-6.092 20.35-7.934 28.286 0l203.33 203.328c5.286-0.456 10.772-0.702 16.458-0.702 52.252 0 98.472 35.844 124.914 74.912h185.124c11.046 0 20 8.954 20 20v252.158c0 11.046-8.954 20-20 20zM302.17 911.67l45.584-45.584c-13.55-8.38-29.216-12.864-45.584-12.864-16.37 0-32.034 4.482-45.584 12.864l45.584 45.584zM153.326 671.654l-45.584 45.586 45.584 45.584c8.38-13.55 12.864-29.216 12.864-45.584s-4.482-32.034-12.864-45.586zM460.032 364.95l-45.576 45.576c27.826 17.172 63.322 17.172 91.15 0l-45.574-45.576zM534.422 439.338c-44.196 32.060-104.584 32.060-148.78 0l-203.502 203.504c15.618 21.48 24.050 47.282 24.050 74.398 0 27.118-8.43 52.918-24.050 74.398l45.634 45.632c21.48-15.618 47.28-24.050 74.398-24.050s52.918 8.432 74.398 24.050l43.258-43.258c-9.334-1.378-18.436-4.454-26.924-9.184-14.336-7.988-25.584-19.95-32.588-34.422-22.56-4.178-43.446-15.1-59.83-31.482-44.45-44.452-44.45-116.778 0.002-161.23 22.224-22.224 51.418-33.338 80.614-33.338 29.194 0 58.39 11.112 80.616 33.338 14.46 14.46 24.59 32.232 29.664 51.6l67.528-22.918c-7.602-35.216 0.184-72.264 21.186-101.364l-45.674-45.674zM412.826 635.964c0.176-0.064 0.352-0.128 0.53-0.188l39.992-13.574c-3.020-13.63-9.854-26.162-19.914-36.224-28.856-28.852-75.808-28.856-104.66 0-28.856 28.854-28.856 75.804 0 104.66 6.96 6.964 15.174 12.406 24.124 16.096 3.692-30.724 25.814-58.11 59.928-70.77zM608.914 513.832c-7.72 12.58-12.088 26.938-12.778 41.592 9.58-6.926 21.288-13.712 35.272-19.098l-22.494-22.494zM789.318 628.034c-18.956-31.076-55.72-62.882-95.356-62.882-7.416 0-14.366 0.528-20.864 1.468-0.026 0.004-0.052 0.008-0.078 0.012-43.192 6.274-66.426 30.822-74.084 40.542-0.408 0.6-2.146 2.874-2.404 3.252-2.33 4.164-6.15 7.512-11.022 9.166l-159.016 53.97c-25.376 9.524-38.79 31.254-32.642 52.926 0.004 0.014 0.008 0.028 0.012 0.042 0.006 0.016 0.010 0.034 0.014 0.050 2.858 9.98 9.422 18.258 18.494 23.312 9.012 5.022 19.43 6.268 29.366 3.514l179.186-56.782c10.532-3.342 21.772 2.494 25.108 13.024s-2.494 21.77-13.024 25.108l-142.51 45.16-1.244 1.244c-0.012 0.012-0.024 0.026-0.038 0.038l-73.78 73.78 63.416 22.708c0.214 0.078 0.478 0.176 0.69 0.262 0.054 0.022 0.158 0.062 0.21 0.084 0.272 0.11 0.54 0.226 0.806 0.348 42.872 19.704 83.624 7.91 99.598 1.698 60.366-27.162 92.586-45.74 116.126-59.314 32.728-18.874 48.498-27.968 93.036-31.646v-161.084zM865.086 640.064h-35.766v174.886h35.766v-174.886zM984 640.064h-78.914v212.154h78.914v-212.154z" />
<glyph unicode="&#xe91a;" glyph-name="personal" d="M565.809 526.13c14.524 0 26.339-9.894 26.339-22.055 0-11.044 8.956-20.001 20.001-20.001s20.001 8.956 20.001 20.001c0 27.699-19.505 51.214-46.34 59.168v2.78c0 11.044-8.956 20.001-20.001 20.001s-20.001-8.956-20.001-20.001v-2.78c-26.835-7.956-46.338-31.469-46.338-59.168 0-34.217 29.759-62.054 66.338-62.054 14.524 0 26.339-9.894 26.339-22.055s-11.814-22.053-26.339-22.053c-14.522 0-26.337 9.892-26.337 22.053 0 11.044-8.956 20.001-20.001 20.001s-20.001-8.956-20.001-20.001c0-27.699 19.503-51.212 46.338-59.166v-2.78c0-11.044 8.956-20.001 20.001-20.001s20.001 8.956 20.001 20.001v2.78c26.835 7.954 46.34 31.467 46.34 59.166 0 34.217-29.761 62.056-66.34 62.056-14.522 0-26.337 9.892-26.337 22.053s11.814 22.055 26.337 22.055zM1020.99 291.886c-7.842 27.193-29.911 47.74-57.592 53.628-17.727 3.774-36.163 1.020-51.908-7.348 9.116 56.692 4.328 115.336-14.43 170-3.586 10.448-14.964 16.003-25.411 12.426-10.448-3.586-16.011-14.962-12.426-25.411 22.157-64.556 22.337-135.374 0.63-200.009l-159.387-141.559c-9.834-8.732-20.619-16.137-32.081-22.149 3.24 13.11 3.020 26.993-0.872 40.181-6.146 20.829-20.905 38.153-40.489 47.534l-141.197 67.628c-61.73 29.567-133.98 32.987-198.227 9.4l-14.352-5.27c-39.837 112.538-12.108 237.344 73.202 322.653l141.201 141.199h156.319l119.638-119.638c7.812-7.808 20.473-7.808 28.287 0 7.81 7.81 7.81 20.475 0 28.287l-114.312 114.306 41.323 118.92c5.54 15.943-0.578 33.335-14.878 42.299-14.296 8.962-32.621 6.884-44.555-5.044l-0.246-0.246c-8.266-8.27-21.723-8.27-29.989 0-35.103 35.099-92.215 35.099-127.318 0-4.004-4.006-9.33-6.21-14.994-6.21s-10.99 2.206-14.994 6.21c-11.946 11.946-30.281 14.014-44.589 5.024-14.306-8.988-20.401-26.405-14.818-42.353l41.503-118.612-135.861-135.859c-50.28-50.282-83.703-113.676-96.651-183.328-11.358-61.082-6.438-123.366 14.152-181.41l-31.531-11.576c-10.492 13.64-26.963 22.457-45.462 22.457h-101.337c-31.615-0.002-57.336-25.723-57.336-57.336v-237.34c0-31.615 25.721-57.336 57.336-57.336h527.146c82.799 0 161.099 31.781 220.475 89.489l195.845 190.336c20.295 19.721 28.029 48.864 20.189 76.057zM486.922 887.46c16.349 0 31.719 6.366 43.281 17.927 19.505 19.505 51.242 19.505 70.746 0 11.56-11.56 26.933-17.927 43.281-17.927 11.608 0 22.721 3.208 32.329 9.208l-35.401-101.879h-150.723l-35.597 101.727c9.552-5.9 20.573-9.056 32.083-9.056zM40.001-6.662v237.342c0 9.558 7.776 17.335 17.335 17.335h101.335c9.558 0 17.335-7.776 17.335-17.335v-237.34c0-9.558-7.776-17.335-17.335-17.335h-101.335c-9.558-0.002-17.335 7.774-17.335 17.333zM972.922 244.512l-195.845-190.336c-51.87-50.41-120.268-78.173-192.596-78.173h-371.16c1.74 5.472 2.686 11.294 2.686 17.335v233.966l85.379 31.349c54.176 19.891 115.108 17.007 167.162-7.926l141.197-67.628c9.522-4.56 16.413-12.65 19.401-22.779s1.594-20.667-3.928-29.667c-8.872-14.458-26.363-20.963-42.527-15.829l-187.578 59.65c-10.524 3.344-21.773-2.472-25.123-13-3.346-10.526 2.472-21.775 13-25.123l187.578-59.648c7.726-2.456 15.593-3.636 23.359-3.636 0.936 0 1.868 0.056 2.8 0.090 48.104 0.692 94.275 18.549 130.298 50.544l196.221 174.274c8.634 7.666 20.537 10.81 31.827 8.41 13.406-2.852 23.679-12.416 27.477-25.587 3.804-13.166 0.204-26.731-9.626-36.285zM837.506 562.007c5.26 0 10.42 2.12 14.138 5.86 3.72 3.72 5.862 8.862 5.862 14.14 0 5.26-2.14 10.4-5.862 14.14-3.718 3.718-8.878 5.86-14.138 5.86-5.262 0-10.4-2.14-14.14-5.86-3.72-3.74-5.86-8.88-5.86-14.14 0-5.28 2.138-10.42 5.86-14.14 3.718-3.742 8.878-5.86 14.14-5.86z" />
<glyph unicode="&#xe91b;" glyph-name="play" d="M933.647 448l-843.294-512v1024l843.294-512z" />
<glyph unicode="&#xe91c;" glyph-name="rate" d="M515.2 459.6c-10 0-18.4 3.2-24.6 9-17.2 13.4-20.8 39-8 56.2l259 353.6c6.4 8.4 16 14.2 26.6 15.8 11 1.8 21.6-0.8 30.2-7.2 17.6-13.2 21.6-39.2 8.6-56.6l-259-354.8c-6.4-10.2-18.2-16-32.8-16zM774.6 871.6c-1 0-2 0-3-0.2-4.6-0.8-8.8-3.2-11.6-6.8l-258.8-353.6c-5.4-7.2-3.6-18.6 3.8-24.2 0.4-0.4 0.8-0.6 1.2-1 0.6-0.6 2.8-2.8 8.8-2.8 2.4 0 10.4 0.4 13.2 5.2 0.2 0.2 0.4 0.6 0.6 0.8l259.2 355.2c5.4 7.2 3.6 18.6-3.8 24.2-2.6 2-6 3.2-9.6 3.2zM782 430.2c-29.4 0-56.8 11.4-77.4 32s-32 48-32 77.4c0 29.4 11.4 56.8 32 77.4s48 32 77.4 32c29.4 0 56.8-11.4 77.4-32s32-48 32-77.4c0-29.4-11.4-56.8-32-77.4s-48-32-77.4-32zM782 625.6c-47.4 0-86.2-38.6-86.2-86.2s38.6-86.2 86.2-86.2 86 38.8 86 86.4-38.6 86-86 86zM782 487.6c-28.2 0-52 23.8-52 52s23.8 52 52 52 52-23.8 52-52-23.8-52-52-52zM782 568.2c-15.2 0-28.8-13.4-28.8-28.8 0-15.2 13.4-28.8 28.8-28.8 15.2 0 28.8 13.4 28.8 28.8-0.2 15.4-13.6 28.8-28.8 28.8zM507.4 703.2c-29.4 0-56.8 11.4-77.4 32s-32 48-32 77.4c0 29.4 11.4 56.8 32 77.4s48 32 77.4 32c29.4 0 56.8-11.4 77.4-32s32-48 32-77.4c0-29.4-11.4-56.8-32-77.4s-48-32-77.4-32zM507.4 898.8c-47.4 0-86.2-38.6-86.2-86.2 0-47.4 38.6-86.2 86.2-86.2 47.4 0 86.2 38.6 86.2 86.2-0.2 47.4-38.8 86.2-86.2 86.2zM507.4 760.6c-28.2 0-52 23.8-52 52s23.8 52 52 52c29.6 0 52-22.4 52-52 0-28.2-23.8-52-52-52zM507.4 841.4c-15.2 0-28.8-13.4-28.8-28.8 0-15.2 13.4-28.8 28.8-28.8s28.6 13.6 28.6 28.8c0 17-11.8 28.8-28.6 28.8zM637.8 53.6c-13.4 0-26.8 2-39.4 6.4l-243 80.4-52.8-34.2c-5.4-3.6-12.6-2-16 3.4s-2 12.6 3.4 16l57.4 37.2c3 2 6.6 2.4 10 1.2l248.2-82c29.2-9.8 62.8-5.6 87.6 11l268.4 178.4c0 0 0.2 0.2 0.2 0.2 9.4 5.8 16 15.6 18.4 26.6s0 22.2-6.2 31.4c0 0.2-0.2 0.2-0.2 0.4-5.8 9.4-15.6 16-26.6 18.4s-22.2 0-31.4-6.2c0 0-0.2 0-0.2-0.2l-204.8-135c-5.4-3.6-12.6-2-16.2 3.4s-2 12.6 3.4 16.2l204.8 135c14.4 9.8 32 13.4 49.2 9.8s32.2-14 41.4-28.6c9.8-14.4 13.2-31.8 9.6-49.2-3.6-17.2-14-32.2-28.6-41.4l-268.2-178.4c-19.8-13.2-44-20.2-68.4-20.2zM652.6 164.2c-8 0-16 1.4-23.6 4.4l-152 55.8c-6 2.2-9.2 9-7 15s8.8 9.2 15 7l152-55.8c0 0 0.2 0 0.2 0 10.6-4.2 22-3.8 32.4 0.8s18.2 13 22.4 23.6c4 10.4 3.6 21.8-1.4 32-5 10.4-13.6 18.4-24.6 22.6l-266.6 99.2c-28.2 9.8-57 6.4-81.2-9.6l-127.2-83.8c-5.4-3.6-12.6-2-16.2 3.4s-2 12.6 3.4 16.2l127.2 83.8c30.2 20.2 66.4 24.4 101.8 12.2 0 0 0.2 0 0.2 0l266.8-99.2c16.6-6.4 29.8-18.6 37.2-34.4 7.8-16.2 8.4-34.2 2-50.6s-18.6-29.4-34.6-36.4c-8.2-4.2-17.2-6.2-26.2-6.2zM214-28c-3.8 0-7.4 1.8-9.8 5.2l-182.8 277.2c-1.8 2.6-2.4 5.8-1.6 8.8 0.6 3 2.4 5.6 5 7.4l117.8 77.8c5.4 3.6 12.6 2 16.2-3.4l183-277.2c1.8-2.6 2.4-5.8 1.6-8.8-0.6-3-2.4-5.6-5-7.4l-117.8-77.8c-2.2-1.2-4.4-1.8-6.6-1.8zM47.2 257.6l170.2-257.8 98.4 65-170.2 257.8-98.4-65zM142.8 206.8c-4 0-7.8 2-10 5.6l-17 28c-3.4 5.4-1.6 12.6 3.8 16s12.6 1.6 16-3.8l17-28c3.4-5.4 1.6-12.6-3.8-16-1.8-1.4-4-1.8-6-1.8z" />
<glyph unicode="&#xe91d;" glyph-name="right-arrow" d="M1000.369 427.126h-976.738c-11.618 0-21.005 9.387-21.005 21.005s9.387 21.005 21.005 21.005h925.998l-127.475 127.475c-8.205 8.205-8.205 21.53 0 29.735s21.53 8.205 29.735 0l163.381-163.381c6.039-6.039 7.811-15.032 4.529-22.909-3.282-7.811-10.962-12.931-19.43-12.931zM836.792 263.549c-5.383 0-10.765 2.035-14.835 6.17-8.205 8.205-8.205 21.53 0 29.735l163.577 163.577c8.205 8.205 21.53 8.205 29.735 0s8.205-21.53 0-29.735l-163.577-163.577c-4.135-4.135-9.518-6.17-14.901-6.17z" />
<glyph unicode="&#xe91e;" glyph-name="rush" d="M392.832 680.021c54.528 48.085 126.123 77.312 204.501 77.312 170.709 0 309.333-138.624 309.333-309.333s-138.624-309.333-309.333-309.333c-78.379 0-149.973 29.227-204.501 77.312-13.227 11.691-33.493 10.453-45.184-2.816-11.691-13.227-10.411-33.451 2.816-45.141 65.835-58.112 152.277-93.355 246.869-93.355 206.037 0 373.333 167.296 373.333 373.333s-167.296 373.333-373.333 373.333c-94.592 0-181.035-35.243-246.869-93.355-13.227-11.691-14.507-31.915-2.816-45.141 11.691-13.269 31.957-14.507 45.184-2.816zM548.267 635.733v-170.667c0-8.491 3.371-16.64 9.387-22.613l136.533-136.533c12.459-12.501 32.768-12.501 45.227 0 12.501 12.459 12.501 32.768 0 45.227l-127.147 127.189v157.397c0 17.664-14.336 32-32 32s-32-14.336-32-32zM85.333 565.333h256c17.664 0 32 14.336 32 32s-14.336 32-32 32h-256c-17.664 0-32-14.336-32-32s14.336-32 32-32zM128 416h256c17.664 0 32 14.336 32 32s-14.336 32-32 32h-256c-17.664 0-32-14.336-32-32s14.336-32 32-32zM170.667 266.667h256c17.664 0 32 14.336 32 32s-14.336 32-32 32h-256c-17.664 0-32-14.336-32-32s14.336-32 32-32z" />
<glyph unicode="&#xe91f;" glyph-name="search" d="M965.728 30.082l-238.472 235.201c59.272 70.306 94.985 160.585 94.985 258.953 0 223.675-184.495 405.647-411.265 405.647-226.776 0-411.271-181.973-411.271-405.647 0-223.661 184.495-405.62 411.271-405.62 99.729 0 191.267 35.22 262.55 93.684l238.478-235.207c7.415-7.319 17.137-10.975 26.859-10.975s19.45 3.656 26.871 10.975c14.836 14.637 14.836 38.358-0.006 52.989zM75.688 524.235c0 182.352 150.409 330.706 335.289 330.706 184.874 0 335.278-148.354 335.278-330.706 0-182.337-150.404-330.675-335.278-330.675-184.88 0-335.289 148.338-335.289 330.675z" />
<glyph unicode="&#xe920;" glyph-name="shield" d="M511.992 643.087c-107.586 0-195.109-87.523-195.109-195.101 0-107.586 87.523-195.109 195.109-195.109 107.578 0 195.101 87.523 195.101 195.109 0 107.578-87.523 195.101-195.101 195.101zM627.828 484.728l-139.773-139.773c-5.867-5.867-13.562-8.805-21.25-8.805s-15.375 2.93-21.242 8.805l-53.414 53.414c-11.734 11.727-11.734 30.75 0 42.484 11.727 11.734 30.75 11.734 42.484 0l32.172-32.172 118.539 118.531c11.727 11.734 30.75 11.734 42.484 0 11.734-11.727 11.734-30.75 0-42.484zM946.975 682.165l-0.031 0.797c-0.445 9.836-0.742 20.242-0.922 31.82-0.836 56.461-45.719 103.164-102.187 106.32-117.734 6.57-208.812 44.961-286.632 120.812l-0.664 0.633c-25.383 23.273-63.672 23.273-89.062 0l-0.664-0.633c-77.82-75.851-168.898-114.242-286.632-120.82-56.461-3.148-101.351-49.851-102.187-106.32-0.172-11.5-0.477-21.906-0.922-31.812l-0.047-1.852c-2.289-120.054-5.133-269.468 44.851-405.085 27.484-74.578 69.109-139.406 123.711-192.695 62.187-60.687 143.64-108.867 242.093-143.195 3.203-1.117 6.531-2.023 9.922-2.703 4.781-0.953 9.594-1.43 14.406-1.43s9.633 0.477 14.406 1.43c3.391 0.68 6.742 1.594 9.961 2.719 98.336 34.391 179.703 82.594 241.835 143.273 54.578 53.305 96.203 118.148 123.711 192.742 50.172 136.023 47.336 285.718 45.055 405.999zM511.992 192.791c-140.718 0-255.195 114.476-255.195 255.195s114.476 255.195 255.195 255.195c140.711 0 255.195-114.476 255.195-255.195s-114.484-255.195-255.195-255.195z" />
<glyph unicode="&#xe921;" glyph-name="telephone" d="M778.514 282.604c-33.454 33.028-75.219 33.028-108.46 0-25.357-25.144-50.714-50.288-75.645-75.858-6.819-7.032-12.572-8.523-20.882-3.836-16.408 8.95-33.88 16.194-49.649 25.996-73.514 46.239-135.096 105.69-189.645 172.599-27.062 33.241-51.14 68.826-67.974 108.886-3.409 8.097-2.77 13.424 3.836 20.030 25.357 24.505 50.075 49.649 75.006 74.793 34.733 34.946 34.733 75.858-0.213 111.017-19.817 20.030-39.634 39.634-59.451 59.664-20.456 20.456-40.699 41.125-61.368 61.368-33.454 32.602-75.219 32.602-108.46-0.213-25.57-25.144-50.075-50.927-76.071-75.645-24.079-22.8-36.224-50.714-38.781-83.316-4.049-53.058 8.95-103.133 27.275-151.929 37.503-101.002 94.61-190.711 163.862-272.962 93.544-111.23 205.201-199.234 335.822-262.733 58.811-28.553 119.754-50.501 186.023-54.124 45.6-2.557 85.234 8.95 116.984 44.535 21.735 24.292 46.239 46.452 69.253 69.679 34.094 34.52 34.307 76.284 0.426 110.378-40.486 40.699-81.185 81.185-121.884 121.671zM737.814 452.432l78.628 13.424c-12.359 72.236-46.452 137.653-98.232 189.645-54.763 54.763-124.015 89.283-200.3 99.937l-11.080-79.054c59.024-8.31 112.722-34.946 155.126-77.35 40.060-40.060 66.269-90.774 75.858-146.602zM860.764 794.22c-90.774 90.774-205.627 148.094-332.412 165.78l-11.080-79.054c109.526-15.342 208.823-64.991 287.238-143.193 74.367-74.367 123.163-168.337 140.849-271.683l78.628 13.424c-20.669 119.754-77.137 228.427-163.223 314.726z" />
<glyph unicode="&#xe922;" glyph-name="user" d="M512.071 428.262c146.287 0 265.869 119.582 265.869 265.869s-119.582 265.869-265.869 265.869-265.867-119.582-265.867-265.869 119.582-265.869 265.867-265.869zM968.344 215.8c-6.967 17.416-16.253 33.669-26.702 48.762-53.407 78.949-135.836 131.193-228.716 143.964-11.609 1.16-24.38-1.16-33.669-8.127-48.762-35.991-106.811-54.567-167.184-54.567s-118.422 18.576-167.184 54.567c-9.289 6.967-22.060 10.449-33.669 8.127-92.88-12.771-176.471-65.016-228.716-143.964-10.449-15.093-19.738-32.509-26.702-48.762-3.482-6.967-2.322-15.093 1.16-22.060 9.289-16.253 20.898-32.509 31.347-46.44 16.253-22.060 33.669-41.796 53.407-60.371 16.253-16.253 34.829-31.347 53.407-46.44 91.718-68.5 202.013-104.489 315.791-104.489s224.073 35.991 315.791 104.489c18.576 13.931 37.151 30.187 53.407 46.44 18.576 18.576 37.151 38.313 53.407 60.371 11.609 15.093 22.060 30.187 31.347 46.44 5.802 6.967 6.962 15.096 3.48 22.060z" />
<glyph unicode="&#xe923;" glyph-name="close" d="M137.344 777.344c-5.798 5.798-9.384 13.808-9.384 22.656 0 17.695 14.345 32.040 32.040 32.040 8.848 0 16.858-3.586 22.656-9.384v0l329.344-329.408 329.344 329.408c5.798 5.798 13.808 9.384 22.656 9.384 17.695 0 32.040-14.345 32.040-32.040 0-8.848-3.586-16.858-9.384-22.656v0l-329.408-329.344 329.408-329.344c5.798-5.798 9.384-13.808 9.384-22.656 0-17.695-14.345-32.040-32.040-32.040-8.848 0-16.858 3.586-22.656 9.384v0l-329.344 329.408-329.344-329.408c-5.798-5.798-13.808-9.384-22.656-9.384-17.695 0-32.040 14.345-32.040 32.040 0 8.848 3.586 16.858 9.384 22.656v0l329.408 329.344z" />
<glyph unicode="&#xe924;" glyph-name="paper-plane" d="M995.914 948.792c20.201-14 30.8-38.2 26.999-62.4l-128-832.001c-2.998-19.399-14.797-36.398-32-46-17.198-9.597-37.797-10.798-55.996-3.197l-239.202 99.396-137-148.196c-17.8-19.405-45.8-25.805-70.4-16.202-24.6 9.597-40.6 33.399-40.6 59.802v167.196c0 8.004 3 15.599 8.4 21.402l335.198 365.8c11.6 12.6 11.201 32-0.796 44-12.004 12-31.403 12.8-44.004 1.399l-406.798-361.399-176.6 88.4c-21.2 10.598-34.8 31.801-35.4 55.398-0.6 23.601 11.8 45.602 32.2 57.401l895.999 512c21.402 12.2 47.798 11 67.999-2.8z" />
<glyph unicode="&#xe925;" glyph-name="location" horiz-adv-x="740" d="M348.714 960c-192.277 0-348.714-170.14-348.714-379.26 0-62.778 14.431-125.022 41.866-180.231l287.778-452.289c3.831-7.543 11.131-12.22 19.070-12.22s15.238 4.676 19.070 12.22l287.884 452.476c27.329 55.022 41.762 117.268 41.762 180.047 0 209.118-156.439 379.258-348.716 379.258zM348.714 391.111c-96.138 0-174.356 85.069-174.356 189.629s78.218 189.629 174.356 189.629c96.138 0 174.356-85.069 174.356-189.629s-78.218-189.629-174.356-189.629z" />
<glyph unicode="&#xe926;" glyph-name="comments" d="M512.002 934.396c-282.317 0-512-206.712-512-460.8 0-88.815 28.092-174.848 81.374-249.242-10.086-111.565-37.12-194.385-76.373-233.621-5.188-5.188-6.485-13.124-3.209-19.678 2.901-5.854 8.875-9.455 15.275-9.455 0.785 0 1.57 0.051 2.372 0.171 6.912 0.973 167.476 24.081 283.614 91.119 65.946-26.607 136.192-40.090 208.947-40.090 282.316 0 511.998 206.707 511.998 460.796s-229.682 460.8-511.998 460.8zM273.068 405.329c-37.649 0-68.267 30.618-68.267 68.267s30.618 68.267 68.267 68.267c37.649 0 68.267-30.618 68.267-68.267s-30.618-68.267-68.267-68.267zM512.002 405.329c-37.649 0-68.267 30.618-68.267 68.267s30.618 68.267 68.267 68.267c37.649 0 68.266-30.618 68.266-68.267s-30.617-68.267-68.266-68.267zM750.934 405.329c-37.648 0-68.266 30.618-68.266 68.267s30.618 68.267 68.266 68.267c37.649 0 68.267-30.618 68.267-68.267s-30.618-68.267-68.267-68.267z" />
<glyph unicode="&#xe927;" glyph-name="arrow-right" horiz-adv-x="512" d="M11.604-16.192c-3.678 3.661-6.596 8.013-8.587 12.8-1.991 4.794-3.016 9.933-3.016 15.117 0 5.19 1.025 10.33 3.016 15.117 1.991 4.794 4.91 9.146 8.587 12.8l405.236 405.067-405.236 405.236c-3.666 3.667-6.574 8.019-8.558 12.809s-3.005 9.924-3.005 15.109c0 5.185 1.021 10.319 3.005 15.108s4.892 9.143 8.558 12.809c3.666 3.666 8.019 6.574 12.809 8.559s9.924 3.005 15.109 3.005c5.185 0 10.319-1.021 15.109-3.005s9.143-4.892 12.809-8.559l432.939-433.24c3.683-3.656 6.605-8.006 8.6-12.797s3.021-9.93 3.021-15.12c0-5.19-1.027-10.329-3.021-15.12s-4.918-9.141-8.6-12.797l-433.111-432.897c-3.648-3.667-7.985-6.579-12.761-8.563s-9.898-3.008-15.071-3.008c-5.173 0-10.294 1.024-15.071 3.008s-9.113 4.896-12.761 8.563z" />
<glyph unicode="&#xe928;" glyph-name="arrow-left" horiz-adv-x="512" d="M500.396 912.222c3.677-3.66 6.596-8.010 8.588-12.801s3.016-9.929 3.016-15.117c0-5.188-1.025-10.325-3.016-15.116s-4.91-9.141-8.588-12.801l-405.236-405.064 405.236-405.236c3.666-3.667 6.574-8.019 8.558-12.806 1.985-4.794 3.005-9.926 3.005-15.11s-1.021-10.317-3.005-15.11c-1.984-4.787-4.892-9.139-8.558-12.806s-8.019-6.573-12.809-8.557c-4.79-1.99-9.924-3.008-15.108-3.008s-10.319 1.018-15.109 3.008c-4.79 1.984-9.143 4.89-12.809 8.557l-432.939 433.238c-3.683 3.657-6.606 8.006-8.6 12.798s-3.021 9.93-3.021 15.12c0 5.19 1.027 10.328 3.021 15.12s4.918 9.14 8.6 12.797l433.11 432.896c3.648 3.667 7.985 6.577 12.762 8.563s9.898 3.008 15.071 3.008c5.172 0 10.294-1.022 15.071-3.008s9.113-4.896 12.761-8.563z" />
<glyph unicode="&#xe929;" glyph-name="speech-bubble" horiz-adv-x="1117" d="M549.818-31.995c-7.219 0-14.448 1.787-21.001 5.385-13.959 7.666-22.635 22.328-22.635 38.251v87.268c0 24.059-19.577 43.636-43.636 43.636h-69.818c-216.55 0-392.727 176.179-392.727 392.727 0 216.55 176.177 392.727 392.727 392.727h331.636c216.548 0 392.727-176.177 392.727-392.727 0-1.804-0.009-3.6-0.028-5.391-1.029-105.782-33.168-185.059-104.192-257.060-64.991-65.885-159.958-124.458-291.402-205.526-44.265-27.304-94.431-58.247-148.229-92.472-7.126-4.534-15.267-6.819-23.422-6.819zM392.727 840.727c-168.428 0-305.455-137.027-305.455-305.455s137.027-305.455 305.455-305.455h69.818c72.183 0 130.909-58.726 130.909-130.909v-8.234c29.096 18.148 56.632 35.128 82.199 50.897 126.25 77.871 217.47 134.135 275.088 192.535 55.333 56.092 78.238 113.059 79.053 196.62 0.014 1.508 0.023 3.024 0.023 4.545 0 168.428-137.025 305.455-305.455 305.455h-331.636zM724.364 578.909h-331.636c-24.1 0-43.636 19.536-43.636 43.636s19.536 43.636 43.636 43.636h331.636c24.101 0 43.636-19.536 43.636-43.636s-19.535-43.636-43.636-43.636zM724.364 404.364h-331.636c-24.1 0-43.636 19.535-43.636 43.636s19.536 43.636 43.636 43.636h331.636c24.101 0 43.636-19.535 43.636-43.636s-19.535-43.636-43.636-43.636z" />
<glyph unicode="&#xe92a;" glyph-name="padlock" horiz-adv-x="964" d="M759.206 584.632h-28.841v120.471c0 132.879-103.46 240.941-230.686 240.941s-230.689-108.062-230.689-240.941v-120.471h-28.836c-47.676 0-86.508-40.518-86.508-90.353v-421.648c0-49.833 38.832-90.353 86.508-90.353h519.051c47.676 0 86.504 40.52 86.504 90.353v421.648c0 49.834-38.828 90.353-86.504 90.353zM345.887 705.103c0 88.586 68.976 160.628 153.792 160.628s153.795-72.041 153.795-160.628v-120.471h-307.587v120.471zM538.128 274.54v-91.479c0-22.167-17.186-40.153-38.448-40.153s-38.448 17.986-38.448 40.153v91.479c-22.876 13.932-38.448 39.557-38.448 69.15 0 44.293 34.488 80.314 76.896 80.314s76.896-36.021 76.896-80.314c0-29.594-15.571-55.218-38.448-69.15z" />
<glyph unicode="&#xe92b;" glyph-name="mail-2" horiz-adv-x="964" d="M557.317 355.569c-22.957-15.986-49.623-24.431-77.117-24.431-27.491 0-54.158 8.445-77.114 24.431l-378.118 263.291c-2.098 1.461-4.142 2.983-6.144 4.55v-431.428c0-49.465 38.433-88.721 84.946-88.721h752.861c47.357 0 84.944 40.141 84.944 88.721v431.43c-2.006-1.57-4.054-3.097-6.156-4.559l-378.101-263.284zM54.959 665.842l378.118-263.292c14.314-9.967 30.718-14.95 47.121-14.95 16.406 0 32.812 4.984 47.126 14.95l378.115 263.292c22.63 15.746 36.135 42.099 36.135 70.541 0 48.906-38.093 88.691-84.914 88.691h-752.92c-46.822-0.002-84.917-39.787-84.917-88.738 0-28.395 13.51-54.748 36.135-70.494z" />
<glyph unicode="&#xe92c;" glyph-name="check" d="M358.086 89.114c-12.865 0-25.729 4.928-35.53 14.726l-307.815 307.823c-19.656 19.647-19.656 51.413 0 71.060 19.647 19.647 51.404 19.647 71.060 0l272.285-272.284 580.115 580.108c19.648 19.647 51.405 19.647 71.059 0 19.648-19.656 19.648-51.412 0-71.069l-615.635-615.637c-9.801-9.798-22.675-14.726-35.539-14.726z" />
<glyph unicode="&#xe92d;" glyph-name="left-arrow" d="M23.422 427.127h976.74c11.618 0 21.005 9.387 21.005 21.005s-9.387 21.005-21.005 21.005h-925.999l127.475 127.474c8.205 8.205 8.205 21.53 0 29.735s-21.53 8.205-29.736 0l-163.38-163.379c-6.039-6.042-7.811-15.036-4.529-22.912 3.282-7.808 10.962-12.928 19.43-12.928zM186.999 263.552c5.382 0 10.765 2.035 14.835 6.17 8.205 8.205 8.205 21.53 0 29.734l-163.577 163.58c-8.205 8.205-21.53 8.205-29.735 0-8.205-8.209-8.205-21.534 0-29.739l163.577-163.575c4.135-4.134 9.518-6.17 14.9-6.17z" />
<glyph unicode="&#xe92e;" glyph-name="double-left-arrow" horiz-adv-x="1280" d="M1179.375 959.982c15.13 0.333 29.995-4.054 42.513-12.559 12.527-8.504 22.093-20.705 27.366-34.895 5.265-14.19 5.99-29.669 2.057-44.287s-12.322-27.642-24.004-37.273l-445.658-381.791 445.658-381.653c8.081-5.939 14.848-13.483 19.874-22.153 5.035-8.678 8.218-18.295 9.361-28.262 1.135-9.958 0.205-20.053-2.731-29.636-2.944-9.583-7.834-18.466-14.362-26.078-6.528-7.603-14.558-13.781-23.586-18.142s-18.867-6.81-28.885-7.202c-10.018-0.384-20.011 1.297-29.346 4.949s-17.818 9.199-24.917 16.282l-510.241 436.562c-8.013 6.838-14.447 15.325-18.859 24.89s-6.697 19.977-6.697 30.511c0 10.534 2.284 20.945 6.697 30.51s10.846 18.061 18.859 24.899l510.241 436.982c12.885 11.449 29.423 17.941 46.66 18.347zM582.038 959.982c15.135 0.333 29.996-4.054 42.52-12.559s22.087-20.705 27.359-34.895c5.273-14.19 5.993-29.669 2.060-44.287s-12.321-27.642-24.002-37.273l-445.66-381.791 445.66-381.653c8.080-5.939 14.846-13.483 19.876-22.153 5.030-8.678 8.214-18.295 9.354-28.262 1.14-9.958 0.21-20.053-2.731-29.636s-7.828-18.466-14.358-26.078c-6.53-7.603-14.56-13.781-23.589-18.142s-18.86-6.81-28.88-7.202c-10.020-0.384-20.012 1.297-29.35 4.949s-17.82 9.199-24.916 16.282l-510.241 436.562c-8.013 6.838-14.447 15.325-18.859 24.89s-6.697 19.977-6.697 30.511c0 10.534 2.285 20.945 6.697 30.51s10.846 18.061 18.859 24.899l510.241 436.982c12.889 11.449 29.421 17.941 46.657 18.347z" />
<glyph unicode="&#xe92f;" glyph-name="prev" d="M659.87 747.938c8.866 0.195 17.574-2.375 24.909-7.357 7.339-4.982 12.941-12.13 16.030-20.443s3.511-17.381 1.207-25.945c-2.304-8.564-7.219-16.194-14.063-21.836l-261.082-223.665 261.082-223.586c4.736-3.482 8.7-7.898 11.644-12.979 2.948-5.082 4.813-10.718 5.483-16.555 0.666-5.837 0.119-11.746-1.6-17.361-1.724-5.619-4.587-10.82-8.414-15.279-3.823-4.459-8.529-8.073-13.82-10.628-5.286-2.556-11.046-3.989-16.917-4.22-5.871-0.226-11.725 0.759-17.195 2.901s-10.441 5.389-14.596 9.536l-298.917 255.753c-4.694 4.006-8.463 8.977-11.048 14.583-2.585 5.602-3.923 11.703-3.923 17.873s1.338 12.271 3.923 17.873c2.585 5.606 6.354 10.581 11.048 14.588l298.917 255.999c7.552 6.707 17.237 10.511 27.332 10.748z" />
</font>
</defs>
</svg>
