<?xml version="1.0" standalone="no"?>
<!DOCTYPE svg PUBLIC "-//W3C//DTD SVG 1.1//EN" "http://www.w3.org/Graphics/SVG/1.1/DTD/svg11.dtd" >
<svg xmlns="http://www.w3.org/2000/svg">
<metadata>Generated by IcoMoon</metadata>
<defs>
<font id="delogis-icons-two" horiz-adv-x="1024">
<font-face units-per-em="1024" ascent="960" descent="-64" />
<missing-glyph horiz-adv-x="1024" />
<glyph unicode="&#x20;" horiz-adv-x="512" d="" />
<glyph unicode="&#xe900;" glyph-name="brain" d="M66.268 478h180.886c12.364 34.922 45.704 60 84.844 60s72.48-25.078 84.844-60h65.156v120h30c16.524 0 30 13.448 30 30s-13.477 30-30 30h-30c0 8.534 0 284.552 0 269.062-25.162 19.058-56.095 32.938-89.999 32.938-88.022 0-154.451-78.358-149.942-155.018-68.436-13.915-120.058-74.53-120.058-146.982 0-27.392 7.558-53.936 21.504-76.992-39.83-20.416-67.946-58.554-77.234-103.008zM542 712.874c34.922-12.392 60-45.762 60-84.874s-25.078-72.48-60-84.874v-65.126h120v-30c0-16.552 13.476-30 30-30s30 13.448 30 30v30h235.733c-9.289 44.454-37.405 82.591-77.239 103.008 13.948 23.056 21.504 49.6 21.504 76.992 0 71.484-50.271 131.485-120.057 146.044 3.635 79.996-63.049 155.956-149.941 155.956-33.904 0-64.837-13.88-89.999-32.938 0-14.064 0-222.784 0-214.188zM957.733 418h-180.89c-12.361-34.922-45.703-60-84.843-60s-72.48 25.078-84.844 60h-65.156v-120h-30c-16.524 0-30-13.448-30-30s13.477-30 30-30h30v-269.064c25.162-19.054 56.095-32.936 89.999-32.936 88.022 0 154.447 78.358 149.941 155.019 68.44 13.912 120.057 74.533 120.057 146.981 0 27.392-7.556 53.906-21.504 76.992 39.834 20.394 67.95 58.546 77.239 103.008zM481.998 183.128c-34.921 12.39-60 45.76-60 84.872s25.078 72.48 60 84.874v65.126h-120v30c0 16.552-13.476 30-30 30s-30-13.448-30-30v-30h-235.73c9.288-44.462 37.404-82.613 77.234-103.008-13.946-23.086-21.504-49.6-21.504-76.992 0-71.483 50.274-131.482 120.058-146.045-3.636-79.996 63.050-155.955 149.942-155.955 33.904 0 64.837 13.883 89.999 32.936v214.192z" />
<glyph unicode="&#xe901;" glyph-name="call" d="M752.080 348.067c-32.163 21.677-66.026 15.309-87.942-16.541-16.723-24.256-33.45-48.509-49.763-73.043-4.454-6.739-8.893-8.829-16.346-6.294-14.669 4.755-29.939 7.962-44.221 13.504-66.656 26.278-125.654 65.088-180.090 111.018-27.011 22.822-51.962 48.003-71.72 77.914-3.999 6.048-4.293 10.464 0.055 16.826 16.822 23.738 33.028 47.891 49.409 72.080 22.832 33.632 16.592 66.803-17.107 89.981-19.121 13.217-38.179 26.089-57.301 39.306-19.706 13.466-39.271 27.137-59.117 40.397-32.097 21.331-65.96 14.961-87.908-16.715-16.897-24.286-32.834-48.929-50.141-72.933-16.046-22.16-21.636-46.643-18.737-73.469 4.81-43.635 22.986-82.253 45.286-119.021 45.812-76.17 105.796-140.195 174.491-196.32 92.809-75.917 196.764-130.24 312.358-161.802 52.038-14.179 104.797-22.682 159.082-15.51 37.363 4.883 67.744 20.256 88.058 53.952 13.917 23.008 30.406 44.714 45.523 67.056 22.378 33.187 16.182 67.082-16.49 89.558-39.034 26.822-78.208 53.44-117.379 80.058zM693.184 479.555l61.706 22.877c-21.040 56.685-58.659 104.522-108.573 138.78-52.755 36.049-114.17 53.474-177.645 50.477l3.072-65.786c49.126 2.266 96.726-11.142 137.574-39.053 38.589-26.371 67.574-63.491 83.866-107.296zM740.72 775.431c-87.446 59.753-189.312 88.71-294.806 83.712l3.072-65.786c91.146 4.266 179.229-20.844 254.733-72.289 71.642-48.953 125.536-117.702 155.638-198.793l61.706 22.877c-35.024 93.939-97.382 173.439-180.342 230.279z" />
<glyph unicode="&#xe902;" glyph-name="case-study" d="M580.671 761.309h111.413l-111.413 126.6v-126.6zM1014.154 0.053l-153.519 153.312c15.976 27.061 25.184 58.561 25.184 92.184 0 100.409-81.8 182.097-182.345 182.097-100.543 0-182.343-81.688-182.343-182.097s81.8-182.097 182.343-182.097c44.629 0 85.539 16.118 117.266 42.795l149.876-149.673 43.538 43.479zM172.939 784.914h199.575v-169.531h-199.575v169.531zM703.084 489.135c8.718 0 17.073-0.463 25.657-1.384v215.617h-178.001c-17.002 0-30.157 11.703-30.157 28.682v207.373h-489.278c-11.852 0-21.459-9.607-21.459-21.46v-931.425c0-11.851 9.607-21.38 21.459-21.38h676.987c11.804 0 20.448 9.578 20.448 21.38v16.807c-8.584-0.92-16.939-1.384-25.657-1.384-134.495 0-243.915 109.275-243.915 243.586s109.42 243.588 243.915 243.588zM421.87 57.435h-306.872v62.234h306.872v-62.234zM114.998 222.673v62.234h302.579v-62.234h-302.579zM421.87 387.913h-306.872v62.232h306.872v-62.232zM434.745 584.686c0-16.979-14.789-31.535-31.791-31.535h-260.494c-17.002 0-31.754 14.557-31.754 31.535v231.761c0 16.981 14.751 30.7 31.754 30.7h260.494c17.002 0 31.791-13.719 31.791-30.7v-231.761z" />
<glyph unicode="&#xe903;" glyph-name="check" d="M512 960c-282.306 0-512-229.694-512-512s229.694-512 512-512c282.305 0 512 229.695 512 512s-229.695 512-512 512zM798.157 582.737l-327.219-324.649c-19.248-19.251-50.045-20.531-70.577-1.286l-173.233 157.834c-20.531 19.248-21.815 51.329-3.85 71.86 19.248 20.531 51.329 21.815 71.86 2.566l137.303-125.753 292.574 292.57c20.531 20.531 52.611 20.531 73.142 0s20.531-52.612 0-73.143z" />
<glyph unicode="&#xe904;" glyph-name="chroven-left" d="M739.556 158.85l-288.817 288.817 288.817 288.817-109.405 109.405-398.222-398.222 398.222-398.222 109.405 109.405z" />
<glyph unicode="&#xe905;" glyph-name="chroven-right" d="M284.444 737.15l288.817-288.817-288.817-288.817 109.405-109.405 398.222 398.222-398.222 398.222-109.405-109.405z" />
<glyph unicode="&#xe906;" glyph-name="comment" d="M606.785 837.214c-63.59 39.22-138.945 60.786-216.785 60.786-211.892 0-390-157.866-390-360 0-70.87 22.016-138.807 63.836-197.482l-58.42-183.409c-6.172-19.375 8.34-39.106 28.59-39.106 4.63 0 9.29 1.067 13.59 3.255l177.664 90.333c7.194-3.099 14.478-5.977 21.836-8.655-41.134 64.205-63.096 137.906-63.096 215.067 0 229.792 193.356 406.454 422.785 419.212zM960.162 220.516c41.822 58.675 63.838 126.615 63.838 197.486 0 202.206-178.181 359.998-389.998 359.998-211.894 0-390.002-157.866-390.002-359.998 0-202.208 178.184-360.001 390.002-360.001 56.832 0 113.465 11.582 164.729 33.593l177.675-90.338c10.779-5.481 23.805-3.95 33.021 3.886 9.221 7.831 12.832 20.437 9.157 31.965l-58.422 183.409zM512 387.999c-16.568 0-30 13.431-30 30.003 0 16.566 13.432 29.998 30 29.998s29.998-13.432 29.998-29.998c0-16.573-13.43-30.003-29.998-30.003zM632.002 387.999c-16.573 0-30.003 13.431-30.003 30.003 0 16.566 13.431 29.998 30.003 29.998 16.567 0 29.998-13.432 29.998-29.998 0-16.573-13.431-30.003-29.998-30.003zM751.999 387.999c-16.567 0-29.998 13.431-29.998 30.003 0 16.566 13.431 29.998 29.998 29.998s30.003-13.432 30.003-29.998c0-16.573-13.436-30.003-30.003-30.003z" />
<glyph unicode="&#xe907;" glyph-name="costumer" d="M518.283 810.141c-1.010 2.66-3.432 4.332-6.279 4.332s-5.27-1.672-6.279-4.332l-32.246-84.928c-0.967-2.554-3.224-4.194-5.951-4.325l-90.735-4.424c-2.841-0.139-5.183-1.927-6.062-4.633s-0.037-5.53 2.181-7.313l70.806-56.91c2.128-1.71 2.99-4.364 2.275-6.998l-23.833-87.658c-0.745-2.744 0.231-5.526 2.533-7.197 2.3-1.671 5.247-1.745 7.627-0.186l76.003 49.754c2.284 1.497 5.075 1.497 7.358 0l76.005-49.754c2.382-1.559 5.327-1.485 7.629 0.186s3.279 4.45 2.533 7.197l-23.833 87.658c-0.715 2.634 0.147 5.288 2.275 6.998l70.806 56.91c2.218 1.784 3.058 4.606 2.179 7.313-0.879 2.705-3.219 4.495-6.062 4.633l-90.733 4.424c-2.728 0.133-4.985 1.772-5.956 4.325l-32.244 84.928zM342.557 836.859c-6.56 5.902-7.090 16.004-1.188 22.562 5.9 6.558 16.003 7.090 22.561 1.188l56.752-51.102c6.558-5.902 7.090-16.004 1.188-22.562s-16.003-7.090-22.561-1.188l-56.752 51.102zM660.077 860.609c6.558 5.902 16.658 5.37 22.561-1.188s5.37-16.66-1.188-22.562l-57.084-51.4c-6.558-5.902-16.66-5.37-22.561 1.188s-5.37 16.66 1.188 22.562l57.084 51.4zM528.003 873.907v58.718c0 8.836-7.164 16-15.999 16-8.837 0-16.001-7.164-16.001-16v-58.718c0-8.836 7.164-16 16.001-16 8.835 0 15.999 7.164 15.999 16zM512.004 494.232c-61.999 0-112.257-50.258-112.257-112.257 0-61.997 50.258-112.257 112.257-112.257 61.997 0 112.257 50.26 112.257 112.257s-50.26 112.257-112.257 112.257zM732.748 51.583v-44.878c0-32.68-26.655-59.335-59.335-59.335h-322.822c-32.68 0-59.333 26.655-59.333 59.335v44.876c11.919 111.387 106.197 198.136 220.746 198.136 114.547 0 208.824-86.749 220.744-198.134zM847.499 412.711c-46.383 0-83.982-37.601-83.98-83.982 0-46.381 37.599-83.982 83.98-83.982 46.383 0 83.982 37.601 83.982 83.982s-37.599 83.982-83.982 83.982zM176.508 412.711c-46.382 0-83.982-37.601-83.982-83.982s37.6-83.982 83.982-83.982c46.382 0 83.981 37.601 83.981 83.982s-37.599 83.982-83.981 83.982zM176.506 222.312c-74.606 0-137.728-49.189-158.698-116.908-3.684-11.897-1.682-23.736 5.708-33.759 7.39-10.025 18.106-15.438 30.56-15.438h205.508c4.583 40.972 18.811 78.774 40.264 111.258-30.401 33.679-74.398 54.847-123.342 54.847zM847.497 222.312c-48.941 0-92.938-21.168-123.341-54.847 21.451-32.485 35.68-70.285 40.264-111.258h205.509c12.456 0 23.169 5.411 30.56 15.438 7.389 10.025 9.39 21.862 5.708 33.759-20.969 67.719-84.089 116.908-158.7 116.908zM163.898 810.141c-1.010 2.66-3.432 4.332-6.278 4.332s-5.27-1.672-6.28-4.332l-32.246-84.926c-0.968-2.554-3.224-4.194-5.952-4.325l-90.734-4.424c-2.842-0.139-5.184-1.927-6.062-4.633-0.88-2.707-0.038-5.53 2.18-7.313l70.806-56.912c2.128-1.71 2.99-4.364 2.274-6.998l-23.832-87.658c-0.746-2.744 0.232-5.526 2.534-7.197 2.3-1.671 5.246-1.745 7.626-0.186l76.004 49.754c2.284 1.497 5.074 1.497 7.358 0l76.006-49.754c2.382-1.559 5.327-1.485 7.629 0.186s3.279 4.45 2.533 7.197l-23.833 87.658c-0.715 2.634 0.147 5.288 2.275 6.998l70.806 56.91c2.218 1.784 3.058 4.606 2.179 7.313-0.879 2.705-3.219 4.495-6.062 4.633l-90.733 4.424c-2.728 0.133-4.984 1.772-5.954 4.325l-32.244 84.928zM871.61 810.141c-1.010 2.66-3.434 4.332-6.281 4.332-2.845 0-5.27-1.672-6.279-4.332l-32.244-84.928c-0.969-2.554-3.224-4.194-5.951-4.325l-90.735-4.424c-2.843-0.139-5.183-1.927-6.062-4.633-0.881-2.707-0.039-5.53 2.179-7.313l70.808-56.91c2.128-1.71 2.99-4.364 2.273-6.998l-23.833-87.658c-0.745-2.744 0.233-5.526 2.535-7.197s5.247-1.745 7.627-0.186l76.003 49.754c2.286 1.497 5.075 1.497 7.358 0l76.007-49.754c2.382-1.559 5.325-1.485 7.627 0.186 2.3 1.671 3.279 4.45 2.533 7.197l-23.833 87.658c-0.717 2.634 0.145 5.288 2.273 6.998l70.806 56.91c2.218 1.784 3.060 4.606 2.181 7.313-0.881 2.705-3.219 4.495-6.062 4.633l-90.735 4.424c-2.728 0.133-4.983 1.772-5.954 4.325l-32.244 84.928z" />
<glyph unicode="&#xe908;" glyph-name="expertise" d="M61.867 159.585c-12.436 0-21.784 11.038-19.732 23.304 21.742 130.048 106.476 238.759 221.77 293.694l81.339-144.953c15.484-27.624 43.614 18.241 51.806 27.953l-26.535-128.644 64.542-71.354h-373.19zM810.286 435.995c38.952-29.157 30.119-25.942 78.702-28.645 18.658-1.037 33.816-13.754 38.079-31.951 11.097-47.376 6.397-39.235 41.876-72.532 13.627-12.792 17.060-32.275 8.631-48.955-21.949-43.426-20.318-34.167-14.543-82.481 2.218-18.556-7.675-35.689-24.854-43.048-44.73-19.154-37.527-13.113-64.162-53.835-10.229-15.64-28.82-22.407-46.708-17.001-46.576 14.075-37.179 14.075-83.752 0-17.89-5.406-36.481 1.361-46.711 17.001-26.632 40.726-19.429 34.681-64.159 53.835-17.179 7.359-27.071 24.492-24.854 43.048 5.775 48.314 7.405 39.058-14.543 82.481-8.429 16.68-4.996 36.163 8.631 48.955 35.482 33.299 30.779 25.155 41.876 72.532 4.263 18.198 19.418 30.914 38.079 31.951 48.581 2.703 39.75-0.515 78.702 28.645 14.961 11.202 34.746 11.202 49.707 0zM785.432 353.846c-57.325 0-103.796-46.471-103.796-103.793 0-57.325 46.471-103.796 103.796-103.796 57.322 0 103.793 46.471 103.793 103.796 0 57.322-46.471 103.793-103.793 103.793zM833.776 23.951c26.341-2.070 52.046 10.181 67.026 33.083 3.010 4.605 16.664 27.015 19.777 28.893l37.961-81.54c1.264-2.711-1.035-5.71-3.983-5.195l-55.98 9.779-28.548-49.13c-1.504-2.584-5.282-2.412-6.543 0.296l-29.709 63.814zM737.089 23.954l-29.709-63.819c-1.261-2.708-5.039-2.881-6.543-0.296l-28.548 49.133-55.978-9.782c-2.948-0.515-5.247 2.485-3.986 5.198l37.963 81.54c3.11-1.878 16.764-24.29 19.774-28.893 14.98-22.903 40.685-35.15 67.026-33.081zM435.060 938c-111.25 0-201.439-90.186-201.439-201.438s90.189-201.439 201.439-201.439c111.25 0 201.437 90.187 201.437 201.439 0 111.25-90.187 201.438-201.437 201.438zM435.060 159.585l64.539 71.351-26.535 128.644 25.204-29.887c6.901-8.984 20.952-8.152 26.602 1.932l81.341 144.953c22.69-10.809 44.191-23.708 64.267-38.438-28.419-5.295-51.081-26.613-57.837-55.444-9.626-41.103-1.838-27.608-32.62-56.498-23.924-22.455-30.092-57.438-15.29-86.722 19.044-37.675 16.335-22.329 11.326-64.245-0.631-5.29-0.693-10.526-0.229-15.646h-140.768zM576.647 489.203c-8.739 3.32-17.621 6.349-26.643 9.062l-92.023-71.276 50.295-59.632 68.371 121.845zM510.469 507.993c-24.417 4.681-49.629 7.133-75.412 7.13-25.783 0-50.995-2.444-75.412-7.13l75.412-58.406 75.412 58.406zM320.11 498.265c-9.022-2.716-17.904-5.74-26.643-9.062l68.371-121.845 50.292 59.632-92.020 71.276z" />
<glyph unicode="&#xe909;" glyph-name="family" d="M512.010 700.4l-106 106c-35 35-35 92.2 0 127.2 28.6 28.8 71.999 34 106 15.8 33.999 18.2 77.4 13 106-15.8 35-35 35-92.2 0-127.2l-106-106zM120 536.001c-66.2 0-120 53.799-120 119.998 0 66.202 53.8 120.001 120 120.001s120.001-53.799 120.001-120.001c0-66.2-53.801-119.998-120.001-119.998zM903.999 536.001c-66.2 0-120.001 53.799-120.001 119.998 0 66.202 53.801 120.001 120.001 120.001s120.001-53.799 120.001-120.001c0-66.2-53.801-119.998-120.001-119.998zM1024.008-63.998h-302v426.801l-247.8 115.399c-44.8 21.6-64.401 75-44.001 119.601 19.001 40.2 68.401 66.2 119.001 44.399l391.799-182c51.2-25.6 83.2-77.199 83.2-134.199v-390.001h-0.199zM512 116.001c-66.2 0-120.001 53.799-120.001 119.998 0 66.202 53.801 120.001 120.001 120.001s120.001-53.799 120.001-120.001c0-66.2-53.801-119.998-120.001-119.998zM662-64h-299.999v29.999c0 82.801 67.199 150.002 150 150.002s150-67.201 150-150.002v-29.999zM365.4 590.801l-275.6-127.601c-6-5.401-89.8-36-89.8-137.2v-390.001h302v426.799l139.6 65.401c-59.001 32.399-89.201 99.201-76.2 162.601z" />
<glyph unicode="&#xe90a;" glyph-name="heart" d="M853.342 714.807c8.114-0.758 15.651-4.518 21.137-10.541 5.487-6.025 8.528-13.879 8.528-22.028 0-8.147-3.041-16.001-8.528-22.026-5.487-6.023-13.023-9.783-21.137-10.541-4.532-0.424-9.103 0.102-13.421 1.546s-8.286 3.772-11.653 6.838c-3.365 3.066-6.054 6.799-7.893 10.965-1.841 4.164-2.791 8.667-2.791 13.218 0 4.553 0.95 9.056 2.791 13.22 1.839 4.166 4.528 7.899 7.893 10.965 3.367 3.066 7.336 5.394 11.653 6.838s8.888 1.97 13.421 1.546zM147.061 175.503c-6.47 0-12.794 1.917-18.173 5.513-5.379 3.594-9.572 8.702-12.048 14.68-2.476 5.976-3.124 12.554-1.861 18.899s4.378 12.173 8.952 16.749c4.575 4.575 10.403 7.69 16.749 8.952 6.345 1.264 12.922 0.614 18.9-1.862s11.086-6.668 14.68-12.046c3.594-5.38 5.513-11.704 5.513-18.174 0-8.675-3.446-16.996-9.581-23.13-6.135-6.136-14.455-9.581-23.13-9.581zM668.162 618.664c-33.833 31.545-76.589 51.866-122.413 58.18-45.826 6.314-92.484-1.688-133.587-22.907-85.334-45.795-134.826-158.435-123.734-296.108-48.31 23.425-91.968 55.421-128.853 94.435-96.427 102.685-128.284 223.289-81.351 298.668 46.933 75.377 172.658 110.364 267.947 7.68 31.005 136.249 156.729 170.667 235.52 127.147 72.532-39.538 106.097-143.93 86.471-267.094zM865.561 163.553c-69.12-77.085-205.652-136.534-316.017-170.668-68.835 74.809-146.489 176.073-177.209 268.8-44.374 119.183-21.901 293.263 69.689 335.36 35.346 17.82 76.055 21.866 114.217 11.354 38.162-10.514 71.055-34.836 92.289-68.241 13.894-21.383 23.55-45.234 28.445-70.259 4.551 4.835 9.671 9.101 13.369 13.369 93.014 85.332 209.92 52.052 256-21.334s14.221-195.414-80.783-298.381zM806.4 872.39c-0.014 2.632 0.766 5.207 2.236 7.389 1.473 2.182 3.568 3.87 6.013 4.842 2.435 1.094 5.157 1.381 7.766 0.818 2.611-0.563 4.973-1.946 6.74-3.946l12.8-14.222c1.27-1.366 2.812-2.452 4.526-3.187 1.716-0.735 3.566-1.103 5.429-1.080h19.059c2.671 0.155 5.323-0.531 7.584-1.961s4.018-3.533 5.022-6.012c1.004-2.48 1.206-5.212 0.578-7.812-0.627-2.601-2.054-4.939-4.082-6.686l-13.937-12.8c-1.411-1.234-2.527-2.769-3.267-4.492s-1.081-3.59-1.001-5.463v-19.058c0.061-2.664-0.694-5.283-2.165-7.507-1.468-2.223-3.582-3.945-6.056-4.935s-5.192-1.2-7.789-0.604c-2.599 0.597-4.952 1.972-6.746 3.943l-12.8 13.938c-1.233 1.411-2.769 2.528-4.491 3.266-1.724 0.739-3.59 1.081-5.464 1.001h-19.057c-2.673-0.033-5.292 0.735-7.522 2.205-2.232 1.47-3.971 3.575-4.993 6.043-1.018 2.472-1.235 5.2-0.623 7.801s2.023 4.946 4.035 6.705l13.939 12.8c1.411 1.234 2.527 2.769 3.267 4.492 0.737 1.723 1.079 3.59 0.999 5.463 0 4.551 0 11.662 0 19.058zM274.491 66.275c-0.942-2.48-2.617-4.616-4.803-6.121-2.183-1.507-4.776-2.314-7.428-2.314-2.654 0-5.245 0.807-7.43 2.314-2.185 1.505-3.858 3.641-4.803 6.121l-6.541 17.92c-1.468 3.459-4.223 6.212-7.68 7.68l-17.92 6.543c-2.48 0.942-4.616 2.617-6.124 4.803-1.505 2.183-2.312 4.774-2.312 7.428s0.807 5.245 2.312 7.43c1.507 2.183 3.643 3.858 6.124 4.801l17.92 6.543c1.765 0.639 3.367 1.657 4.694 2.984s2.347 2.931 2.986 4.696c1.706 4.266 3.981 10.809 6.541 17.635 0.944 2.48 2.617 4.616 4.803 6.124 2.185 1.505 4.776 2.312 7.43 2.312 2.652 0 5.245-0.807 7.428-2.312 2.185-1.507 3.86-3.643 4.803-6.124 2.56-6.826 5.12-13.369 6.541-17.635 0.639-1.765 1.659-3.369 2.986-4.696s2.929-2.345 4.694-2.984l17.92-6.543c2.482-0.942 4.616-2.617 6.124-4.801 1.507-2.185 2.314-4.776 2.314-7.43s-0.807-5.245-2.314-7.428c-1.507-2.185-3.641-3.86-6.124-4.803l-17.92-6.543c-3.457-1.468-6.21-4.221-7.68-7.68-1.421-4.551-3.981-11.092-6.541-17.92z" />
<glyph unicode="&#xe90b;" glyph-name="high-five" d="M512 814.43c15.254 0 27.599 12.885 27.599 28.8v57.6c0 15.915-12.345 28.8-27.599 28.8s-27.599-12.885-27.599-28.8v-57.6c0-15.915 12.345-28.8 27.599-28.8zM641.913 765.268l55.202 57.6c10.781 11.25 10.781 29.475 0 40.725s-28.246 11.25-39.027 0l-55.202-57.6c-10.781-11.25-10.781-29.475 0-40.725s28.246-11.25 39.027 0zM382.086 765.268c10.781-11.25 28.247-11.25 39.028 0s10.781 29.475 0 40.725l-55.2 57.6c-10.781 11.25-28.247 11.25-39.028 0s-10.781-29.475 0-40.725l55.2-57.6zM289.36 522.588c0 63.534-49.514 115.202-110.4 115.202s-110.4-51.667-110.4-115.202c0-63.529 49.515-115.2 110.4-115.2s110.4 51.671 110.4 115.2zM512 697.31c-45.654 0-82.8-38.76-82.8-86.4 0-111.149-88.522-203.522-195.040-203.522h-55.2c-76.087 0-138-64.602-138-143.999v-287.998c0-15.917 12.348-28.803 27.6-28.803h220.8c15.231 0 27.233 12.886 27.233 28.77l0.158 269.328c161.178 39.629 278.049 191.062 278.049 366.223 0 47.64-37.147 86.4-82.801 86.4zM955.441 522.588c0 63.534-49.517 115.202-110.399 115.202-60.887 0-110.404-51.667-110.404-115.202 0-63.529 49.517-115.2 110.404-115.2 60.883 0 110.399 51.671 110.399 115.2zM845.050 407.392h-55.198c-63.468 0-121.242 34.447-156.479 83.919-16.151-59.462-44.282-113.422-81.854-159.629 44.012-40.538 98.39-72.716 155.734-86.966l0.164-269.353c0-15.884 12.005-28.77 27.234-28.77h220.799c15.254 0 27.603 12.886 27.603 28.799v288.002c0 79.393-61.915 143.999-138.002 143.999z" />
<glyph unicode="&#xe90c;" glyph-name="kids" d="M583.462 716.221c0-65.553 53.634-119.187 119.187-119.187s119.187 53.634 119.187 119.187c0 65.553-53.634 119.187-119.187 119.187s-119.187-52.442-119.187-119.187zM801.574 554.127h-137.065c-45.291 0-82.239-36.948-82.239-82.239v-355.177c0-21.454 17.878-39.332 39.332-39.332s39.332 17.878 39.332 39.332v79.855c0 21.454 17.878 39.332 39.332 39.332s39.332-17.878 39.332-39.332v-79.855c0-21.454 17.878-39.332 39.332-39.332s39.332 17.878 39.332 39.332v303.927c0 7.151 9.535 10.727 14.302 5.959l60.785-60.785c15.494-15.494 40.524-15.494 56.018 0s15.494 40.524 0 56.018l-113.228 117.995c-9.535 8.343-21.454 14.302-34.564 14.302zM55.464 367.003c15.494-15.494 40.524-15.494 56.018 0l25.029 25.029c4.767 4.767 13.111 0 11.919-5.959l-39.332-176.397c-1.192-7.151 3.576-13.111 10.727-13.111h47.675c10.727 0 19.070-8.343 19.070-19.070v-60.785c0-21.454 17.878-39.332 39.332-39.332s39.332 17.878 39.332 39.332v39.332c0 21.454 17.878 39.332 39.332 39.332s39.332-17.878 39.332-39.332v-39.332c0-21.454 17.878-39.332 39.332-39.332s39.332 17.878 39.332 39.332v60.785c0 10.727 8.343 19.070 19.070 19.070h47.675c7.151 0 11.919 5.959 10.727 13.111l-64.361 288.432c-7.151 33.372-36.948 56.018-70.32 56.018h-114.419c-42.907 0-83.431-16.686-113.228-46.483l-83.431-83.431c-14.302-16.686-14.302-41.715 1.192-57.21zM185.378 716.221c0-65.553 53.634-119.187 119.187-119.187s119.187 53.634 119.187 119.187c0 65.553-53.634 119.187-119.187 119.187s-119.187-52.442-119.187-119.187z" />
<glyph unicode="&#xe90d;" glyph-name="left-arrow" d="M938.906 465.952h-750.16l225.781 225.782c4.074 3.934 7.324 8.641 9.56 13.846s3.412 10.802 3.462 16.466c0.049 5.664-1.030 11.281-3.175 16.523s-5.312 10.005-9.317 14.010c-4.006 4.005-8.768 7.173-14.011 9.317s-10.859 3.224-16.523 3.175c-5.664-0.049-11.262-1.226-16.466-3.462s-9.911-5.485-13.846-9.56l-298.596-298.596c-7.997-8-12.489-18.847-12.489-30.159s4.492-22.159 12.489-30.158l298.596-298.594c8.045-7.771 18.821-12.072 30.005-11.975s21.883 4.585 29.792 12.493c7.909 7.908 12.395 18.608 12.492 29.793s-4.202 21.959-11.973 30.003l-225.781 225.782h750.16c11.31 0 22.164 4.494 30.162 12.493s12.493 18.85 12.493 30.163c0 11.313-4.494 22.163-12.493 30.162s-18.853 12.494-30.162 12.494z" />
<glyph unicode="&#xe90e;" glyph-name="right-arrow" d="M85.094 430.048h750.16l-225.781-225.782c-4.074-3.934-7.324-8.641-9.56-13.846s-3.412-10.802-3.462-16.466c-0.049-5.664 1.030-11.281 3.175-16.523s5.312-10.005 9.317-14.010c4.006-4.005 8.768-7.173 14.011-9.317s10.859-3.224 16.523-3.175c5.664 0.049 11.262 1.226 16.466 3.462s9.911 5.485 13.846 9.56l298.596 298.596c7.997 8 12.489 18.847 12.489 30.159s-4.492 22.159-12.489 30.158l-298.596 298.594c-8.045 7.771-18.821 12.072-30.005 11.975s-21.883-4.585-29.792-12.493c-7.909-7.908-12.395-18.608-12.492-29.793s4.202-21.959 11.973-30.003l225.781-225.782h-750.16c-11.31 0-22.164-4.494-30.162-12.493s-12.493-18.85-12.493-30.163c0-11.313 4.494-22.163 12.493-30.162s18.853-12.494 30.162-12.494z" />
<glyph unicode="&#xe90f;" glyph-name="up-arrow" d="M529.952 21.094v750.16l225.782-225.781c3.934-4.074 8.641-7.324 13.846-9.56s10.802-3.412 16.466-3.462c5.664-0.049 11.281 1.030 16.523 3.175s10.005 5.312 14.010 9.317c4.005 4.006 7.173 8.768 9.317 14.011s3.224 10.859 3.175 16.523c-0.049 5.664-1.226 11.262-3.462 16.466s-5.485 9.911-9.56 13.846l-298.596 298.596c-8 7.997-18.847 12.489-30.159 12.489s-22.159-4.492-30.158-12.489l-298.594-298.596c-7.771-8.045-12.072-18.821-11.975-30.005s4.585-21.883 12.493-29.792c7.908-7.909 18.608-12.395 29.793-12.492s21.959 4.202 30.003 11.973l225.782 225.781v-750.16c0-11.31 4.494-22.164 12.493-30.162s18.85-12.493 30.163-12.493c11.313 0 22.163 4.494 30.162 12.493s12.494 18.853 12.494 30.162z" />
<glyph unicode="&#xe910;" glyph-name="down-arrow" d="M494.048 874.906v-750.16l-225.782 225.781c-3.934 4.074-8.641 7.324-13.846 9.56s-10.802 3.412-16.466 3.462c-5.664 0.049-11.281-1.030-16.523-3.175s-10.005-5.312-14.010-9.317c-4.005-4.006-7.173-8.768-9.317-14.011s-3.224-10.859-3.175-16.523c0.049-5.664 1.226-11.262 3.462-16.466s5.485-9.911 9.56-13.846l298.596-298.596c8-7.997 18.847-12.489 30.159-12.489s22.159 4.492 30.158 12.489l298.594 298.596c7.771 8.045 12.072 18.821 11.975 30.005s-4.585 21.883-12.493 29.792c-7.908 7.909-18.608 12.395-29.793 12.492s-21.959-4.202-30.003-11.973l-225.782-225.781v750.16c0 11.31-4.494 22.164-12.493 30.162s-18.85 12.493-30.163 12.493c-11.313 0-22.163-4.494-30.162-12.493s-12.494-18.853-12.494-30.162z" />
<glyph unicode="&#xe911;" glyph-name="mind" horiz-adv-x="1038" d="M808.186 311.473c41.194 42.379 70.845 94.603 86.126 151.695 15.281 57.090 15.682 117.144 1.165 174.435-4.38 19.146-69.931 278.751-398.818 256.036-2.212 0.201-256.851-18.015-300.332-233.485-0.162-1.783-15.252-185.941-58.249-246.136-2.807-3.981-4.662-8.553-5.421-13.362-0.76-4.811-0.404-9.732 1.040-14.384 1.462-4.836 4.003-9.277 7.433-12.986 3.429-3.711 7.656-6.593 12.362-8.431l51.435-19.795v-3.407l-10.060-7.302c-3.298-2.345-5.941-5.496-7.671-9.155-1.732-3.658-2.495-7.699-2.218-11.736 0.275-4.038 1.584-7.937 3.799-11.325 2.214-3.386 5.261-6.15 8.848-8.023-3.062-2.433-5.478-5.584-7.032-9.174-1.553-3.59-2.199-7.507-1.878-11.405 0.32-3.9 1.598-7.658 3.718-10.947 2.12-3.287 5.018-6.001 8.437-7.901l15.576-8.276c-11.557-14.151-17.039-32.305-15.245-50.489s10.719-34.917 24.818-46.537c3.407-3.733 36.345-36.022 126.395-12.008 3.79 0.878 7.72 0.972 11.548 0.274s7.472-2.171 10.709-4.328c3.238-2.158 5.998-4.956 8.114-8.221s3.542-6.929 4.19-10.765c5.192-20.444 16.874-79.829 10.384-108.061-0.549-2.593-0.463-5.28 0.254-7.833 0.715-2.553 2.039-4.894 3.857-6.823s4.076-3.389 6.581-4.256 5.183-1.113 7.805-0.72l398.17 67.822c2.401 0.41 4.682 1.357 6.666 2.773 1.983 1.415 3.623 3.259 4.793 5.398 1.171 2.137 1.843 4.513 1.966 6.947s-0.307 4.865-1.256 7.109c-77.070 183.346-18.334 234.457-18.009 234.782zM710.346 388.706c-24.697-0.297-48.685 8.261-67.616 24.126-18.93 15.865-31.552 37.986-35.578 62.354-18.833 2.054-36.404 10.468-49.811 23.852-12.908 12.748-29.035 40.018-5.68 48.513 2.057 0.545 4.2 0.679 6.308 0.395s4.139-0.982 5.978-2.052c1.837-1.070 3.447-2.491 4.736-4.184s2.23-3.623 2.772-5.68c11.208-30.939 55.481-37.928 79.829-17.522 6.952 5.41 12.383 12.526 15.767 20.659 3.384 8.131 4.604 17.001 3.542 25.746-0.235 4.265 1.219 8.452 4.044 11.655 2.827 3.203 6.8 5.166 11.062 5.465s8.469-1.092 11.714-3.87c3.245-2.779 5.267-6.722 5.631-10.978 1.657-20.004-3.774-39.955-15.343-56.357-11.57-16.403-28.539-28.215-47.939-33.367 12.937-55.204 70.59-66.714 112.607-47.54 59.698 22.090 65.523 87.164 33.095 127.528-6.021-12.79-15.194-39.639-33.42-41.701-3.082 0.045-6.091 0.956-8.679 2.632-2.589 1.674-4.654 4.046-5.958 6.839-1.304 2.795-1.794 5.9-1.415 8.961 0.379 3.059 1.612 5.951 3.559 8.342 41.537 48.676 7.139 111.469 6.815 112.118-26.773 49.001-88.753 49.65-90.537 49.65-2.791-0.069-5.551 0.6-8.002 1.938s-4.503 3.301-5.952 5.687c-69.545 107.112-242.581 52.85-223.098-73.177 0.689-4.203-0.3-8.508-2.752-11.988s-6.174-5.86-10.364-6.624c-4.188-0.766-8.511 0.144-12.036 2.533-3.525 2.39-5.971 6.066-6.813 10.24-2.122 13.808-2.286 27.846-0.486 41.7-73.339-16.225-78.531-74.637-78.694-77.233-3.953-26.152 1.915-52.844 16.476-74.925s36.783-37.989 62.379-44.656c-0.074 13.142 2.446 26.17 7.416 38.335 4.97 12.167 12.294 23.232 21.549 32.562s20.261 16.743 32.386 21.811c12.125 5.070 25.131 7.694 38.273 7.728 11.963 1.174 23.372-2.582 23.852-16.225-0.404-13.779-12.007-17.376-23.852-16.224-17.709-0.162-34.64-7.309-47.107-19.889-12.465-12.581-19.46-29.575-19.46-47.286s6.995-34.705 19.462-47.286c12.467-12.579 29.397-19.727 47.107-19.887h45.916c15.941-0.027 31.219-6.385 42.476-17.672s17.572-26.582 17.558-42.525v-86.319c-0.061-4.263-1.797-8.332-4.833-11.325-3.037-2.994-7.129-4.671-11.394-4.671-4.263 0-8.356 1.679-11.392 4.671-3.036 2.994-4.772 7.063-4.832 11.326v86.316c0.012 7.335-2.885 14.375-8.056 19.576-5.17 5.202-12.193 8.14-19.527 8.17h-45.918c-20.049 0.045-39.62 6.118-56.171 17.433-16.551 11.313-29.317 27.344-36.638 46.008-49.811 9.735-126.882 51.76-118.121 157.386 0 0.487 6.815 93.783 119.419 109.034 39.213 110.144 205.518 124.161 269.828 27.419 35.224-1.258 68.514-16.43 92.571-42.19 24.058-25.762 36.92-60.009 35.769-95.238 78.267-72.185 56.052-202.327-82.423-210.116zM571.62 678.166c-7.394 5.492-16.658 7.842-25.775 6.535-9.118-1.308-17.349-6.164-22.902-13.512-1.004-2.31-2.517-4.364-4.428-6.007s-4.168-2.831-6.604-3.476c-2.435-0.645-4.984-0.73-7.458-0.248-2.472 0.482-4.804 1.517-6.82 3.029-2.015 1.511-3.662 3.46-4.816 5.7-1.155 2.238-1.787 4.71-1.85 7.229-0.062 2.52 0.447 5.019 1.488 7.314 1.041 2.293 2.59 4.321 4.527 5.931 55.201 69.528 158.734-8.077 107.572-80.804-1.011-2.296-2.527-4.334-4.436-5.962s-4.161-2.804-6.588-3.44-4.966-0.715-7.428-0.234c-2.463 0.483-4.784 1.516-6.792 3.022s-3.647 3.446-4.801 5.674c-1.152 2.228-1.787 4.689-1.855 7.197s0.43 4.999 1.458 7.288 2.561 4.315 4.483 5.928c5.544 7.405 7.922 16.707 6.614 25.862-1.308 9.157-6.196 17.421-13.59 22.977z" />
<glyph unicode="&#xe912;" glyph-name="online-business" d="M448 693.333v180.267c-3.584 0.299-6.997 1.067-10.667 1.067h-362.667c-41.173 0-74.667-33.493-74.667-74.667v-320c0-11.776 6.485-22.613 16.896-28.204 4.736-2.557 9.899-3.796 15.104-3.796 6.187 0 12.373 1.792 17.707 5.332l107.051 71.127c8.363 5.717 18.731 8.875 29.269 8.875h251.307c33.836 0 64.126 14.592 85.589 37.588-44.288 23.17-74.923 69.079-74.923 122.412zM992 533.333c-6.229 0-12.373 1.792-17.749 5.376l-106.496 70.997c-8.789 5.888-18.985 8.96-29.566 8.96h-251.522c-41.172 0-74.667 33.493-74.667 74.667v192c0 41.173 33.495 74.667 74.667 74.667h362.667c41.175 0 74.667-33.493 74.667-74.667v-320c0-11.776-6.485-22.658-16.896-28.204-4.734-2.557-9.943-3.796-15.104-3.796zM234.667 192c70.693 0 128 57.306 128 128s-57.307 128-128 128c-70.693 0-128-57.306-128-128s57.307-128 128-128zM789.333 192c70.694 0 128 57.306 128 128s-57.306 128-128 128c-70.694 0-128-57.306-128-128s57.306-128 128-128zM352 149.333h-234.667c-64.725 0-117.333-52.606-117.333-117.333v-64c0-17.664 14.336-32 32-32h405.333c17.664 0 32 14.336 32 32v64c0 64.727-52.61 117.333-117.333 117.333zM906.667 149.333h-234.667c-64.727 0-117.333-52.606-117.333-117.333v-64c0-17.664 14.336-32 32-32h405.333c17.664 0 32 14.336 32 32v64c0 64.727-52.61 117.333-117.333 117.333z" />
<glyph unicode="&#xe913;" glyph-name="phone-call" d="M938.518 240.155c-75.736 6.928-149.589 26.179-219.376 57.259-34.3 15.467-74.409 1.469-91.278-31.851l-47.603-94.502c-144.337 80.010-264.036 199.782-343.906 343.979l94.429 47.53c33.32 16.73 47.39 56.84 31.99 91.279-31.15 69.72-50.469 143.499-57.33 219.379-3.36 36.539-33.109 64.119-69.299 64.119h-178.499c-19.32 0-35-15.68-35-35 0-142.519 31.080-279.928 92.329-408.588 93.030-193.336 250.738-351.045 444.217-444.144 128.588-61.249 266-92.258 408.447-92.258 19.318 0 34.999 15.676 34.999 34.999v178.497c0 36.192-27.577 66.012-64.12 69.303z" />
<glyph unicode="&#xe914;" glyph-name="ping" d="M512 948.9c-96.712-0.129-189.425-38.604-257.81-106.99s-106.861-161.099-106.99-257.81c0-261.898 339.872-589.911 354.312-603.745 2.808-2.729 6.571-4.255 10.488-4.255s7.679 1.526 10.488 4.255c14.44 13.834 354.312 341.847 354.312 603.745-0.128 96.712-38.605 189.425-106.988 257.81-68.388 68.386-161.101 106.861-257.812 106.99zM512 416.901c-33.069 0-65.396 9.805-92.891 28.175-27.496 18.374-48.927 44.487-61.581 75.039s-15.966 64.17-9.515 96.604c6.452 32.433 22.376 62.225 45.759 85.609s53.176 39.308 85.609 45.759c32.434 6.452 66.053 3.141 96.604-9.514s56.663-34.085 75.039-61.581c18.371-27.496 28.175-59.823 28.175-92.892-0.026-44.335-17.654-86.847-49.004-118.197-31.35-31.348-73.861-48.976-118.195-49.002z" />
<glyph unicode="&#xe915;" glyph-name="play" d="M921.6 448l-819.2-512v1024l819.2-512z" />
<glyph unicode="&#xe916;" glyph-name="plus" d="M652.876-13.864v316.95h316.959c27.764 0 50.79 22.35 50.79 50.795v184.21c0 27.767-22.345 50.794-50.79 50.794h-316.959v316.952c0 27.767-22.35 50.794-50.795 50.794h-183.536c-27.768 0-50.794-22.349-50.794-50.794v-316.952h-316.956c-27.768 0-50.794-22.349-50.794-50.794v-183.533c0-27.768 22.349-50.795 50.794-50.795h316.956v-316.95c0-27.768 22.349-50.795 50.794-50.795h183.536c27.768-0.677 50.795 22.35 50.795 50.118z" />
<glyph unicode="&#xe917;" glyph-name="psychologist" d="M851.998 648.764v-107.339c0-43.448-8.15-85.019-22.965-123.272 12.285-2.382 24.757-3.608 37.171-3.608 17.905 0 35.707 2.542 52.664 7.806 55.275 17.155 93.389 59.958 104.574 117.432 3.126 16.068-7.204 31.675-23.218 35.075-71.969 15.285-75.39 68.045-72.472 153.124 0.386 11.266 0.75 21.906 0.759 32.35 0.066 76.164-52.384 154.041-124.72 185.177-33.644 14.482-70.31 18.18-106.035 10.7-8.291-1.736-16.526-4.090-24.69-6.982 106.448-57.716 178.932-170.749 178.932-300.463zM397.999 522.023c16.544 0 30 13.457 30 30 0 16.541-13.457 30-30 30-16.541 0-29.997-13.46-29.997-30 0-16.544 13.457-30 29.997-30zM626.001 522.023c16.541 0 29.997 13.457 29.997 30 0 16.541-13.457 30-29.997 30-16.544 0-30-13.46-30-30 0-16.544 13.457-30 30-30zM487.078 848.503c5.31 9.458 15.312 15.312 26.16 15.312 10.845 0 20.847-5.854 26.157-15.312 35.253-62.78 101.816-101.78 173.713-101.78 19.805 0 39.21 2.92 57.892 8.592-42.017 102.255-142.484 174.707-258.991 174.707-116.251 0-216.531-72.13-258.715-174.029 19.342-6.12 39.478-9.27 60.071-9.27 71.897 0 138.46 39 173.713 101.78zM512 260.168c153.998 0 279.998 126.566 279.998 281.254v107.342c0 16.661-1.47 32.995-4.271 48.881-24.112-7.25-49.134-10.926-74.629-10.926-77.972 0-151.118 35.24-199.873 94.251-48.754-59.012-121.901-94.251-199.87-94.251-26.342 0-52.146 3.916-76.966 11.64-2.884-16.11-4.39-32.684-4.39-49.595v-107.339c0.002-154.69 126.003-281.257 280-281.257zM398.002 642.021c33.15 0 62.151-18.031 77.767-44.785 11.403 4.692 23.715 7.231 36.232 7.231 12.68 0 24.962-2.473 36.301-7.117 15.631 26.69 44.598 44.67 77.701 44.67 49.625 0 90.001-40.376 90.001-90.001s-40.376-90.001-90.001-90.001c-43.153 0-79.291 30.533-87.992 71.123-6.71 7.225-16.029 11.324-26.007 11.324-9.839 0-19.336-4.192-26.010-11.336-8.704-40.587-44.842-71.111-87.992-71.111-49.625 0-89.998 40.373-89.998 89.998-0.003 49.628 40.37 90.004 89.998 90.004zM769.346 318.654c-62.395-72.514-154.621-118.48-257.349-118.48s-194.955 45.966-257.35 118.48c-142.331-11.451-254.647-130.726-254.647-275.709v-76.791c0-16.571 13.428-30 29.996-30l652.313-0.087v43.427h-13.535c-44.544 0-80.785 36.241-80.785 80.785v15.125c-11.556 4.168-19.817 15.234-19.817 28.226 0 16.568 13.432 30 30 30h1.235c26.79 0 48.586-21.793 48.586-48.583v-24.772c0-11.264 9.517-20.784 20.784-20.784h13.535v62.898c0 16.568 13.432 30 30 30s30-13.432 30-30v-62.898h13.535c11.267 0 20.784 9.517 20.784 20.784v24.775c0 26.79 21.793 48.583 48.583 48.583h1.235c16.568 0 30-13.432 30-30 0-12.993-8.261-24.058-19.817-28.229v-15.125c0-44.544-36.241-80.785-80.785-80.785h-13.535v-43.436l251.681-0.030c7.957 0 15.586 3.159 21.212 8.785s8.788 13.258 8.788 21.215v76.917c0 144.983-112.315 264.258-254.648 275.709z" />
<glyph unicode="&#xe919;" glyph-name="self-confidence" d="M324.774 54.659c0.854 6.175 6.554 10.486 12.716 9.64 6.169-0.854 10.482-6.552 9.63-12.726l-15.34-111.2h364.198l-15.335 111.2c-0.852 6.175 3.459 11.872 9.63 12.726 6.158 0.846 11.864-3.463 12.714-9.64l15.761-114.287h77.955l-33.933 257.221c-7.789 59.007-46.594 110.182-101.286 133.556-23.658 10.111-48.486 17.838-73.863 22.985-1.325-0.674-2.662-1.325-4.004-1.962v-46.596c0-39.528-32.129-71.69-71.621-71.69-39.5 0-71.629 32.16-71.629 71.69v46.596c-1.343 0.637-2.679 1.288-4.006 1.962-25.377-5.147-50.205-12.874-73.863-22.985-54.69-23.374-93.497-74.549-101.284-133.556l-33.933-257.221h81.732l15.761 114.287zM522.957 336.39c-20.177-1.327-40.716 1.022-60.037 6.986v-37.798c0-27.081 22.012-49.111 49.066-49.111 27.064 0 49.076 22.030 49.076 49.111v37.798c-12.345-3.809-25.213-6.144-38.105-6.986zM232.192 197.513c7.756 58.778 41.179 111.059 89.842 143.178-24.736 12.081-65.257 11.944-99.404-23.601 0 0-31.458 68.882-102.411 21.725l46.406 110.76 10.494-4.778c18.171-8.276 39.603-0.215 47.83 17.992l8.536 18.885c11.948 26.44-2.294 57.336-30.142 65.395l-32.943 9.535c-41.417 11.989-85.298-8.624-102.522-48.155l-57.187-131.24c-21.718-49.846-9.77-108.382 30.619-144.757 54.2-48.812 126.799-64.776 186.465-68.436l4.418 33.497zM1013.309 377.207l-57.186 131.248c-17.224 39.53-61.106 60.142-102.523 48.153l-32.944-9.535c-27.849-8.061-42.090-38.957-30.14-65.393l8.534-18.885c8.227-18.207 29.659-26.268 47.831-17.994l10.494 4.78 46.406-110.762c-70.953 47.157-102.41-21.723-102.41-21.723-34.146 35.543-74.67 35.682-99.406 23.599 48.665-32.121 82.090-84.4 89.846-143.176l4.42-33.499c59.664 3.66 132.264 19.624 186.464 68.438 40.385 36.366 52.335 94.902 30.616 144.749zM405.647 710.103c-12.067-10.496-32.926-36.389-44.657-67.070-10.299-26.933-12.939-56.793-7.883-88.904 1.923 0.213 3.85 0.326 5.773 0.342l39.563 59.075c5.169 7.717 15.651 5.304 20.042-1.659 21.93-28.516 56.48-45.345 92.447-44.9 35.297 0.393 67.596 16.458 89.229 44.149v10.097c0 15.35-12.476 27.838-27.81 27.838-6.228 0-11.28 5.054-11.28 11.289s5.040 11.289 11.27 11.289c27.781 0 50.377-22.616 50.377-50.416v-9.591l47.763-52.279c16.511 87.843-46.017 161.505-127.035 186.575-44.513 13.776-84.642 6.259-112.681-32.428-0.004-0.002-13.41 8.681-25.119-3.406zM665.696 530.731l-53.752 59.255c-25.663-28.692-61.688-45.136-100.753-45.574-39.487-0.438-76.063 15.464-102.408 44.016l-38.83-57.897c-16.718 3.918-33.257-9.144-33.257-26.354 0-17.215 16.556-30.288 33.282-26.345 7.805-68.45 75.659-119.237 142.023-119.237 72.667 0 125.305 51.722 143.002 119.017 16.478-3.283 32.379 9.73 32.379 26.565 0 13.117-9.314 24.054-21.684 26.554zM512 836.835c-6.044 0-10.94 4.903-10.94 10.951v96.888c0 6.048 4.897 10.951 10.94 10.951s10.94-4.903 10.94-10.951v-96.888c0-6.048-4.897-10.951-10.94-10.951zM329.57 787.869c-3.783 0-7.459 1.965-9.486 5.477l-48.4 83.909c-3.023 5.236-1.231 11.936 4.004 14.96 5.233 3.028 11.926 1.23 14.944-4.008l48.4-83.909c4.137-7.166-1.184-16.428-9.462-16.428zM196.004 654.158c-1.855 0-3.735 0.475-5.459 1.47l-83.832 48.443c-5.234 3.023-7.026 9.722-4.004 14.959 3.017 5.237 9.704 7.037 14.944 4.010l83.832-48.443c9.31-5.38 5.273-20.439-5.481-20.439zM828.084 654.266c-10.734 0-14.819 15.041-5.48 20.437l83.829 48.441c5.235 3.027 11.926 1.229 14.944-4.008 3.023-5.239 1.231-11.936-4.004-14.959l-83.831-48.443c-1.72-0.993-3.602-1.468-5.458-1.468zM694.456 787.934c-8.278 0-13.599 9.262-9.464 16.428l48.402 83.907c3.021 5.238 9.718 7.030 14.944 4.008 5.235-3.024 7.027-9.721 4.004-14.96l-48.4-83.907c-2.028-3.512-5.708-5.477-9.486-5.477z" />
<glyph unicode="&#xe91a;" glyph-name="stress-relief" d="M631.796 551.798l-6.821 75.622c-0.039 0.34-0.098 0.64-0.221 0.8-0.098 0.16-0.339 0.34-0.618 0.56-0.339 0.16-0.642 0.28-0.859 0.28-0.161 0-0.5-0.1-0.902-0.28l-58.281-27.040c9.823-21.26 15.021-45.342 15.541-69.161 0.681-32.819-7.538-65.477-24.84-90.017l-21.201-30.161 29.661 13.781c20.622 9.578 38.782 28.499 51.302 51.298 12.639 23.060 19.397 49.719 17.239 74.319zM378.156 529.018c0.74-32.54 10.2-65.658 28.282-91.4l17.739-25.218-24.202 11.221c-22.399 10.358-42.079 29.519-55.679 51.98-13.5 22.221-20.86 47.439-18.82 70.179l7.32 81.64c0 0.34 0.1 0.64 0.22 0.8 0.060 0.1 0.28 0.34 0.68 0.56l0.34 0.18c0.18 0.060 0.34 0.12 0.46 0.12 0.18 0 0.52-0.1 0.86-0.28l57.66-26.7c-10.44-21.72-15.38-47.34-14.86-73.082zM546.296 531.901c0.52-26.021-5.66-51.48-18.822-70.16l-47.12-67.060c-0.221-0.28-0.437-0.5-0.559-0.559-0.158-0.122-0.441-0.122-0.898-0.122-0.402 0-0.701 0-0.863 0.059v0.063c-0.158 0.098-0.398 0.28-0.618 0.559l-43.662 62.137c-14.218 20.244-21.721 46.624-22.28 72.862-0.559 26.021 5.66 51.52 18.822 70.18l47.12 67.020c0.221 0.28 0.441 0.5 0.618 0.62l0.122 0.060c0.177 0 0.461 0.060 0.74 0.060 0.437 0 0.74-0.060 0.898-0.12 0.102-0.1 0.339-0.28 0.559-0.62l43.662-62.080c0.898-1.3 1.8-2.6 2.658-3.96 0.122-0.22 0.221-0.44 0.402-0.62 12.241-19.56 18.7-43.999 19.22-68.319zM810.835 485.64c-6.341-234.819-227.281-230.739-114.337-503.938 4.36-10.543 3.277-21.543-3.060-31.023-6.341-9.48-16.1-14.679-27.502-14.679h-344.199c-15.48 0-28.52 10.201-32.14 25.222l-18.48 76.016c-121.44-24.718-207.56-20.578-158.8 93.822-29.66 10.142-39.34 40.539-6.12 54.079-16.84 4.88-44.68 27.561-14.74 53.343-29.020 0.8-91.040 1.237-49.88 67.797 83.62 107.323 62.020 136.401 67.24 194.123 32.080 354.379 674.3 420.079 702.019-14.761zM664.954 554.701l-6.739 75.579c-0.559 5.84-2.379 11.22-5.321 15.88-2.997 4.7-7.077 8.62-12.138 11.5-5.041 2.9-10.48 4.48-16.041 4.76-5.557 0.22-11.059-0.86-16.278-3.28l-61.68-28.58-39.121 55.56c-3.281 4.76-7.601 8.44-12.52 11.060-4.978 2.56-10.441 3.92-16.219 3.92-5.321 0-10.382-1.14-15.021-3.34-0.402-0.18-0.859-0.34-1.241-0.56-4.88-2.56-9.121-6.3-12.52-11.060l-39.058-55.56-61.681 28.58c-5.22 2.44-10.78 3.52-16.32 3.28-5.1-0.22-10.1-1.58-14.8-4.14-0.4-0.16-0.86-0.4-1.24-0.62-4.98-2.9-9.080-6.8-12.080-11.5-2.94-4.64-4.82-10.040-5.32-15.88l-7.32-81.582c-2.66-29.94 6.52-62.299 23.52-90.36 16.9-27.837 41.66-51.759 70.24-65.020l68.821-31.917c5.278-2.442 10.78-3.521 16.321-3.281 2.599 0.118 5.218 0.5 7.719 1.241 2.497-0.74 5.1-1.142 7.719-1.241 5.561-0.221 11.059 0.859 16.278 3.281l74.382 34.458c27.321 12.642 50.798 36.86 66.56 65.603 15.6 28.42 23.942 61.798 21.098 93.219zM433.597 905.62c-2.261 1.020-3.619 3.18-3.619 5.7 0 2.48 1.359 4.64 3.619 5.72 17.337 8.040 31.279 22.040 39.337 39.34 1.083 2.26 3.222 3.62 5.723 3.62 2.497 0 4.659-1.36 5.66-3.66 8.038-17.28 22.059-31.3 39.4-39.34 2.261-1.080 3.619-3.22 3.619-5.72 0-2.48-1.359-4.64-3.619-5.66-17.341-8.040-31.303-22.060-39.4-39.4-1.020-2.26-3.182-3.62-5.66-3.62-2.481 0-4.64 1.36-5.66 3.62-8.101 17.34-22.063 31.34-39.4 39.4zM992.536 535.261c2.261-1.079 3.619-3.241 3.619-5.719 0-2.481-1.359-4.58-3.619-5.664-17.278-8.038-31.279-22.040-39.341-39.337-1.079-2.261-3.237-3.619-5.719-3.619s-4.64 1.359-5.66 3.619c-8.042 17.278-22.040 31.299-39.341 39.337-2.261 1.063-3.619 3.163-3.619 5.664 0 2.477 1.359 4.64 3.619 5.719 17.282 8.038 31.279 22.040 39.341 39.339 1.020 2.26 3.178 3.62 5.66 3.62s4.64-1.36 5.719-3.62c8.042-17.28 22.040-31.281 39.341-39.339z" />
<glyph unicode="&#xe91b;" glyph-name="suitcase" d="M618.667 277.333c11.733 0 21.333 9.6 21.333 21.333v21.333h-256v-21.333c0-11.733 9.6-21.333 21.333-21.333h213.333zM917.333 746.667h-213.333v64c0 58.816-47.852 106.667-106.667 106.667h-170.667c-58.815 0-106.667-47.851-106.667-106.667v-64h-213.333c-35.2 0-64-28.8-64-64v-170.667c0.192-27.691 7.979-55.424 22.677-78.72 26.389-42.305 73.216-70.613 126.656-70.613h640c82.796-0.492 149.589 69.163 149.333 149.333v170.667c0 35.2-28.8 64-64 64zM661.333 746.667h-298.667v64c0 35.285 28.715 64 64 64h170.667c35.285 0 64-28.715 64-64v-64zM192 320.003c-49.195 0-93.973 18.773-128 49.345v-284.012c0-58.815 47.851-106.667 106.667-106.667h682.667c58.815 0 106.667 47.852 106.667 106.667v284.012c-34.028-30.572-78.805-49.345-128-49.345h-149.333v-21.333c0-35.2-28.8-64-64-64h-213.333c-35.2 0-64 28.8-64 64v21.333h-149.333z" />
<glyph unicode="&#xe91c;" glyph-name="telephone-call" d="M915.366 240.989c-26.323 22.112-180.706 120.036-206.366 115.543-12.047-2.144-21.263-12.433-45.929-41.906-11.409-14.505-23.931-28.094-37.466-40.635-24.793 5.999-48.792 14.908-71.499 26.546-89.049 43.43-160.99 115.507-204.318 204.714-11.618 22.744-20.514 46.782-26.504 71.616 12.521 13.554 26.085 26.102 40.568 37.527 29.395 24.707 39.695 33.878 41.833 46.004 4.488 25.763-93.365 180.337-115.351 206.703-9.216 10.92-17.589 18.251-28.311 18.251-31.081 0-171.671-174.122-171.671-196.687 0-1.84 3.012-183.112 231.575-416.029 232.538-228.936 413.515-231.954 415.352-231.954 22.528 0 196.367 140.818 196.367 171.954 0 10.74-7.319 19.125-18.281 28.353zM722.824 493.195h60.235c-0.072 63.969-25.48 125.296-70.65 170.529s-106.412 70.676-170.291 70.748v-60.319c47.912-0.048 93.847-19.128 127.723-53.054 33.882-33.926 52.935-79.925 52.983-127.903zM873.412 493.186h60.235c-0.12 103.972-41.406 203.652-114.808 277.172s-172.917 114.875-276.721 114.995v-60.333c87.833-0.104 172.038-35.098 234.147-97.307s97.045-146.551 97.147-234.527z" />
<glyph unicode="&#xe91d;" glyph-name="therapy" d="M602.38 486.466c65.31-56.492 72.488-63.508 89.62-78.604 15.142 13.342 25.554 23.189 89.62 78.604 126.677 109.657 210.379 182.109 210.379 291.241 0 101.102-72.479 182.292-165 182.292-64.482 0-109.393-31.114-134.999-55.928-25.606 24.814-70.519 55.928-135.001 55.928-92.519 0-165-81.19-165-182.292 0-109.132 83.701-181.584 210.38-291.241zM602 718h60.001v60.001h59.999v-60.001h60.001v-60.001h-60.001v-59.999h-59.999v59.999h-60.001v60.001zM873.959 363.64l-150.933-142.164c-27.833-27.86-65.509-43.475-105.586-43.475h-225.44v60.001h225.44c58.146 0 104.559 59.109 104.559 120h-343.885c-26.132 0-51.914-6.856-74.296-19.688l-303.818-168.604 154.454-233.709 186.455 122h326.219c40.079 0 77.755 15.615 105.851 43.71l251.021 243.633c0 0-21.906 21.906-22.139 22.134-34.838 34.35-92.525 29.957-127.902-3.838z" />
</font>
</defs>
</svg>
