<?xml version="1.0" standalone="no"?>
<!DOCTYPE svg PUBLIC "-//W3C//DTD SVG 1.1//EN" "http://www.w3.org/Graphics/SVG/1.1/DTD/svg11.dtd" >
<svg>
<metadata>
Created by FontForge 20090914 at Sat Jan  2 10:03:21 2021
 By www-data
Copyright (c) 1995, The Font Bureau, Inc. 1995, 1997, 1998.  All rights reserved.
</metadata>
<defs>
<font id="AgencyFB-Reg" horiz-adv-x="819" >
  <font-face 
    font-family="Agency FB"
    font-weight="400"
    font-stretch="condensed"
    units-per-em="2048"
    panose-1="2 11 5 3 2 2 2 2 2 4"
    ascent="1638"
    descent="-410"
    x-height="973"
    cap-height="1565"
    bbox="-326 -410 1889 2015"
    underline-thickness="102"
    underline-position="-209"
    unicode-range="U+0020-U+F002"
  />
<missing-glyph horiz-adv-x="1024" 
d="M128 0v1633h768v-1633h-768zM256 128h512v1377h-512v-1377z" />
    <glyph glyph-name=".notdef" horiz-adv-x="1024" 
d="M128 0v1633h768v-1633h-768zM256 128h512v1377h-512v-1377z" />
    <glyph glyph-name="space" unicode=" " horiz-adv-x="401" 
 />
    <glyph glyph-name="exclam" unicode="!" horiz-adv-x="408" 
d="M281 1565l-31 -1213h-92l-31 1213h154zM279 0h-150v176h150v-176z" />
    <glyph glyph-name="quotedbl" unicode="&#x22;" horiz-adv-x="629" 
d="M530 1565l-28 -492h-88l-29 492h145zM244 1565l-31 -492h-86l-31 492h148z" />
    <glyph glyph-name="numbersign" unicode="#" horiz-adv-x="1067" 
d="M1016 1022h-195l-84 -479h207v-115h-227l-76 -428h-127l78 428h-242l-74 -428h-126l75 428h-174v115h195l84 479h-207v115h227l76 428h127l-78 -428h242l74 428h127l-76 -428h174v-115zM696 1022h-241l-84 -479h239z" />
    <glyph glyph-name="dollar" unicode="$" horiz-adv-x="850" 
d="M729 121c0 -75.333 -51.667 -113 -155 -113c-11.333 0 -27.166 0.333008 -47.499 1s-34.833 1 -43.5 1v-133h-121v133c-8 0 -22 -0.333008 -42 -1s-35.333 -1 -46 -1c-103.333 0 -155 37.667 -155 113v387h139v-381h104v645l-198 246c-30 37.333 -45 77 -45 119v307
c0 75.333 51.667 113 155 113c10.667 0 26 -0.5 46 -1.5s34 -1.5 42 -1.5v134h121v-134c8.66699 0 23.167 0.5 43.5 1.5s36.166 1.5 47.499 1.5c103.333 0 155 -37.667 155 -113v-354h-139v348h-107v-604l201 -244c30 -36.667 45 -75.667 45 -117v-352zM362 975v463h-104
v-330zM590 127v375l-107 129v-504h107z" />
    <glyph glyph-name="percent" unicode="%" horiz-adv-x="1372" 
d="M1157 1556l-860 -1556h-115v8l861 1557h114v-9zM1284 102c0 -28 -9.49902 -52.001 -28.499 -72.001s-42.167 -30 -69.5 -30h-291c-24.667 0 -46.834 10.833 -66.501 32.5s-29.5 44.834 -29.5 69.501v591c0 24 10 47.167 30 69.5s42 33.5 66 33.5h291
c26 0 48.833 -10.667 68.5 -32s29.5 -45 29.5 -71v-591zM1163 111.999v567h-243v-567h243zM545.001 870.999c0 -28 -9.49902 -52.001 -28.499 -72.001s-42.167 -30 -69.5 -30h-291c-24.667 0 -46.834 10.833 -66.501 32.5s-29.5 44.834 -29.5 69.501v591
c0 24 10 47.167 30 69.5s42 33.5 66 33.5h291c26 0 48.833 -10.667 68.5 -32s29.5 -45 29.5 -71v-591zM424.002 880.998v567h-243v-567h243z" />
    <glyph glyph-name="ampersand" unicode="&#x26;" horiz-adv-x="891" 
d="M850 756l-115 -0.00195312v-756h-506c-32.667 0 -59.167 10.333 -79.5 31s-30.5 47.334 -30.5 80.001v532c0 44.667 17 78 51 100l117 76l-109 66c-36.667 28.667 -55 63.334 -55 104.001v465c0 32.667 10.333 59.334 31 80.001s47 31 79 31h396
c32.667 0 59.5 -10.333 80.5 -31s31.5 -47.334 31.5 -80.001v-328h-139v316h-342v-471l141 -94h449v-121zM598 122.998v633h-199l-143 -92v-541h342z" />
    <glyph glyph-name="quotesingle" unicode="'" horiz-adv-x="340" 
d="M244 1565l-31 -492h-86l-31 492h148z" />
    <glyph glyph-name="parenleft" unicode="(" horiz-adv-x="539" 
d="M473 -201h-121c-165.333 268.667 -248 563 -248 883s82.667 614.333 248 883h121v-11c-81.333 -147.333 -139.666 -287.333 -174.999 -420c-36 -136 -54 -286.667 -54 -452s18 -316 54 -452c35.333 -132.667 93.666 -272.667 174.999 -420v-11z" />
    <glyph glyph-name="parenright" unicode=")" horiz-adv-x="539" 
d="M434 682c0 -320 -82.667 -614.333 -248 -883h-118v11c81.333 147.333 139.333 287.333 174 420c36.667 136 55 286.667 55 452s-18.333 316 -55 452c-34.667 132.667 -92.667 272.667 -174 420v11h118c165.333 -268.667 248 -563 248 -883z" />
    <glyph glyph-name="asterisk" unicode="*" horiz-adv-x="813" 
d="M715 1143l-66 -109l-207 154l25 -260h-123l27 260l-209 -154l-64 109l240 102l-240 105l64 106l209 -151l-27 260h123l-25 -260l207 151l66 -106l-240 -105z" />
    <glyph glyph-name="plus" unicode="+" horiz-adv-x="838" 
d="M769 629h-288v-283h-123v283h-288v116h288v283h123v-283h288v-116z" />
    <glyph glyph-name="comma" unicode="," horiz-adv-x="340" 
d="M266 176l-88 -287h-96l29 287h155z" />
    <glyph glyph-name="hyphen" unicode="-" horiz-adv-x="604" 
d="M508 535h-412v124h412v-124z" />
    <glyph glyph-name="hyphen" unicode="&#x2010;" horiz-adv-x="604" 
d="M508 535h-412v124h412v-124z" />
    <glyph glyph-name="period" unicode="." horiz-adv-x="340" 
d="M246 0h-152v176h152v-176z" />
    <glyph glyph-name="slash" unicode="/" horiz-adv-x="885" 
d="M840 1556l-662 -1556h-133v8l662 1557h133v-9z" />
    <glyph glyph-name="zero" unicode="0" horiz-adv-x="889" 
d="M764 111c0 -32.667 -10.667 -59.334 -32 -80.001s-48.333 -31 -81 -31h-415c-32.667 0 -59.334 10.333 -80.001 31s-31 47.334 -31 80.001v1343c0 32.667 10.333 59.334 31 80.001s47.334 31 80.001 31h415c32.667 0 59.667 -10.333 81 -31s32 -47.334 32 -80.001v-1343z
M625 123v1319h-361v-1319h361z" />
    <glyph glyph-name="one" unicode="1" horiz-adv-x="416" 
d="M281 0h-140v1085h-61v5l88 475h113v-1565z" />
    <glyph glyph-name="two" unicode="2" horiz-adv-x="799" 
d="M707 0h-621.002v74l479 995v373h-319v-352h-140v364c0 32.667 10.333 59.334 31 80.001s47.334 31 80.001 31h377c32.667 0 59.334 -10.333 80.001 -31s31 -47.334 31 -80.001v-332c0 -40 -12.333 -85.667 -37 -137l-414 -862h453v-123z" />
    <glyph glyph-name="three" unicode="3" horiz-adv-x="864" 
d="M750 111c0 -32.667 -10.333 -59.334 -31 -80.001s-47.334 -31 -80.001 -31h-403c-32.667 0 -59.334 10.333 -80.001 31s-31 47.334 -31 80.001v397h139v-385h346v479l-276 207v31l274 204v398h-342v-352h-139v364c0 32.667 10.333 59.334 31 80.001s47.334 31 80.001 31
h399c32.667 0 59.334 -10.333 80.001 -31s31 -47.334 31 -80.001v-381c0 -50 -20 -89 -60 -117l-186 -131l188 -131c40 -27.333 60 -67 60 -119v-464z" />
    <glyph glyph-name="four" unicode="4" horiz-adv-x="784" 
d="M735 408h-119v-408h-131v408h-442v71l379 1086h131v-6l-360 -1033h292v568h131v-568h119v-118z" />
    <glyph glyph-name="five" unicode="5" horiz-adv-x="842" 
d="M727 111c0 -32.667 -10.333 -59.333 -31 -80s-47.334 -31 -80.001 -31h-385c-32.667 -0 -59.167 10.333 -79.5 31s-30.5 47.334 -30.5 80.001v397h139v-385h328v737h-463l18 705h572v-123h-436l-17 -459h354c32.667 0 59.334 -10.333 80.001 -31s31 -47.334 31 -80.001
v-761z" />
    <glyph glyph-name="six" unicode="6" horiz-adv-x="868" 
d="M745 111c0 -32.667 -10.167 -59.334 -30.5 -80.001s-46.833 -31 -79.5 -31h-399c-32.667 0 -59.334 10.333 -80.001 31s-31 47.334 -31 80.001v1343c0 32.667 10.333 59.334 31 80.001s47.334 31 80.001 31h395c32.667 0 59.167 -10.333 79.5 -31
s30.5 -47.334 30.5 -80.001v-346h-139v334h-338v-580h371c32.667 0 59.167 -10.167 79.5 -30.5s30.5 -46.833 30.5 -79.5v-641zM606 123v618h-342v-618h342z" />
    <glyph glyph-name="seven" unicode="7" horiz-adv-x="743" 
d="M692 1493l-336 -1493h-137l326 1442h-334v-230h-139v353h620v-72z" />
    <glyph glyph-name="eight" unicode="8" horiz-adv-x="883" 
d="M756 111c0 -32.667 -10.6689 -59.335 -32.002 -80.002s-48.333 -31 -81 -31h-412c-32.667 0 -59.167 10.333 -79.5 31s-30.5 47.334 -30.5 80.001v510c0 44.667 17 78 51 100l152 98l-148 92c-34 21.333 -51 55 -51 101v442c0 32.667 10.333 59.334 31 80.001
s47.334 31 80.001 31h405c32.667 0 59.334 -10.333 80.001 -31s31 -47.334 31 -80.001v-442c0 -46 -17.333 -79.667 -52 -101l-147 -92l149 -98c36 -23.333 54 -56.666 54 -99.999v-510zM611.998 992.999v449h-348v-449l174 -116zM615.998 122.999v518l-178 117l-178 -117
v-518h356z" />
    <glyph glyph-name="nine" unicode="9" horiz-adv-x="868" 
d="M739 111c0 -32.667 -10.167 -59.335 -30.5 -80.002s-46.833 -31 -79.5 -31h-391c-32.667 0 -59.667 10.333 -81 31s-32 47.334 -32 80.001v346h139v-334h336v579h-371c-32.667 0 -59.167 10.333 -79.5 31s-30.5 47.334 -30.5 80.001v641
c0 32.667 10.167 59.334 30.5 80.001s46.833 31 79.5 31h400c32.667 0 59.167 -10.333 79.5 -31s30.5 -47.334 30.5 -80.001v-1343zM600 822.999v619h-342v-619h342z" />
    <glyph glyph-name="colon" unicode=":" horiz-adv-x="340" 
d="M246 676h-152v176h152v-176zM246 0h-152v176h152v-176z" />
    <glyph glyph-name="semicolon" unicode=";" horiz-adv-x="340" 
d="M246 676h-152v176h152v-176zM252 176l-90 -287h-96l28 287h158z" />
    <glyph glyph-name="less" unicode="&#x3c;" horiz-adv-x="698" 
d="M584 242h-6l-502 376v72l508 379v-139l-371 -275l371 -274v-139z" />
    <glyph glyph-name="equal" unicode="=" horiz-adv-x="903" 
d="M801 756h-699v121h699v-121zM801 391h-699v119h699v-119z" />
    <glyph glyph-name="greater" unicode="&#x3e;" horiz-adv-x="698" 
d="M623 618l-508 -376v139l370 274l-370 275v139h8l500 -379v-72z" />
    <glyph glyph-name="question" unicode="?" horiz-adv-x="782" 
d="M688 1102c0 -40 -10.333 -75.667 -31 -107l-204 -311v-332h-140v299c0 44 9.66699 80.333 29 109l207 309v373h-320v-352h-139v364c0 32.667 10.667 59.334 32 80.001s48.333 31 81 31h372c33.333 0 60.5 -10.333 81.5 -31s31.5 -47.334 31.5 -80.001v-352zM459 0h-152
v176h152v-176z" />
    <glyph glyph-name="at" unicode="@" horiz-adv-x="1155" 
d="M1030 0h-840c-43.333 0 -65 22 -65 66v1433c0 44 21.667 66 65 66h775c43.333 0 65 -22 65 -66v-1087c0 -44 -21.667 -66 -65 -66h-508c-48 0 -72 23.333 -72 70v368c0 48 24 72 72 72h209v279h-172v-164h-101v184c0 48 24 72 72 72h229c48 0 72 -24 72 -72v-733h188
v1073h-753v-1425h829v-70zM666 436v330h-179v-330h179z" />
    <glyph glyph-name="A" unicode="A" 
d="M756 0h-138l-55 348h-311l-55 -348h-134v4l279 1565h137zM545 471l-137 848l-138 -848h275z" />
    <glyph glyph-name="B" unicode="B" horiz-adv-x="870" 
d="M752 111c0 -32.667 -10.333 -59.333 -31 -80s-47.334 -31 -80.001 -31h-516v1565h512c32.667 0 59.334 -10.333 80.001 -31s31 -47.334 31 -80.001v-465c0 -41.333 -18.667 -76 -56 -104l-110 -66l118 -76c34.667 -21.333 52 -54.666 52 -99.999v-532zM608 971.001v471
h-344v-565h205zM612 123.001v541l-141 92h-207v-633h348z" />
    <glyph glyph-name="C" unicode="C" horiz-adv-x="870" 
d="M752 111c0 -32.667 -10.667 -59.334 -32 -80.001s-48.333 -31 -81 -31h-403c-32.667 0 -59.334 10.333 -80.001 31s-31 47.334 -31 80.001v1343c0 32.667 10.333 59.334 31 80.001s47.334 31 80.001 31h403c32.667 0 59.667 -10.333 81 -31s32 -47.334 32 -80.001v-364
h-140v352h-348v-1319h348v385h140v-397z" />
    <glyph glyph-name="D" unicode="D" horiz-adv-x="889" 
d="M770 283c0 -82.667 -27.167 -150.5 -81.5 -203.5s-122.833 -79.5 -205.5 -79.5h-358v1565h358c83.333 0 152 -26.5 206 -79.5s81 -120.833 81 -203.5v-999zM631 297l-0.000976562 973c0 51.333 -16.167 92.833 -48.5 124.5s-74.166 47.5 -125.499 47.5h-193v-1319h185
c54 0 97.833 15.5 131.5 46.5s50.5 73.5 50.5 127.5z" />
    <glyph glyph-name="E" unicode="E" horiz-adv-x="731" 
d="M639 0h-514v1565h508v-123h-369v-584h336v-125h-336v-610h375v-123z" />
    <glyph glyph-name="F" unicode="F" horiz-adv-x="696" 
d="M629 1442h-365v-594h336v-125h-336v-723h-139v1565h504v-123z" />
    <glyph glyph-name="G" unicode="G" horiz-adv-x="881" 
d="M758 111c0 -32.667 -10.333 -59.334 -31 -80.001s-47.334 -31 -80.001 -31h-411c-32.667 0 -59.334 10.333 -80.001 31s-31 47.334 -31 80.001v1343c0 32.667 10.333 59.334 31 80.001s47.334 31 80.001 31h411c32.667 0 59.334 -10.333 80.001 -31
s31 -47.334 31 -80.001v-364h-140v352h-354v-1319h354v541h-167v120h307v-673z" />
    <glyph glyph-name="H" unicode="H" horiz-adv-x="905" 
d="M780 0h-139v752h-377v-752h-139v1565h139v-688h377v688h139v-1565z" />
    <glyph glyph-name="I" unicode="I" horiz-adv-x="408" 
d="M272 0h-139v1565h139v-1565z" />
    <glyph glyph-name="J" unicode="J" horiz-adv-x="801" 
d="M676 111c0 -32.667 -10.3311 -59.334 -30.998 -80.001s-47.334 -31 -80.001 -31h-364c-32.667 0 -59.334 10.333 -80.001 31s-31 47.334 -31 80.001v397h139v-385h308v1442h139v-1454z" />
    <glyph glyph-name="K" unicode="K" horiz-adv-x="788" 
d="M778 0h-153l-361 752v-752h-139v1565h139v-703l328 703h151v-9l-354 -745z" />
    <glyph glyph-name="L" unicode="L" horiz-adv-x="690" 
d="M625 0h-500v1565h139v-1442h361v-123z" />
    <glyph glyph-name="M" unicode="M" horiz-adv-x="1024" 
d="M899 0h-130.999v991c0 14 4.66699 55 14 123l-256 -967h-28l-256 967c9.33301 -68.667 14 -109.667 14 -123v-991h-131v1565h129l254 -1018c1.33301 -5.33301 2.66602 -20.333 3.99902 -45c0 10 1.33301 25 4 45l254 1018h129v-1565z" />
    <glyph glyph-name="N" unicode="N" horiz-adv-x="895" 
d="M770 0h-96l-418 1151v-1151h-131v1565h104l410 -1131v1131h131v-1565z" />
    <glyph glyph-name="O" unicode="O" horiz-adv-x="911" 
d="M786 111c0 -32.667 -10.5 -59.334 -31.5 -80.001s-47.833 -31 -80.5 -31h-438c-32.667 0 -59.334 10.333 -80.001 31s-31 47.334 -31 80.001v1343c0 32.667 10.333 59.334 31 80.001s47.334 31 80.001 31h438c32.667 0 59.5 -10.333 80.5 -31s31.5 -47.334 31.5 -80.001
v-1343zM647 123v1319h-383v-1319h383z" />
    <glyph glyph-name="P" unicode="P" horiz-adv-x="840" 
d="M745 733c0 -32.667 -10.5 -59.499 -31.5 -80.499s-47.833 -31.5 -80.5 -31.5h-369v-621h-139v1565h508c32.667 0 59.5 -10.333 80.5 -31s31.5 -47.334 31.5 -80.001v-721zM606 745.001v697h-342v-697h342z" />
    <glyph glyph-name="Q" unicode="Q" horiz-adv-x="922" 
d="M893 -2l-12 -0.000976562l-103 84c-12 -54.667 -46 -82 -102 -82h-440c-32.667 0 -59.334 10.333 -80.001 31s-31 47.334 -31 80.001v1343c0 32.667 10.333 59.334 31 80.001s47.334 31 80.001 31h440c32.667 0 59.167 -10.333 79.5 -31s30.5 -47.334 30.5 -80.001v-1233
l107 -86v-137zM647 122.999v61l-166 138v137h13l153 -127v1110h-383v-1319h383z" />
    <glyph glyph-name="R" unicode="R" horiz-adv-x="874" 
d="M791 0l-146.001 0.000976562l-291 838l19 28h248v576h-357v-1442h-139v1565h524c32.667 0 59.334 -10.333 80.001 -31s31 -47.334 31 -80.001v-594c0 -75.333 -50.667 -113 -152 -113c-10 0 -24.667 0.5 -44 1.5s-33.333 1.5 -42 1.5z" />
    <glyph glyph-name="S" unicode="S" horiz-adv-x="856" 
d="M735 111c0 -32.667 -10.167 -59.334 -30.5 -80.001s-46.833 -31 -79.5 -31h-394c-32.667 0 -59.5 10.333 -80.5 31s-31.5 47.334 -31.5 80.001v397h139v-385h338v373l-432 522c-30 36 -45 75.667 -45 119v317c0 32.667 10.5 59.334 31.5 80.001s47.833 31 80.5 31h394
c32.667 0 59.167 -10.333 79.5 -31s30.5 -47.334 30.5 -80.001v-364h-139v352h-338v-330l434 -522c28.667 -34.667 43 -73.667 43 -117v-362z" />
    <glyph glyph-name="T" unicode="T" horiz-adv-x="702" 
d="M664 1442h-242v-1442h-139v1442h-244v123h625v-123z" />
    <glyph glyph-name="U" unicode="U" horiz-adv-x="899" 
d="M774 111c0 -32.667 -10.499 -59.334 -31.499 -80.001s-47.833 -31 -80.5 -31h-426c-32.667 0 -59.334 10.333 -80.001 31s-31 47.334 -31 80.001v1454h139v-1442h371v1442h139v-1454z" />
    <glyph glyph-name="V" unicode="V" horiz-adv-x="799" 
d="M736 1565l-271 -1569h-131l-271 1569h138l194 -1246l6 -102c0.666992 23.333 3 57.333 7 102l194 1246h134z" />
    <glyph glyph-name="W" unicode="W" horiz-adv-x="1122" 
d="M1061 1565l-212.998 -1569h-113l-170 1180c-0.666992 20.667 -2 51.334 -4 92.001c0 -21.333 -1.33301 -52 -4 -92l-170 -1180h-113l-213 1569h138l133 -1129c0.666992 -25.333 2 -62.666 4 -111.999c-0.666992 25.333 0.666016 62.666 3.99902 111.999l162 1129h119
l161 -1129c1.33301 -25.333 2.66602 -62.666 3.99902 -111.999c0 25.333 1.66699 62.666 5 111.999l133 1129h137z" />
    <glyph glyph-name="X" unicode="X" horiz-adv-x="786" 
d="M743 0h-143l-209 643l-209 -643h-139v8l279 793c-176 506.667 -263.667 761.334 -263 764.001h146l188 -594l195 594h139v-9l-260 -747c185.333 -536.667 277.333 -806.334 276 -809.001z" />
    <glyph glyph-name="Y" unicode="Y" horiz-adv-x="799" 
d="M754 1556l-190.001 -633c-24 -63.333 -55.667 -169 -95 -317v-606h-139v606c-9.33301 50.667 -23.666 104 -42.999 160c-32 96 -49.333 148.333 -52 157l-190 633v9h141l215 -783l213 783h140v-9z" />
    <glyph glyph-name="Z" unicode="Z" horiz-adv-x="705" 
d="M649 0h-600v74l440 1368h-397v123h557v-72l-440 -1370h440v-123z" />
    <glyph glyph-name="bracketleft" unicode="[" horiz-adv-x="594" 
d="M506 -248l-266 -0.00195312c-32.667 0 -59.334 10.333 -80.001 31s-31 47.334 -31 80.001v1591c0 32.667 10.333 59.334 31 80.001s47.334 31 80.001 31h266v-123h-238v-1567h238v-123z" />
    <glyph glyph-name="backslash" unicode="\" horiz-adv-x="885" 
d="M840 0h-133l-662 1565h133z" />
    <glyph glyph-name="bracketright" unicode="]" horiz-adv-x="594" 
d="M467 -137c0 -32.667 -10.667 -59.332 -32 -79.999s-48.333 -31 -81 -31h-266v123h240v1567h-240v123h266c32.667 0 59.667 -10.333 81 -31s32 -47.334 32 -80.001v-1591z" />
    <glyph glyph-name="asciicircum" unicode="^" 
d="M723 1012h-113l-202 387l-203 -387h-109v8l262 545h105z" />
    <glyph glyph-name="underscore" unicode="_" horiz-adv-x="739" 
d="M739 -410h-739v111h739v-111z" />
    <glyph glyph-name="grave" unicode="`" 
d="M627 1059h-92l-246 231v4h188l150 -229v-6z" />
    <glyph glyph-name="a" unicode="a" horiz-adv-x="768" 
d="M659 0h-131.001v27l-158 -21c-65.333 -8 -117.666 -12 -156.999 -12c-72.667 0 -109 36 -109 108v355c0 74.667 37.667 112 113 112h313v293h-286v-166h-129v164c0 75.333 37.333 113 112 113h320c74.667 0 112 -37.667 112 -113v-860zM529.999 121v344h-297v-350z" />
    <glyph glyph-name="b" unicode="b" horiz-adv-x="776" 
d="M668 209c0 -60 -19.668 -109.833 -59.001 -149.5s-88.666 -59.5 -147.999 -59.5h-352v1565h133v-619l158 20c66.667 8.66699 119 13 157 13c74 0 111 -36.333 111 -109v-661zM534.999 229v625l-293 -8v-729h184c72.667 0 109 37.333 109 112z" />
    <glyph glyph-name="c" unicode="c" horiz-adv-x="756" 
d="M649 113c0 -75.333 -37.333 -113 -112 -113h-316c-74.667 0 -112 37.667 -112 113v747c0 75.333 37.333 113 112 113h316c74.667 0 112 -37.667 112 -113v-194h-131v190h-276v-739h276v217h131v-221z" />
    <glyph glyph-name="d" unicode="d" horiz-adv-x="772" 
d="M662 0l-131.998 0.000976562v27c-142.667 -22 -221.667 -33 -237 -33c-56.667 0 -102.334 19.167 -137.001 57.5s-52 86.166 -52 143.499v569c0 60 19.667 109.833 59 149.5s88.666 59.5 147.999 59.5h219v592h132v-1565zM530.002 121.001l0.000976562 735h-184
c-73.333 0 -110 -37.667 -110 -113v-520c0 -74.667 36.667 -112 110 -112c17.333 0 78.666 3.33301 183.999 10z" />
    <glyph glyph-name="e" unicode="e" horiz-adv-x="764" 
d="M653 113c0 -75.333 -37.333 -113 -112 -113h-320c-74.667 0 -112 37.667 -112 113v747c0 75.333 37.333 113 112 113h320c74.667 0 112 -37.667 112 -113v-350l-45 -47h-370v-352h286v178h129v-176zM524 569v293h-286v-293h286z" />
    <glyph glyph-name="f" unicode="f" horiz-adv-x="487" 
d="M477 1448h-188v-475h166v-117h-166v-856h-131v856h-113v117h113v479c0 75.333 37.333 113 112 113h207v-117z" />
    <glyph glyph-name="g" unicode="g" horiz-adv-x="772" 
d="M662 -256c0 -75.333 -37.6689 -112.998 -113.002 -112.998h-316c-76.667 0 -115 47.667 -115 143c0 11.333 0.5 28.166 1.5 50.499s1.5 38.5 1.5 48.5h131v-129h278v256h-219c-59.333 0 -108.666 19.833 -147.999 59.5s-59 89.5 -59 149.5v569
c0 57.333 17.333 105.166 52 143.499s80.334 57.5 137.001 57.5c15.333 0 94.333 -11 237 -33v27h132v-1229zM529.998 117.002l-0.000976562 735c-105.333 6.66699 -166.666 10 -183.999 10c-73.333 0 -110 -37.333 -110 -112v-521c0 -74.667 36.667 -112 110 -112h184z" />
    <glyph glyph-name="h" unicode="h" horiz-adv-x="774" 
d="M668 0h-133v854l-293 -8v-846h-133v1565h133v-619l158 20c66.667 8.66699 119 13 157 13c74 0 111 -36.333 111 -109v-870z" />
    <glyph glyph-name="i" unicode="i" horiz-adv-x="365" 
d="M250 1186h-135v168h135v-168zM248 0h-131v973h131v-973z" />
    <glyph glyph-name="j" unicode="j" horiz-adv-x="365" 
d="M250 1186h-135v168h135v-168zM248 -256c0 -75.333 -37.667 -113 -113 -113h-166v117h148v1225h131v-1229z" />
    <glyph glyph-name="k" unicode="k" horiz-adv-x="686" 
d="M655 0h-145l-268 496v-496h-133v1565h133v-994l250 402h143v-4l-283 -430z" />
    <glyph glyph-name="l" unicode="l" horiz-adv-x="365" 
d="M248 0h-131v1565h131v-1565z" />
    <glyph glyph-name="m" unicode="m" horiz-adv-x="1194" 
d="M1087 0h-132.999v854l-290 -8v-846h-132v854l-290 -8v-846h-133v973h133v-27l156 21c63.333 8 115.666 12 156.999 12c40.667 0 70.667 -12.333 90 -37l167 23c72.667 9.33301 127.667 14 165 14c73.333 0 110 -36.333 110 -109v-870z" />
    <glyph glyph-name="n" unicode="n" horiz-adv-x="774" 
d="M668 0h-133v854l-293 -8v-846h-133v973h133v-27l157 21c64 8 116.667 12 158 12c74 0 111 -36.333 111 -109v-870z" />
    <glyph glyph-name="o" unicode="o" horiz-adv-x="776" 
d="M668 113c0 -75.333 -37.667 -113 -113 -113h-334c-74.667 0 -112 37.667 -112 113v747c0 75.333 37.333 113 112 113h334c75.333 0 113 -37.667 113 -113v-747zM535 117v739h-293v-739h293z" />
    <glyph glyph-name="p" unicode="p" horiz-adv-x="772" 
d="M668 209c0 -60 -19.668 -109.833 -59.001 -149.5s-88.666 -59.5 -147.999 -59.5h-219v-369h-133v1342h133v-27l158 20c66.667 8.66699 119 13 157 13c74 0 111 -36.333 111 -109v-661zM534.999 229v625l-293 -8v-729h184c72.667 0 109 37.333 109 112z" />
    <glyph glyph-name="q" unicode="q" horiz-adv-x="772" 
d="M662 -369l-132.002 0.000976562v369h-219c-59.333 0 -108.666 19.833 -147.999 59.5s-59 89.5 -59 149.5v569c0 57.333 17.333 105.166 52 143.499s80.334 57.5 137.001 57.5c15.333 0 94.333 -11 237 -33v27h132v-1342zM529.998 117.001l-0.000976562 735
c-105.333 6.66699 -166.666 10 -183.999 10c-73.333 0 -110 -37.333 -110 -112v-521c0 -74.667 36.667 -112 110 -112h184z" />
    <glyph glyph-name="r" unicode="r" horiz-adv-x="678" 
d="M618 653h-130.999v201l-245 -8v-846h-133v973h133v-27l133 21c53.333 8 97.666 12 132.999 12c73.333 0 110 -36.333 110 -109v-217z" />
    <glyph glyph-name="s" unicode="s" horiz-adv-x="735" 
d="M633 113c0 -75.333 -37.667 -113.001 -113 -113.001h-305c-75.333 0 -113 37.667 -113 113v221h131v-219h269v194l-348 285c-33.333 26.667 -50 61.334 -50 104.001v162c0 75.333 37.667 113 113 113h301c75.333 0 113 -37.667 113 -113v-194h-129v192h-269v-170
l351 -285c32.667 -26 49 -61.333 49 -106v-184z" />
    <glyph glyph-name="t" unicode="t" horiz-adv-x="520" 
d="M459 0h-189c-74.667 0 -112 37.667 -112 113v743h-117v117h117v303h131v-303h170v-117h-170v-739h170v-117z" />
    <glyph glyph-name="u" unicode="u" horiz-adv-x="774" 
d="M666 0h-131v27l-159 -21c-64 -8 -117 -12 -159 -12c-72 0 -108 36 -108 108v871h131v-854l295 8v846h131v-973z" />
    <glyph glyph-name="v" unicode="v" horiz-adv-x="711" 
d="M657 973l-241 -975h-121l-242 975h137l166 -766l168 766h133z" />
    <glyph glyph-name="w" unicode="w" horiz-adv-x="1034" 
d="M979 973l-201 -975h-119l-143 739l-143 -739h-117l-201 975h125l137 -750l142 750h116l142 -750l137 750h125z" />
    <glyph glyph-name="x" unicode="x" horiz-adv-x="678" 
d="M637 0h-135l-164 385l-166 -385h-131v4l227 496l-213 473h135l150 -357l154 357h129v-4l-213 -465z" />
    <glyph glyph-name="y" unicode="y" horiz-adv-x="711" 
d="M657 973l-234 -965l-97 -377h-131l98 377l-240 965h137l166 -766l168 766h133z" />
    <glyph glyph-name="z" unicode="z" horiz-adv-x="655" 
d="M575 0h-512v61l355 793h-318v119h475v-62l-356 -792h356v-119z" />
    <glyph glyph-name="braceleft" unicode="{" horiz-adv-x="698" 
d="M610 -248h-174c-59.333 0 -108.333 19.333 -147 58s-58 87.667 -58 147v563l-168 156v29l168 155v500c0 59.333 19.333 108.333 58 147s87.667 58 147 58h174v-121c-8.66699 0 -24.167 0.5 -46.5 1.5s-39.5 1.5 -51.5 1.5c-94 0 -141 -34.667 -141 -104v-464
c0 -41.333 -16.333 -78 -49 -110l-101 -79l101 -79c32.667 -32 49 -68.333 49 -109v-529c0 -68.667 47 -103 141 -103c12 0 29.167 0.5 51.5 1.5s37.833 1.5 46.5 1.5v-121z" />
    <glyph glyph-name="bar" unicode="|" horiz-adv-x="418" 
d="M272 -342h-127v1907h127v-1907z" />
    <glyph glyph-name="braceright" unicode="}" horiz-adv-x="698" 
d="M635 676l-168 -156v-563c0 -58.667 -19.5 -107.5 -58.5 -146.5s-87.833 -58.5 -146.5 -58.5h-174v121c8.66699 0 24.167 -0.5 46.5 -1.5s39.5 -1.5 51.5 -1.5c94.667 0 142 34.333 142 103v529c0 40.667 16.333 77 49 109l100 79l-100 79c-32.667 32 -49 68.667 -49 110
v464c0 69.333 -47.333 104 -142 104c-12 0 -29.167 -0.5 -51.5 -1.5s-37.833 -1.5 -46.5 -1.5v121h174c58.667 0 107.5 -19.5 146.5 -58.5s58.5 -87.833 58.5 -146.5v-500l168 -155v-29z" />
    <glyph glyph-name="asciitilde" unicode="~" horiz-adv-x="1034" 
d="M864 545c0 -57.333 -27.333 -86 -82 -86c-33.333 0 -68 6.66699 -104 20l-377 144v-158h-131v209c0 57.333 27.333 86 82 86c34 0 68.667 -7 104 -21l377 -143v158h131v-209z" />
    <glyph glyph-name="nonbreakingspace" unicode="&#xa0;" horiz-adv-x="201" 
 />
    <glyph glyph-name="exclamdown" unicode="&#xa1;" horiz-adv-x="408" 
d="M279 1389h-150v176h150v-176zM281 0h-154l31 1212h92z" />
    <glyph glyph-name="cent" unicode="&#xa2;" horiz-adv-x="756" 
d="M649 412c0 -76.667 -45.998 -115 -137.998 -115c-8.66699 0 -21.834 0.333008 -39.501 1s-30.834 1 -39.501 1v-299h-106v299c-8.66699 0 -22 -0.333008 -40 -1s-31.333 -1 -40 -1c-91.333 0 -137 38.333 -137 115v747c0 76 45.667 114 137 114h40
c18 -0.666992 31.333 -1 40 -1v293h106v-293c8.66699 0 22 0.333008 40 1h39c92 0 138 -38 138 -114v-194h-131v190h-86v-739h86v217h131v-221zM326.002 416v739h-84v-739h84z" />
    <glyph glyph-name="sterling" unicode="&#xa3;" horiz-adv-x="856" 
d="M770 0h-709.001v123h115v567h-115v121h115v643c0 32.667 10.333 59.334 31 80.001s47.334 31 80.001 31h358c32.667 0 59.667 -10.333 81 -31s32 -47.334 32 -80.001v-364h-140v354h-305v-633h295v-121h-295v-567h457v-123z" />
    <glyph glyph-name="currency" unicode="&#xa4;" horiz-adv-x="1221" 
d="M1095 1099l-177 -178v-395l177 -177l-118 -118l-194 194h-330l-193 -194l-118 118l177 178v395l-177 177l118 118l194 -194h330l193 194zM754 574v302h-271v-303z" />
    <glyph glyph-name="yen" unicode="&#xa5;" horiz-adv-x="799" 
d="M754 1556l-189 -626.001h172v-117h-207l-55 -182h262v-117h-268v-514h-139v514h-269v117h263l-56 182h-207v117h172c-126 420.667 -188.667 632.334 -188 635.001h141l215 -783l213 783h140v-9z" />
    <glyph glyph-name="brokenbar" unicode="&#xa6;" horiz-adv-x="397" 
d="M268 811h-139v827h139v-827zM268 -409h-139v826h139v-826z" />
    <glyph glyph-name="section" unicode="&#xa7;" horiz-adv-x="854" 
d="M735 111c0 -32.667 -10.167 -59.334 -30.5 -80.001s-46.833 -31 -79.5 -31h-394c-32.667 0 -59.5 10.333 -80.5 31s-31.5 47.334 -31.5 80.001v243h137v-235h344v241l-416 232c-43.333 24 -65 60 -65 108v154c0 48 21 83.667 63 107l135 73l-133 74
c-43.333 24 -65 60.333 -65 109v237c0 32.667 10.5 59.334 31.5 80.001s47.833 31 80.5 31h394c32.667 0 59.167 -10.333 79.5 -31s30.5 -47.334 30.5 -80.001v-244h-135v236h-344v-242l414 -231c43.333 -24.667 65 -61 65 -109v-153c0 -48 -21 -83.667 -63 -107l-133 -74
l131 -73c43.333 -24.667 65 -61 65 -109v-237zM608 690v184l-180 101l-180 -101v-184l180 -100z" />
    <glyph glyph-name="dieresis" unicode="&#xa8;" 
d="M612 1059h-147v151h147v-151zM354 1059h-147v151h147v-151z" />
    <glyph glyph-name="copyright" unicode="&#xa9;" horiz-adv-x="1155" 
d="M1030 66c0 -44 -21.667 -66 -65 -66h-775c-43.333 0 -65 22 -65 66v1433c0 44 21.667 66 65 66h775c43.333 0 65 -22 65 -66v-1433zM954 70v1425h-753v-1425h753zM768 416c0 -46.667 -24 -70 -72 -70h-237c-49.333 0 -74 23.333 -74 70v739c0 48 24.667 72 74 72h237
c48 0 72 -24 72 -72v-211h-102v189h-179v-695h179v207h102v-229z" />
    <glyph glyph-name="ordfeminine" unicode="&#xaa;" horiz-adv-x="670" 
d="M557 786h-115v23c-152 -18 -233 -27 -243 -27c-57.333 0 -86 28.667 -86 86v287c0 58.667 29.333 88 88 88h243v225h-215v-125h-110v132c0 60 30 90 90 90h256c61.333 0 92 -30 92 -90v-689zM444 891v262h-223v-268zM557 559h-444v98h444v-98z" />
    <glyph glyph-name="guillemotleft" unicode="&#xab;" horiz-adv-x="915" 
d="M813 156h-143l-250 379v40l250 379h143v-8l-254 -391zM469 156h-141l-250 379v40l250 379h141v-8l-252 -391z" />
    <glyph glyph-name="logicalnot" unicode="&#xac;" horiz-adv-x="942" 
d="M823 332h-124v292h-580v124h704v-416z" />
    <glyph glyph-name="minus" unicode="&#xad;" horiz-adv-x="942" 
d="M823 624h-704v124h704v-124z" />
    <glyph glyph-name="minus" unicode="&#x2212;" horiz-adv-x="942" 
d="M823 624h-704v124h704v-124z" />
    <glyph glyph-name="registered" unicode="&#xae;" horiz-adv-x="1155" 
d="M1030 66c0 -44 -21.667 -66 -65 -66h-775c-43.333 0 -65 22 -65 66v1433c0 44 21.667 66 65 66h775c43.333 0 65 -22 65 -66v-1433zM954 70v1425h-753v-1425h753zM791 346h-105l-162 471l21 31h127v287h-185v-789h-100v881h315c46.667 0 70 -24 70 -72v-326
c0 -34 -13.667 -55.333 -41 -64c-11.333 -3.33301 -39.333 -5 -84 -5c96.667 -272.667 144.667 -410.667 144 -414z" />
    <glyph glyph-name="macron" unicode="&#xaf;" 
d="M631 1090h-443v106h443v-106z" />
    <glyph glyph-name="macron" unicode="&#x2c9;" 
d="M631 1090h-443v106h443v-106z" />
    <glyph glyph-name="degree" unicode="&#xb0;" horiz-adv-x="668" 
d="M575 889c0 -68.667 -34.667 -103 -104 -103h-274c-70 0 -105 34.333 -105 103v573c0 68.667 35 103 105 103h274c69.333 0 104 -34.333 104 -103v-573zM461 887v577h-256v-577h256z" />
    <glyph glyph-name="plusminus" unicode="&#xb1;" horiz-adv-x="838" 
d="M768 650h-289v-254h-119v254h-290v114h290v264h119v-264h289v-114zM772 190h-704v123h704v-123z" />
    <glyph glyph-name="twosuperior" unicode="&#xb2;" horiz-adv-x="634" 
d="M571 769l-507.999 -0.000976562v78l361 413v191h-226v-179h-119v162c0 35.333 11.667 66 35 92s52.666 39 87.999 39h212c38 0 69 -12.333 93 -37s36 -56 36 -94v-123c0 -55.333 -16 -100.666 -48 -135.999l-260 -289h336v-117z" />
    <glyph glyph-name="threesuperior" unicode="&#xb3;" horiz-adv-x="632" 
d="M563 888c0 -32 -9.83301 -59.834 -29.5 -83.501s-45.167 -35.5 -76.5 -35.5h-267c-79.333 0 -119 40.333 -119 121v130h115v-142h262v160l-183 113v67l169 99v136h-228v-129h-121v112c0 86 42.333 129 127 129h223c75.333 0 113 -37 113 -111v-117
c0 -37.333 -15.667 -68.666 -47 -93.999l-97 -59l109 -66c33.333 -26 50 -61 50 -105v-125z" />
    <glyph glyph-name="acute" unicode="&#xb4;" 
d="M526 1290l-245 -231h-93v6l150 229h188v-4z" />
    <glyph glyph-name="mu" unicode="&#xb5;" horiz-adv-x="784" 
d="M676 0h-131v28c-45.333 -19.333 -106.666 -29 -183.999 -29c-62.667 0 -103 13.333 -121 40v-408h-131v1342h131v-720c0 -92.667 46 -139 138 -139c63.333 0 118.666 5.33301 165.999 16v843h132v-973z" />
    <glyph glyph-name="mu" unicode="&#x3bc;" horiz-adv-x="784" 
d="M676 0h-131v28c-45.333 -19.333 -106.666 -29 -183.999 -29c-62.667 0 -103 13.333 -121 40v-408h-131v1342h131v-720c0 -92.667 46 -139 138 -139c63.333 0 118.666 5.33301 165.999 16v843h132v-973z" />
    <glyph glyph-name="paragraph" unicode="&#xb6;" horiz-adv-x="948" 
d="M823 0l-133 -0.000976562v621h-176v-621h-133v621h-174c-32.667 0 -59.334 10.5 -80.001 31.5s-31 47.833 -31 80.5v721c0 32.667 10.333 59.334 31 80.001s47.334 31 80.001 31h616v-1565zM690 744.999v697h-266v-697h266z" />
    <glyph glyph-name="periodcentered" unicode="&#xb7;" horiz-adv-x="340" 
d="M246 522h-152v178h152v-178z" />
    <glyph glyph-name="periodcentered" unicode="&#x2219;" horiz-adv-x="340" 
d="M246 522h-152v178h152v-178z" />
    <glyph glyph-name="cedilla" unicode="&#xb8;" 
d="M592 -289c0 -53.333 -26.667 -80 -80 -80h-205c-53.333 0 -80 26.667 -80 80v113h105v-103h153v107l-89 45c-29.333 19.333 -44 46 -44 80v67h107v-69l91 -46c28 -19.333 42 -46.333 42 -81v-113z" />
    <glyph glyph-name="onesuperior" unicode="&#xb9;" horiz-adv-x="397" 
d="M268 769h-131v398h-53l87 398h97v-796z" />
    <glyph glyph-name="ordmasculine" unicode="&#xba;" horiz-adv-x="674" 
d="M561 877c0 -60.667 -30 -91 -90 -91h-266c-61.333 0 -92 30.333 -92 91v598c0 60 30.667 90 92 90h266c60 0 90 -30 90 -90v-598zM449 887v577h-224v-577h224zM561 559h-448v98h448v-98z" />
    <glyph glyph-name="guillemotright" unicode="&#xbb;" horiz-adv-x="915" 
d="M838 535l-248 -379h-144v8l254 391l-254 399h144l248 -379v-40zM496 535l-250 -379h-142v8l252 391l-252 399h142l250 -379v-40z" />
    <glyph glyph-name="onequarter" unicode="&#xbc;" horiz-adv-x="1100" 
d="M271 769h-131v398h-53l87 398h97v-796zM1004 1556l-860 -1556h-115v8l861 1557h114v-9zM1095 193h-81v-193h-118v193h-323v85l192 518h121l-190 -499h200v275h118v-275h81v-104z" />
    <glyph glyph-name="onehalf" unicode="&#xbd;" horiz-adv-x="1088" 
d="M271 769h-131v398h-53l87 398h97v-796zM939 1550l-860 -1556h-115v8l861 1557h114v-9zM1075 0l-507.999 -0.000976562v78l361 413v191h-226v-179h-119v162c0 35.333 11.667 66 35 92s52.666 39 87.999 39h212c38 0 69 -12.333 93 -37s36 -56 36 -94v-123
c0 -55.333 -16 -100.666 -48 -135.999l-260 -289h336v-117z" />
    <glyph glyph-name="threequarters" unicode="&#xbe;" horiz-adv-x="1300" 
d="M1176 1556l-860 -1556h-115v8l861 1557h114v-9zM533 888c0 -32 -9.83301 -59.834 -29.5 -83.501s-45.167 -35.5 -76.5 -35.5h-267c-79.333 0 -119 40.333 -119 121v130h115v-142h262v160l-183 113v67l169 99v136h-228v-129h-121v112c0 86 42.333 129 127 129h223
c75.333 0 113 -37 113 -111v-117c0 -37.333 -15.667 -68.666 -47 -93.999l-97 -59l109 -66c33.333 -26 50 -61 50 -105v-125zM1237 192.999h-81v-193h-118v193h-323v85l192 518h121l-190 -499h200v275h118v-275h81v-104z" />
    <glyph glyph-name="questiondown" unicode="&#xbf;" horiz-adv-x="782" 
d="M475 1389h-151v176h151v-176zM692 111c0 -32.667 -10.5 -59.334 -31.5 -80.001s-47.833 -31 -80.5 -31h-373c-32.667 0 -59.667 10.333 -81 31s-32 47.334 -32 80.001v352c0 40 10.333 75.333 31 106l205 312v331h139v-299c0 -43.333 -9.66699 -79.333 -29 -108
l-207 -309v-373h320v352h139v-364z" />
    <glyph glyph-name="Agrave" unicode="&#xc0;" 
d="M756 0h-138l-55 348h-311l-55 -348h-134v4l279 1565h137zM545 471l-137 848l-138 -848h275zM514 1653h-92l-246 231v4h188l150 -229v-6z" />
    <glyph glyph-name="Aacute" unicode="&#xc1;" 
d="M756 0h-138l-55 348h-311l-55 -348h-134v4l279 1565h137zM545 471l-137 848l-138 -848h275zM639 1884l-245 -231h-93v6l150 229h188v-4z" />
    <glyph glyph-name="Acircumflex" unicode="&#xc2;" 
d="M756 0h-138l-55 348h-311l-55 -348h-134v4l279 1565h137zM545 471l-137 848l-138 -848h275zM645 1638h-86l-151 117l-152 -117h-82v8l197 227h78l196 -227v-8z" />
    <glyph glyph-name="Atilde" unicode="&#xc3;" 
d="M756 0h-138l-55 348h-311l-55 -348h-134v4l279 1565h137zM545 471l-137 848l-138 -848h275zM627 1722c0 -48.667 -24.667 -73 -74 -73c-28.667 0 -72.667 12 -132 36l-122 54v-88h-106v123c0 48.667 24.333 73 73 73c28.667 0 72.667 -12 132 -36l122 -54v88h107v-123z
" />
    <glyph glyph-name="Adieresis" unicode="&#xc4;" 
d="M756 0h-138l-55 348h-311l-55 -348h-134v4l279 1565h137zM545 471l-137 848l-138 -848h275zM612 1653h-147v151h147v-151zM354 1653h-147v151h147v-151z" />
    <glyph glyph-name="Aring" unicode="&#xc5;" 
d="M756 0h-138l-55 348h-311l-55 -348h-134v4l279 1565h137zM545 471l-137 848l-138 -848h275zM602 1588c0 -61.333 -30.667 -92 -92 -92h-201c-61.333 0 -92 30.667 -92 92v188c0 62 30.667 93 92 93h201c61.333 0 92 -31 92 -93v-188zM500 1588v188h-181v-188h181z" />
    <glyph glyph-name="AE" unicode="&#xc6;" horiz-adv-x="1137" 
d="M1044 0h-505v348h-267l-84 -348h-133v4l387 1561h596v-123h-362v-584h332v-125h-332v-610h368v-123zM539 471v987l-240 -987h240z" />
    <glyph glyph-name="Ccedilla" unicode="&#xc7;" horiz-adv-x="870" 
d="M752 111c0 -32.667 -10.667 -59.334 -32 -80.001s-48.333 -31 -81 -31h-403c-32.667 0 -59.334 10.333 -80.001 31s-31 47.334 -31 80.001v1343c0 32.667 10.333 59.334 31 80.001s47.334 31 80.001 31h403c32.667 0 59.667 -10.333 81 -31s32 -47.334 32 -80.001v-364
h-140v352h-348v-1319h348v385h140v-397zM622 -307c0 -53.333 -26.667 -80 -80 -80h-205c-53.333 0 -80 26.667 -80 80v113h105v-103h153v107l-89 45c-29.333 19.333 -44 46 -44 80v67h107v-69l91 -46c28 -19.333 42 -46.333 42 -81v-113z" />
    <glyph glyph-name="Egrave" unicode="&#xc8;" horiz-adv-x="731" 
d="M639 0h-514v1565h508v-123h-369v-584h336v-125h-336v-610h375v-123zM502 1653h-92l-246 231v4h188l150 -229v-6z" />
    <glyph glyph-name="Eacute" unicode="&#xc9;" horiz-adv-x="731" 
d="M639 0h-514v1565h508v-123h-369v-584h336v-125h-336v-610h375v-123zM579 1884l-245 -231h-93v6l150 229h188v-4z" />
    <glyph glyph-name="Ecircumflex" unicode="&#xca;" horiz-adv-x="731" 
d="M639 0h-514v1565h508v-123h-369v-584h336v-125h-336v-610h375v-123zM614 1653h-86l-151 117l-152 -117h-82v8l197 227h78l196 -227v-8z" />
    <glyph glyph-name="Edieresis" unicode="&#xcb;" horiz-adv-x="731" 
d="M639 0h-514v1565h508v-123h-369v-584h336v-125h-336v-610h375v-123zM582 1653h-147v151h147v-151zM324 1653h-147v151h147v-151z" />
    <glyph glyph-name="Igrave" unicode="&#xcc;" horiz-adv-x="408" 
d="M272 0h-139v1565h139v-1565zM308 1653h-92l-246 231v4h188l150 -229v-6z" />
    <glyph glyph-name="Iacute" unicode="&#xcd;" horiz-adv-x="408" 
d="M272 0h-139v1565h139v-1565zM432 1884l-245 -231h-93v6l150 229h188v-4z" />
    <glyph glyph-name="Icircumflex" unicode="&#xce;" horiz-adv-x="408" 
d="M272 0h-139v1565h139v-1565zM439 1654h-86l-151 117l-152 -117h-82v8l197 227h78l196 -227v-8z" />
    <glyph glyph-name="Idieresis" unicode="&#xcf;" horiz-adv-x="408" 
d="M272 0h-139v1565h139v-1565zM406 1653h-147v151h147v-151zM148 1653h-147v151h147v-151z" />
    <glyph glyph-name="Eth" unicode="&#xd0;" horiz-adv-x="889" 
d="M770 283c0 -82.667 -27.167 -150.5 -81.5 -203.5s-122.833 -79.5 -205.5 -79.5h-358v1565h358c83.333 0 152 -26.5 206 -79.5s81 -120.833 81 -203.5v-999zM631 297l-0.000976562 973c0 51.333 -16.167 92.833 -48.5 124.5s-74.166 47.5 -125.499 47.5h-193v-1319h185
c54 0 97.833 15.5 131.5 46.5s50.5 73.5 50.5 127.5zM485.999 758h-451v143h451v-143z" />
    <glyph glyph-name="Ntilde" unicode="&#xd1;" horiz-adv-x="895" 
d="M770 0h-96l-418 1151v-1151h-131v1565h104l410 -1131v1131h131v-1565zM659 1724c0 -48.667 -24.667 -73 -74 -73c-28.667 0 -72.667 12 -132 36l-122 54v-88h-106v123c0 48.667 24.333 73 73 73c28.667 0 72.667 -12 132 -36l122 -54v88h107v-123z" />
    <glyph glyph-name="Ograve" unicode="&#xd2;" horiz-adv-x="911" 
d="M786 111c0 -32.667 -10.5 -59.334 -31.5 -80.001s-47.833 -31 -80.5 -31h-438c-32.667 0 -59.334 10.333 -80.001 31s-31 47.334 -31 80.001v1343c0 32.667 10.333 59.334 31 80.001s47.334 31 80.001 31h438c32.667 0 59.5 -10.333 80.5 -31s31.5 -47.334 31.5 -80.001
v-1343zM647 123v1319h-383v-1319h383zM566 1653h-92l-246 231v4h188l150 -229v-6z" />
    <glyph glyph-name="Oacute" unicode="&#xd3;" horiz-adv-x="911" 
d="M786 111c0 -32.667 -10.5 -59.334 -31.5 -80.001s-47.833 -31 -80.5 -31h-438c-32.667 0 -59.334 10.333 -80.001 31s-31 47.334 -31 80.001v1343c0 32.667 10.333 59.334 31 80.001s47.334 31 80.001 31h438c32.667 0 59.5 -10.333 80.5 -31s31.5 -47.334 31.5 -80.001
v-1343zM647 123v1319h-383v-1319h383zM678 1884l-245 -231h-93v6l150 229h188v-4z" />
    <glyph glyph-name="Ocircumflex" unicode="&#xd4;" horiz-adv-x="911" 
d="M786 111c0 -32.667 -10.5 -59.334 -31.5 -80.001s-47.833 -31 -80.5 -31h-438c-32.667 0 -59.334 10.333 -80.001 31s-31 47.334 -31 80.001v1343c0 32.667 10.333 59.334 31 80.001s47.334 31 80.001 31h438c32.667 0 59.5 -10.333 80.5 -31s31.5 -47.334 31.5 -80.001
v-1343zM647 123v1319h-383v-1319h383zM691 1653h-86l-151 117l-152 -117h-82v8l197 227h78l196 -227v-8z" />
    <glyph glyph-name="Otilde" unicode="&#xd5;" horiz-adv-x="911" 
d="M786 111c0 -32.667 -10.5 -59.334 -31.5 -80.001s-47.833 -31 -80.5 -31h-438c-32.667 0 -59.334 10.333 -80.001 31s-31 47.334 -31 80.001v1343c0 32.667 10.333 59.334 31 80.001s47.334 31 80.001 31h438c32.667 0 59.5 -10.333 80.5 -31s31.5 -47.334 31.5 -80.001
v-1343zM647 123v1319h-383v-1319h383zM673 1724c0 -48.667 -24.667 -73 -74 -73c-28.667 0 -72.667 12 -132 36l-122 54v-88h-106v123c0 48.667 24.333 73 73 73c28.667 0 72.667 -12 132 -36l122 -54v88h107v-123z" />
    <glyph glyph-name="Odieresis" unicode="&#xd6;" horiz-adv-x="911" 
d="M786 111c0 -32.667 -10.5 -59.334 -31.5 -80.001s-47.833 -31 -80.5 -31h-438c-32.667 0 -59.334 10.333 -80.001 31s-31 47.334 -31 80.001v1343c0 32.667 10.333 59.334 31 80.001s47.334 31 80.001 31h438c32.667 0 59.5 -10.333 80.5 -31s31.5 -47.334 31.5 -80.001
v-1343zM647 123v1319h-383v-1319h383zM658 1653h-147v151h147v-151zM400 1653h-147v151h147v-151z" />
    <glyph glyph-name="multiply" unicode="&#xd7;" horiz-adv-x="942" 
d="M767 883l-205 -204l204 -204l-92 -92l-204 205l-204 -205l-92 91l205 205l-204 204l92 91l204 -204l204 205z" />
    <glyph glyph-name="Oslash" unicode="&#xd8;" horiz-adv-x="911" 
d="M786 111c0 -32.667 -10.5 -59.334 -31.5 -80.001s-47.833 -31 -80.5 -31h-438c-32.667 0 -59.334 10.333 -80.001 31s-31 47.334 -31 80.001v1343c0 32.667 10.333 59.334 31 80.001s47.334 31 80.001 31h438c32.667 0 59.5 -10.333 80.5 -31s31.5 -47.334 31.5 -80.001
v-1343zM647 123v1319h-383v-1319h383zM893 1432l-875 -1432v133l875 1432v-133z" />
    <glyph glyph-name="Ugrave" unicode="&#xd9;" horiz-adv-x="899" 
d="M774 111c0 -32.667 -10.499 -59.334 -31.499 -80.001s-47.833 -31 -80.5 -31h-426c-32.667 0 -59.334 10.333 -80.001 31s-31 47.334 -31 80.001v1454h139v-1442h371v1442h139v-1454zM566.001 1652h-92l-246 231v4h188l150 -229v-6z" />
    <glyph glyph-name="Uacute" unicode="&#xda;" horiz-adv-x="899" 
d="M774 111c0 -32.667 -10.499 -59.334 -31.499 -80.001s-47.833 -31 -80.5 -31h-426c-32.667 0 -59.334 10.333 -80.001 31s-31 47.334 -31 80.001v1454h139v-1442h371v1442h139v-1454zM666.001 1883l-245 -231h-93v6l150 229h188v-4z" />
    <glyph glyph-name="Ucircumflex" unicode="&#xdb;" horiz-adv-x="899" 
d="M774 111c0 -32.667 -10.499 -59.334 -31.499 -80.001s-47.833 -31 -80.5 -31h-426c-32.667 0 -59.334 10.333 -80.001 31s-31 47.334 -31 80.001v1454h139v-1442h371v1442h139v-1454zM685.001 1653h-86l-151 117l-152 -117h-82v8l197 227h78l196 -227v-8z" />
    <glyph glyph-name="Udieresis" unicode="&#xdc;" horiz-adv-x="899" 
d="M774 111c0 -32.667 -10.499 -59.334 -31.499 -80.001s-47.833 -31 -80.5 -31h-426c-32.667 0 -59.334 10.333 -80.001 31s-31 47.334 -31 80.001v1454h139v-1442h371v1442h139v-1454zM652.001 1653h-147v151h147v-151zM394.001 1653h-147v151h147v-151z" />
    <glyph glyph-name="Yacute" unicode="&#xdd;" horiz-adv-x="799" 
d="M754 1556l-190.001 -633c-24 -63.333 -55.667 -169 -95 -317v-606h-139v606c-9.33301 50.667 -23.666 104 -42.999 160c-32 96 -49.333 148.333 -52 157l-190 633v9h141l215 -783l213 783h140v-9zM626.999 1869l-245 -231h-93v6l150 229h188v-4z" />
    <glyph glyph-name="Thorn" unicode="&#xde;" horiz-adv-x="840" 
d="M745 432c0 -32.667 -10.5 -59.166 -31.5 -79.499s-47.833 -30.5 -80.5 -30.5h-369v-322h-139v1565h139v-301h369c32.667 0 59.5 -10.333 80.5 -31s31.5 -47.334 31.5 -80.001v-721zM606 444.001v697h-342v-697h342z" />
    <glyph glyph-name="germandbls" unicode="&#xdf;" horiz-adv-x="788" 
d="M678 109c0 -72.667 -36.333 -109.001 -109 -109.001h-184v117h162v536l-164 152v33l162 149v348c0 75.333 -36.333 113 -109 113h-194v-1448h-133v1565h360c60 0 109.5 -19.833 148.5 -59.5s58.5 -89.5 58.5 -149.5v-316c0 -52.667 -14.667 -94.667 -44 -126l-114 -93
l117 -92c28.667 -29.333 43 -71.666 43 -126.999v-493z" />
    <glyph glyph-name="agrave" unicode="&#xe0;" horiz-adv-x="768" 
d="M659 0h-131.001v27l-158 -21c-65.333 -8 -117.666 -12 -156.999 -12c-72.667 0 -109 36 -109 108v355c0 74.667 37.667 112 113 112h313v293h-286v-166h-129v164c0 75.333 37.333 113 112 113h320c74.667 0 112 -37.667 112 -113v-860zM529.999 121v344h-297v-350z
M506.999 1059h-92l-246 231v4h188l150 -229v-6z" />
    <glyph glyph-name="aacute" unicode="&#xe1;" horiz-adv-x="768" 
d="M659 0h-131.001v27l-158 -21c-65.333 -8 -117.666 -12 -156.999 -12c-72.667 0 -109 36 -109 108v355c0 74.667 37.667 112 113 112h313v293h-286v-166h-129v164c0 75.333 37.333 113 112 113h320c74.667 0 112 -37.667 112 -113v-860zM529.999 121v344h-297v-350z
M603.999 1290l-245 -231h-93v6l150 229h188v-4z" />
    <glyph glyph-name="acircumflex" unicode="&#xe2;" horiz-adv-x="768" 
d="M659 0h-131.001v27l-158 -21c-65.333 -8 -117.666 -12 -156.999 -12c-72.667 0 -109 36 -109 108v355c0 74.667 37.667 112 113 112h313v293h-286v-166h-129v164c0 75.333 37.333 113 112 113h320c74.667 0 112 -37.667 112 -113v-860zM529.999 121v344h-297v-350z
M622.999 1059h-86l-151 117l-152 -117h-82v8l197 227h78l196 -227v-8z" />
    <glyph glyph-name="atilde" unicode="&#xe3;" horiz-adv-x="768" 
d="M659 0h-131.001v27l-158 -21c-65.333 -8 -117.666 -12 -156.999 -12c-72.667 0 -109 36 -109 108v355c0 74.667 37.667 112 113 112h313v293h-286v-166h-129v164c0 75.333 37.333 113 112 113h320c74.667 0 112 -37.667 112 -113v-860zM529.999 121v344h-297v-350z
M604.999 1130c0 -48.667 -24.667 -73 -74 -73c-28.667 0 -72.667 12 -132 36l-122 54v-88h-106v123c0 48.667 24.333 73 73 73c28.667 0 72.667 -12 132 -36l122 -54v88h107v-123z" />
    <glyph glyph-name="adieresis" unicode="&#xe4;" horiz-adv-x="768" 
d="M659 0h-131.001v27l-158 -21c-65.333 -8 -117.666 -12 -156.999 -12c-72.667 0 -109 36 -109 108v355c0 74.667 37.667 112 113 112h313v293h-286v-166h-129v164c0 75.333 37.333 113 112 113h320c74.667 0 112 -37.667 112 -113v-860zM529.999 121v344h-297v-350z
M589.999 1059h-147v151h147v-151zM331.999 1059h-147v151h147v-151z" />
    <glyph glyph-name="aring" unicode="&#xe5;" horiz-adv-x="768" 
d="M659 0h-131.001v27l-158 -21c-65.333 -8 -117.666 -12 -156.999 -12c-72.667 0 -109 36 -109 108v355c0 74.667 37.667 112 113 112h313v293h-286v-166h-129v164c0 75.333 37.333 113 112 113h320c74.667 0 112 -37.667 112 -113v-860zM529.999 121v344h-297v-350z
M579.999 1151c0 -61.333 -30.667 -92 -92 -92h-201c-61.333 0 -92 30.667 -92 92v188c0 62 30.667 93 92 93h201c61.333 0 92 -31 92 -93v-188zM477.999 1151v188h-181v-188h181z" />
    <glyph glyph-name="ae" unicode="&#xe6;" horiz-adv-x="1169" 
d="M1061 113c0 -75.333 -37.667 -113 -113 -113h-311c-36 0 -65.333 9.66699 -88 29c-207.333 -23.333 -319.333 -35 -336 -35c-72.667 0 -109 36 -109 108v355c0 74.667 37.667 112 113 112h307v293h-280v-166h-129v164c0 75.333 37.333 113 112 113h721
c75.333 0 113 -37.667 113 -113v-352l-47 -45h-363v-352h281v178h129v-176zM932 567v295h-281v-295h281zM524 117v348h-291v-356z" />
    <glyph glyph-name="ccedilla" unicode="&#xe7;" horiz-adv-x="756" 
d="M649 113c0 -75.333 -37.333 -113 -112 -113h-316c-74.667 0 -112 37.667 -112 113v747c0 75.333 37.333 113 112 113h316c74.667 0 112 -37.667 112 -113v-194h-131v190h-276v-739h276v217h131v-221zM570 -309c0 -53.333 -26.667 -80 -80 -80h-205
c-53.333 0 -80 26.667 -80 80v113h105v-103h153v107l-89 45c-29.333 19.333 -44 46 -44 80v67h107v-69l91 -46c28 -19.333 42 -46.333 42 -81v-113z" />
    <glyph glyph-name="egrave" unicode="&#xe8;" horiz-adv-x="764" 
d="M653 113c0 -75.333 -37.333 -113 -112 -113h-320c-74.667 0 -112 37.667 -112 113v747c0 75.333 37.333 113 112 113h320c74.667 0 112 -37.667 112 -113v-350l-45 -47h-370v-352h286v178h129v-176zM524 569v293h-286v-293h286zM502 1059h-92l-246 231v4h188l150 -229v-6
z" />
    <glyph glyph-name="eacute" unicode="&#xe9;" horiz-adv-x="764" 
d="M653 113c0 -75.333 -37.333 -113 -112 -113h-320c-74.667 0 -112 37.667 -112 113v747c0 75.333 37.333 113 112 113h320c74.667 0 112 -37.667 112 -113v-350l-45 -47h-370v-352h286v178h129v-176zM524 569v293h-286v-293h286zM593 1290l-245 -231h-93v6l150 229h188v-4
z" />
    <glyph glyph-name="ecircumflex" unicode="&#xea;" horiz-adv-x="764" 
d="M653 113c0 -75.333 -37.333 -113 -112 -113h-320c-74.667 0 -112 37.667 -112 113v747c0 75.333 37.333 113 112 113h320c74.667 0 112 -37.667 112 -113v-350l-45 -47h-370v-352h286v178h129v-176zM524 569v293h-286v-293h286zM617 1059h-86l-151 117l-152 -117h-82v8
l197 227h78l196 -227v-8z" />
    <glyph glyph-name="edieresis" unicode="&#xeb;" horiz-adv-x="764" 
d="M653 113c0 -75.333 -37.333 -113 -112 -113h-320c-74.667 0 -112 37.667 -112 113v747c0 75.333 37.333 113 112 113h320c74.667 0 112 -37.667 112 -113v-350l-45 -47h-370v-352h286v178h129v-176zM524 569v293h-286v-293h286zM584 1059h-147v151h147v-151zM326 1059
h-147v151h147v-151z" />
    <glyph glyph-name="igrave" unicode="&#xec;" horiz-adv-x="365" 
d="M248 0h-131v973h131v-973zM291 1059h-92l-246 231v4h188l150 -229v-6z" />
    <glyph glyph-name="iacute" unicode="&#xed;" horiz-adv-x="365" 
d="M248 0h-131v973h131v-973zM407 1290l-245 -231h-93v6l150 229h188v-4z" />
    <glyph glyph-name="icircumflex" unicode="&#xee;" horiz-adv-x="365" 
d="M248 0h-131v973h131v-973zM420 1044h-86l-151 117l-152 -117h-82v8l197 227h78l196 -227v-8z" />
    <glyph glyph-name="idieresis" unicode="&#xef;" horiz-adv-x="365" 
d="M248 0h-131v973h131v-973zM385 1059h-147v151h147v-151zM127 1059h-147v151h147v-151z" />
    <glyph glyph-name="eth" unicode="&#xf0;" horiz-adv-x="776" 
d="M772 1219l-104 -29v-1077c0 -75.333 -37.667 -113 -113 -113h-334c-74.667 0 -112 37.667 -112 113v747c0 75.333 37.333 113 112 113h318v180c-85.333 -24 -129 -35.667 -131 -35v123l131 37v172h-291v-197h-129v199c0 75.333 37.333 113 112 113h324
c77.333 0 116 -48.333 116 -145c0 -12 -0.5 -30.167 -1.5 -54.5s-1.5 -41.833 -1.5 -52.5c67.333 18 102 26.667 104 26v-120zM539 117v739h-297v-739h297z" />
    <glyph glyph-name="ntilde" unicode="&#xf1;" horiz-adv-x="774" 
d="M668 0h-133v854l-293 -8v-846h-133v973h133v-27l157 21c64 8 116.667 12 158 12c74 0 111 -36.333 111 -109v-870zM605 1130c0 -48.667 -24.667 -73 -74 -73c-28.667 0 -72.667 12 -132 36l-122 54v-88h-106v123c0 48.667 24.333 73 73 73c28.667 0 72.667 -12 132 -36
l122 -54v88h107v-123z" />
    <glyph glyph-name="ograve" unicode="&#xf2;" horiz-adv-x="776" 
d="M668 113c0 -75.333 -37.667 -113 -113 -113h-334c-74.667 0 -112 37.667 -112 113v747c0 75.333 37.333 113 112 113h334c75.333 0 113 -37.667 113 -113v-747zM535 117v739h-293v-739h293zM504 1059h-92l-246 231v4h188l150 -229v-6z" />
    <glyph glyph-name="oacute" unicode="&#xf3;" horiz-adv-x="776" 
d="M668 113c0 -75.333 -37.667 -113 -113 -113h-334c-74.667 0 -112 37.667 -112 113v747c0 75.333 37.333 113 112 113h334c75.333 0 113 -37.667 113 -113v-747zM535 117v739h-293v-739h293zM606 1290l-245 -231h-93v6l150 229h188v-4z" />
    <glyph glyph-name="ocircumflex" unicode="&#xf4;" horiz-adv-x="776" 
d="M668 113c0 -75.333 -37.667 -113 -113 -113h-334c-74.667 0 -112 37.667 -112 113v747c0 75.333 37.333 113 112 113h334c75.333 0 113 -37.667 113 -113v-747zM535 117v739h-293v-739h293zM626 1059h-86l-151 117l-152 -117h-82v8l197 227h78l196 -227v-8z" />
    <glyph glyph-name="otilde" unicode="&#xf5;" horiz-adv-x="776" 
d="M668 113c0 -75.333 -37.667 -113 -113 -113h-334c-74.667 0 -112 37.667 -112 113v747c0 75.333 37.333 113 112 113h334c75.333 0 113 -37.667 113 -113v-747zM535 117v739h-293v-739h293zM606 1130c0 -48.667 -24.667 -73 -74 -73c-28.667 0 -72.667 12 -132 36
l-122 54v-88h-106v123c0 48.667 24.333 73 73 73c28.667 0 72.667 -12 132 -36l122 -54v88h107v-123z" />
    <glyph glyph-name="odieresis" unicode="&#xf6;" horiz-adv-x="776" 
d="M668 113c0 -75.333 -37.667 -113 -113 -113h-334c-74.667 0 -112 37.667 -112 113v747c0 75.333 37.333 113 112 113h334c75.333 0 113 -37.667 113 -113v-747zM535 117v739h-293v-739h293zM591 1059h-147v151h147v-151zM333 1059h-147v151h147v-151z" />
    <glyph glyph-name="divide" unicode="&#xf7;" horiz-adv-x="838" 
d="M523 944c0 -29.333 -10.167 -54.5 -30.5 -75.5s-45.166 -31.5 -74.499 -31.5c-28.667 0 -53.167 10.5 -73.5 31.5s-30.5 46.167 -30.5 75.5s10.167 54.333 30.5 75s44.833 31 73.5 31c29.333 0 54.166 -10.333 74.499 -31s30.5 -45.667 30.5 -75zM768 625h-698v126h698
v-126zM523 430c0 -29.333 -10.167 -54.333 -30.5 -75s-45.166 -31 -74.499 -31c-28.667 0 -53.167 10.333 -73.5 31s-30.5 45.667 -30.5 75s10.167 54.5 30.5 75.5s44.833 31.5 73.5 31.5c29.333 0 54.166 -10.5 74.499 -31.5s30.5 -46.167 30.5 -75.5z" />
    <glyph glyph-name="oslash" unicode="&#xf8;" horiz-adv-x="776" 
d="M668 113c0 -75.333 -37.667 -113 -113 -113h-334c-74.667 0 -112 37.667 -112 113v747c0 75.333 37.333 113 112 113h334c75.333 0 113 -37.667 113 -113v-747zM535 117v739h-293v-739h293zM764 877l-746 -877v102l746 873v-98z" />
    <glyph glyph-name="ugrave" unicode="&#xf9;" horiz-adv-x="774" 
d="M666 0h-131v27l-159 -21c-64 -8 -117 -12 -159 -12c-72 0 -108 36 -108 108v871h131v-854l295 8v846h131v-973zM501 1059h-92l-246 231v4h188l150 -229v-6z" />
    <glyph glyph-name="uacute" unicode="&#xfa;" horiz-adv-x="774" 
d="M666 0h-131v27l-159 -21c-64 -8 -117 -12 -159 -12c-72 0 -108 36 -108 108v871h131v-854l295 8v846h131v-973zM605 1290l-245 -231h-93v6l150 229h188v-4z" />
    <glyph glyph-name="ucircumflex" unicode="&#xfb;" horiz-adv-x="774" 
d="M666 0h-131v27l-159 -21c-64 -8 -117 -12 -159 -12c-72 0 -108 36 -108 108v871h131v-854l295 8v846h131v-973zM625 1059h-86l-151 117l-152 -117h-82v8l197 227h78l196 -227v-8z" />
    <glyph glyph-name="udieresis" unicode="&#xfc;" horiz-adv-x="774" 
d="M666 0h-131v27l-159 -21c-64 -8 -117 -12 -159 -12c-72 0 -108 36 -108 108v871h131v-854l295 8v846h131v-973zM590 1059h-147v151h147v-151zM332 1059h-147v151h147v-151z" />
    <glyph glyph-name="yacute" unicode="&#xfd;" horiz-adv-x="711" 
d="M657 973l-234 -965l-97 -377h-131l98 377l-240 965h137l166 -766l168 766h133zM591 1290l-245 -231h-93v6l150 229h188v-4z" />
    <glyph glyph-name="thorn" unicode="&#xfe;" horiz-adv-x="772" 
d="M668 209c0 -60 -19.668 -109.833 -59.001 -149.5s-88.666 -59.5 -147.999 -59.5h-219v-369h-133v1934h133v-619l158 20c66.667 8.66699 119 13 157 13c74 0 111 -36.333 111 -109v-661zM534.999 229v625l-293 -8v-729h184c72.667 0 109 37.333 109 112z" />
    <glyph glyph-name="ydieresis" unicode="&#xff;" horiz-adv-x="711" 
d="M657 973l-234 -965l-97 -377h-131l98 377l-240 965h137l166 -766l168 766h133zM559 1059h-147v151h147v-151zM301 1059h-147v151h147v-151z" />
    <glyph glyph-name="dotlessi" unicode="&#x131;" horiz-adv-x="365" 
d="M248 0h-131v973h131v-973z" />
    <glyph glyph-name="Lslash" unicode="&#x141;" horiz-adv-x="690" 
d="M625 0h-500v1565h139v-1442h361v-123zM492 737l-455 -336v142l455 335v-141z" />
    <glyph glyph-name="lslash" unicode="&#x142;" horiz-adv-x="365" 
d="M248 0h-131v1565h131v-1565zM338 635l-311 -234v142l311 233v-141z" />
    <glyph glyph-name="OE" unicode="&#x152;" horiz-adv-x="1208" 
d="M1116 0l-880 -0.00195312c-32.667 0 -59.334 10.333 -80.001 31s-31 47.334 -31 80.001v1343c0 32.667 10.333 59.334 31 80.001s47.334 31 80.001 31h874v-123h-365v-584h334v-125h-334v-610h371v-123zM606 122.998v1319h-342v-1319h342z" />
    <glyph glyph-name="oe" unicode="&#x153;" horiz-adv-x="1174" 
d="M1065 113c0 -75.333 -37.667 -113 -113 -113h-731c-74.667 0 -112 37.667 -112 113v747c0 75.333 37.333 113 112 113h731c75.333 0 113 -37.667 113 -113v-350l-47 -47h-363v-352h283v178h127v-176zM938 569v293h-283v-293h283zM530 111v751h-290v-751h290z" />
    <glyph glyph-name="Scaron" unicode="&#x160;" horiz-adv-x="856" 
d="M735 111c0 -32.667 -10.167 -59.334 -30.5 -80.001s-46.833 -31 -79.5 -31h-394c-32.667 0 -59.5 10.333 -80.5 31s-31.5 47.334 -31.5 80.001v397h139v-385h338v373l-432 522c-30 36 -45 75.667 -45 119v317c0 32.667 10.5 59.334 31.5 80.001s47.833 31 80.5 31h394
c32.667 0 59.167 -10.333 79.5 -31s30.5 -47.334 30.5 -80.001v-364h-139v352h-338v-330l434 -522c28.667 -34.667 43 -73.667 43 -117v-362zM670 1882l-202 -229h-78l-203 229v6h86l158 -118l157 118h82v-6z" />
    <glyph glyph-name="scaron" unicode="&#x161;" horiz-adv-x="735" 
d="M633 113c0 -75.333 -37.667 -113.001 -113 -113.001h-305c-75.333 0 -113 37.667 -113 113v221h131v-219h269v194l-348 285c-33.333 26.667 -50 61.334 -50 104.001v162c0 75.333 37.667 113 113 113h301c75.333 0 113 -37.667 113 -113v-194h-129v192h-269v-170
l351 -285c32.667 -26 49 -61.333 49 -106v-184zM610 1288l-202 -229h-78l-203 229v6h86l158 -118l157 118h82v-6z" />
    <glyph glyph-name="Ydieresis" unicode="&#x178;" horiz-adv-x="799" 
d="M754 1556l-190.001 -633c-24 -63.333 -55.667 -169 -95 -317v-606h-139v606c-9.33301 50.667 -23.666 104 -42.999 160c-32 96 -49.333 148.333 -52 157l-190 633v9h141l215 -783l213 783h140v-9zM601.999 1653h-147v151h147v-151zM343.999 1653h-147v151h147v-151z" />
    <glyph glyph-name="Zcaron" unicode="&#x17d;" horiz-adv-x="705" 
d="M649 0h-600v74l440 1368h-397v123h557v-72l-440 -1370h440v-123zM612 1882l-202 -229h-78l-203 229v6h86l158 -118l157 118h82v-6z" />
    <glyph glyph-name="zcaron" unicode="&#x17e;" horiz-adv-x="655" 
d="M575 0h-512v61l355 793h-318v119h475v-62l-356 -792h356v-119zM583 1288l-202 -229h-78l-203 229v6h86l158 -118l157 118h82v-6z" />
    <glyph glyph-name="florin" unicode="&#x192;" horiz-adv-x="625" 
d="M612 1565l-14 -117h-190l-66 -475h168l-18 -117h-168l-156 -1112c-10.667 -75.333 -53 -113 -127 -113h-166l14 117h148l156 1108h-113l18 117h113l65 479c10.667 75.333 54 113 130 113h206z" />
    <glyph glyph-name="circumflex" unicode="&#x2c6;" 
d="M645 1059h-86l-151 117l-152 -117h-82v8l197 227h78l196 -227v-8z" />
    <glyph glyph-name="caron" unicode="&#x2c7;" 
d="M651 1288l-202 -229h-78l-203 229v6h86l158 -118l157 118h82v-6z" />
    <glyph glyph-name="breve" unicode="&#x2d8;" 
d="M602 1151c0 -61.333 -30.667 -92 -92 -92h-201c-61.333 0 -92 30.667 -92 92v129h105v-125h176v125h104v-129z" />
    <glyph glyph-name="dotaccent" unicode="&#x2d9;" 
d="M483 1059h-147v151h147v-151z" />
    <glyph glyph-name="ring" unicode="&#x2da;" 
d="M602 1151c0 -61.333 -30.667 -92 -92 -92h-201c-61.333 0 -92 30.667 -92 92v188c0 62 30.667 93 92 93h201c61.333 0 92 -31 92 -93v-188zM500 1151v188h-181v-188h181z" />
    <glyph glyph-name="ogonek" unicode="&#x2db;" 
d="M578 -369h-273c-53.333 0 -80 26.667 -80 80v117c0 35.333 13 65.333 39 90l107 102h129v-8l-162 -162v-124h240v-95z" />
    <glyph glyph-name="tilde" unicode="&#x2dc;" 
d="M627 1130c0 -48.667 -24.667 -73 -74 -73c-28.667 0 -72.667 12 -132 36l-122 54v-88h-106v123c0 48.667 24.333 73 73 73c28.667 0 72.667 -12 132 -36l122 -54v88h107v-123z" />
    <glyph glyph-name="hungarumlaut" unicode="&#x2dd;" 
d="M711 1290l-246 -231h-84v6l151 229h179v-4zM444 1290l-245 -231h-84v6l151 229h178v-4z" />
    <glyph glyph-name="Delta" unicode="&#x394;" 
d="M775 0l-730 -0.000976562v122l297 1447h137c6.66699 -38.667 58.667 -293 156 -763c94 -457.333 140.667 -686.666 140 -687.999v-118zM637 131.999l-229 1187l-228 -1187h457z" />
    <glyph glyph-name="Delta" unicode="&#x2206;" 
d="M775 0l-730 -0.000976562v122l297 1447h137c6.66699 -38.667 58.667 -293 156 -763c94 -457.333 140.667 -686.666 140 -687.999v-118zM637 131.999l-229 1187l-228 -1187h457z" />
    <glyph glyph-name="Omega" unicode="&#x3a9;" horiz-adv-x="1056" 
d="M1000 -1h-388v490h184v953l-531 -1l-1 -952h184v-490h-389v130h272v237h-95c-32.667 0 -59.334 10.333 -80.001 31s-31 47.334 -31 80.001v977c0 32.667 10.333 59.334 31 80.001s47.334 31 80.001 31h585c32.667 0 59.834 -10.333 81.501 -31s32.5 -47.334 32.5 -80.001
v-977c0 -32.667 -10.333 -59.334 -31 -80.001s-47.334 -31 -80.001 -31h-95v-237h271v-130z" />
    <glyph glyph-name="Omega" unicode="&#x2126;" horiz-adv-x="1056" 
d="M1000 -1h-388v490h184v953l-531 -1l-1 -952h184v-490h-389v130h272v237h-95c-32.667 0 -59.334 10.333 -80.001 31s-31 47.334 -31 80.001v977c0 32.667 10.333 59.334 31 80.001s47.334 31 80.001 31h585c32.667 0 59.834 -10.333 81.501 -31s32.5 -47.334 32.5 -80.001
v-977c0 -32.667 -10.333 -59.334 -31 -80.001s-47.334 -31 -80.001 -31h-95v-237h271v-130z" />
    <glyph glyph-name="pi" unicode="&#x3c0;" horiz-adv-x="804" 
d="M764 770h-148v-770h-135v770h-163v-770h-135v770h-144v123h725v-123z" />
    <glyph glyph-name="endash" unicode="&#x2013;" horiz-adv-x="870" 
d="M774 535h-678v124h678v-124z" />
    <glyph glyph-name="emdash" unicode="&#x2014;" horiz-adv-x="1292" 
d="M1194 535h-1098v124h1098v-124z" />
    <glyph glyph-name="quoteleft" unicode="&#x2018;" horiz-adv-x="340" 
d="M254 1565l-37 -492h-149l96 492h90z" />
    <glyph glyph-name="quoteright" unicode="&#x2019;" horiz-adv-x="340" 
d="M272 1565l-94 -492h-90l37 492h147z" />
    <glyph glyph-name="quotesinglbase" unicode="&#x201a;" horiz-adv-x="340" 
d="M256 252l-96 -492h-90l36 492h150z" />
    <glyph glyph-name="quotedblleft" unicode="&#x201c;" horiz-adv-x="629" 
d="M541 1565l-37 -492h-148l95 492h90zM254 1565l-37 -492h-149l96 492h90z" />
    <glyph glyph-name="quotedblright" unicode="&#x201d;" horiz-adv-x="629" 
d="M561 1565l-96 -492h-90l37 492h149zM272 1565l-94 -492h-90l37 492h147z" />
    <glyph glyph-name="quotedblbase" unicode="&#x201e;" horiz-adv-x="629" 
d="M561 252l-96 -492h-90l37 492h149zM272 252l-94 -492h-90l37 492h147z" />
    <glyph glyph-name="dagger" unicode="&#x2020;" horiz-adv-x="899" 
d="M815 1024h-299v-1024h-133v1024h-299v117h299v424h133v-424h299v-117z" />
    <glyph glyph-name="daggerdbl" unicode="&#x2021;" horiz-adv-x="899" 
d="M815 424h-301v-424h-129v424h-301v117h301v483h-301v117h301v424h129v-424h301v-117h-301v-483h301v-117z" />
    <glyph glyph-name="bullet" unicode="&#x2022;" horiz-adv-x="864" 
d="M733 598c0 -78 -39 -117 -117 -117h-368c-78 0 -117 39 -117 117v367c0 77.333 39 116 117 116h368c78 0 117 -38.667 117 -116v-367z" />
    <glyph glyph-name="ellipsis" unicode="&#x2026;" horiz-adv-x="1022" 
d="M926 0h-150v176h150v-176zM586 0h-150v176h150v-176zM246 0h-152v176h152v-176z" />
    <glyph glyph-name="perthousand" unicode="&#x2030;" horiz-adv-x="1985" 
d="M571 871c0 -28 -9.49902 -52.001 -28.499 -72.001s-42.167 -30 -69.5 -30h-291c-24.667 0 -46.834 10.833 -66.501 32.5s-29.5 44.834 -29.5 69.501v591c0 24 10 47.167 30 69.5s42 33.5 66 33.5h291c26 0 48.833 -10.667 68.5 -32s29.5 -45 29.5 -71v-591z
M450.001 880.999v567h-243v-567h243zM1177 1560l-860 -1556h-115v8l861 1557h114v-9zM1289 101.999c0 -28 -9.49902 -52.001 -28.499 -72.001s-42.167 -30 -69.5 -30h-291c-24.667 0 -46.834 10.833 -66.501 32.5s-29.5 44.834 -29.5 69.501v591c0 24 10 47.167 30 69.5
s42 33.5 66 33.5h291c26 0 48.833 -10.667 68.5 -32s29.5 -45 29.5 -71v-591zM1168 111.998v567h-243v-567h243zM1889 101.998c0 -28 -9.49902 -52.001 -28.499 -72.001s-42.167 -30 -69.5 -30h-291c-24.667 0 -46.834 10.833 -66.501 32.5s-29.5 44.834 -29.5 69.501v591
c0 24 10 47.167 30 69.5s42 33.5 66 33.5h291c26 0 48.833 -10.667 68.5 -32s29.5 -45 29.5 -71v-591zM1768 111.997v567h-243v-567h243z" />
    <glyph glyph-name="guilsinglleft" unicode="&#x2039;" horiz-adv-x="573" 
d="M469 156h-141l-250 379v40l250 379h141v-8l-252 -391z" />
    <glyph glyph-name="guilsinglright" unicode="&#x203a;" horiz-adv-x="573" 
d="M496 535l-250 -379h-142v8l252 391l-252 399h142l250 -379v-40z" />
    <glyph glyph-name="fraction" unicode="&#x2044;" horiz-adv-x="325" 
d="M649 1556l-860 -1556h-115v8l861 1557h114v-9z" />
    <glyph glyph-name="fraction" unicode="&#x2215;" horiz-adv-x="325" 
d="M649 1556l-860 -1556h-115v8l861 1557h114v-9z" />
    <glyph glyph-name="Euro" unicode="&#x20ac;" horiz-adv-x="826" 
d="M732 111c0 -32.667 -10.667 -59.334 -32 -80.001s-48.333 -31 -81 -31h-363c-32.667 0 -59.334 10.333 -80.001 31s-31 47.334 -31 80.001v480h-92v119h92v166h-92v121h92v457c0 32.667 10.333 59.334 31 80.001s47.334 31 80.001 31h363c32.667 0 59.667 -10.333 81 -31
s32 -47.334 32 -80.001v-264h-140v252h-308v-445h397v-121h-397v-166h397v-119h-397v-468h308v255h140v-267z" />
    <glyph glyph-name="trademark" unicode="&#x2122;" horiz-adv-x="1116" 
d="M1012 668h-94v549l-117 -455h-33l-117 455v-549h-94v897h90l137 -564l142 564h86v-897zM453 1475h-142v-807h-94v807h-141v90h377v-90z" />
    <glyph glyph-name="partialdiff" unicode="&#x2202;" horiz-adv-x="868" 
d="M745 859l0.000976562 -748c0 -32.667 -10.333 -59.334 -31 -80.001s-47.334 -31 -80.001 -31h-399c-32.667 0 -59.334 10.333 -80.001 31s-31 47.334 -31 80.001v641c0 32.667 10.333 59.167 31 79.5s47.334 30.5 80.001 30.5h357l-327 703h151zM605.001 123v618h-342
v-618h342z" />
    <glyph glyph-name="product" unicode="&#x220f;" horiz-adv-x="804" 
d="M764 1442h-148v-1442h-135v1442h-163v-1442h-135v1442h-144v123h725v-123z" />
    <glyph glyph-name="summation" unicode="&#x2211;" horiz-adv-x="731" 
d="M649 0h-564v108l382 688l-382 644v125h558v-123h-420l357 -587v-119l-356 -613h425v-123z" />
    <glyph glyph-name="radical" unicode="&#x221a;" horiz-adv-x="887" 
d="M844 1565l-428 -1567h-119l-262 543h145l164 -377l361 1401h139z" />
    <glyph glyph-name="infinity" unicode="&#x221e;" horiz-adv-x="1270" 
d="M1236 252c0 -75.333 -37.6689 -112.999 -113.002 -112.999h-251c-42.667 0 -88.667 37.667 -138 113l-99 151l-98 -153c-28 -43.333 -49 -71.333 -63 -84c-19.333 -17.333 -43.333 -26.333 -72 -27h-253c-75.333 0 -113 37.667 -113 113v508c0 75.333 37.667 113 113 113
h253c44 -0.666992 90 -38.334 138 -113.001l97 -151l98 151c48.667 75.333 94.334 113 137.001 113h251c74.667 0 112.334 -37.667 113.001 -113v-508zM1102 256.001v500h-238l-161 -249l162 -251h237zM568.998 504.001l-165 252h-235v-500h240z" />
    <glyph glyph-name="integral" unicode="&#x222b;" horiz-adv-x="487" 
d="M477 1448h-188v-1737c0 -29.333 -8.66699 -54.333 -26 -75c-20 -24 -47.333 -36 -82 -36l-213 -1v117h189l1 1736c0 75.333 37.333 113 112 113h207v-117z" />
    <glyph glyph-name="approxequal" unicode="&#x2248;" horiz-adv-x="1034" 
d="M864 804c0 -57.333 -27.333 -86 -82 -86c-33.333 0 -68 6.66699 -104 20l-377 144v-158h-131v209c0 57.333 27.333 86 82 86c34 0 68.667 -7 104 -21l377 -143v158h131v-209zM864 409c0 -57.333 -27.333 -86 -82 -86c-33.333 0 -68 6.66699 -104 20l-377 144v-158h-131
v209c0 57.333 27.333 86 82 86c34 0 68.667 -7 104 -21l377 -143v158h131v-209z" />
    <glyph glyph-name="notequal" unicode="&#x2260;" horiz-adv-x="903" 
d="M801 391h-347l-80 -322l-117 29l72 293h-227v119h257l61 246h-318v121h348l79 320l117 -29l-72 -291h227v-121h-257l-61 -246h318v-119z" />
    <glyph glyph-name="lessequal" unicode="&#x2264;" horiz-adv-x="698" 
d="M584 302h-6l-502 346v72l508 349v-139l-371 -245l371 -244v-139zM584 145h-508v119h508v-119z" />
    <glyph glyph-name="greaterequal" unicode="&#x2265;" horiz-adv-x="698" 
d="M604 648l-508 -346v139l370 244l-370 245v139h6l502 -349v-72zM603 145h-507v119h507v-119z" />
    <glyph glyph-name="lozenge" unicode="&#x25ca;" horiz-adv-x="826" 
d="M798 574l-347 -508h-72l-349 508l349 508h72zM659 574l-245 371l-245 -371l245 -371z" />
    <glyph glyph-name="fi" unicode="&#xf001;" horiz-adv-x="872" 
d="M756 0h-131v856h-336v-856h-131v856h-113v117h113v479c0 75.333 37.333 113 112 113h373c75.333 0 113 -37.667 113 -113v-266h-131v262h-336v-475h467v-973z" />
    <glyph glyph-name="fi" unicode="&#xfb01;" horiz-adv-x="872" 
d="M756 0h-131v856h-336v-856h-131v856h-113v117h113v479c0 75.333 37.333 113 112 113h373c75.333 0 113 -37.667 113 -113v-266h-131v262h-336v-475h467v-973z" />
    <glyph glyph-name="fl" unicode="&#xf002;" horiz-adv-x="872" 
d="M756 0h-131v1448h-336v-475h166v-117h-166v-856h-131v856h-113v117h113v479c0 75.333 37.333 113 112 113h486v-1565z" />
    <glyph glyph-name="fl" unicode="&#xfb02;" horiz-adv-x="872" 
d="M756 0h-131v1448h-336v-475h166v-117h-166v-856h-131v856h-113v117h113v479c0 75.333 37.333 113 112 113h486v-1565z" />
    <glyph glyph-name="glyph1" horiz-adv-x="0" 
 />
    <glyph glyph-name="glyph2" horiz-adv-x="401" 
 />
    <glyph glyph-name="apple" horiz-adv-x="1024" 
d="M128 0v1633h768v-1633h-768zM256 128h512v1377h-512v-1377z" />
    <glyph glyph-name="glyph247" horiz-adv-x="868" 
d="M504 758h-451v143h451v-143z" />
    <glyph glyph-name="glyph248" horiz-adv-x="674" 
d="M492 737l-455 -336v142l455 335v-141z" />
    <glyph glyph-name="glyph249" horiz-adv-x="398" 
d="M348 635l-311 -234v142l311 233v-141z" />
    <glyph glyph-name="glyph250" horiz-adv-x="913" 
d="M893 1432l-875 -1432v133l875 1432v-133z" />
    <glyph glyph-name="glyph251" horiz-adv-x="791" 
d="M764 877l-746 -877v102l746 873v-98z" />
    <glyph glyph-name="glyph252" horiz-adv-x="622" 
d="M563 962h-81v-193h-118v193h-323v85l192 518h121l-190 -499h200v275h118v-275h81v-104z" />
    <glyph glyph-name="glyph253" horiz-adv-x="954" 
d="M944 1448h-188v-475h166v-117h-166v-856h-131v856h-336v-856h-131v856h-113v117h113v479c0 75.333 37.333 113 112 113h207v-117h-188v-475h336v479c0 75.333 37.333 113 112 113h207v-117z" />
    <glyph glyph-name="glyph254" horiz-adv-x="1339" 
d="M1223 0h-131v856h-336v-856h-131v856h-336v-856h-131v856h-113v117h113v479c0 75.333 37.333 113 112 113h207v-117h-188v-475h336v479c0 75.333 37.333 113 112 113h373c75.333 0 113 -37.667 113 -113v-266h-131v262h-336v-475h467v-973z" />
    <glyph glyph-name="glyph255" horiz-adv-x="1339" 
d="M1223 0h-131v1448h-336v-475h166v-117h-166v-856h-131v856h-336v-856h-131v856h-113v117h113v479c0 75.333 37.333 113 112 113h207v-117h-188v-475h336v479c0 75.333 37.333 113 112 113h486v-1565z" />
    <glyph glyph-name="glyph256" horiz-adv-x="1155" 
d="M1030 66c0 -44 -21.667 -66 -65 -66h-775c-43.333 0 -65 22 -65 66v1433c0 44 21.667 66 65 66h775c43.333 0 65 -22 65 -66v-1433zM954 70v1425h-753v-1425h753zM768 758c0 -48 -24 -72 -72 -72h-202v-340h-103v881h305c48 0 72 -23.333 72 -70v-399zM666 778v357h-172
v-357h172z" />
    <glyph glyph-name="glyph257" horiz-adv-x="987" 
d="M928 760l-195 -387l180 -373h-141l-106 231l-70 -145c-27.333 -57.333 -67.666 -86 -120.999 -86h-242c-32.667 0 -59.834 10.5 -81.501 31.5s-32.5 48.167 -32.5 81.5v419c0 36.667 11.667 71 35 103l190 264l-81 169c-41.333 92 -62 155 -62 189v193
c0 33.333 10.5 60.833 31.5 82.5s47.833 32.5 80.5 32.5h349c33.333 0 60.333 -10.667 81 -32s31 -49 31 -83v-209h-139v201h-297v-230l330 -698l116 246h144zM602 373l-192 401l-154 -219v-432h223z" />
    <glyph glyph-name="glyph258" horiz-adv-x="879" 
d="M754 0h-140.001v702h-350v-702h-139v1454c0 32.667 10.333 59.334 31 80.001s47.334 31 80.001 31h405c32.667 0 59.667 -10.333 81 -31s32 -47.334 32 -80.001v-1454zM613.999 825v617h-350v-617h350z" />
    <glyph glyph-name="glyph259" horiz-adv-x="788" 
d="M729 1556l-261 -691h122c69.333 0 104 -37.667 104 -113v-752h-139v749h-217l-25 47l285 769h131v-9zM264 0h-139v1565h139v-1565z" />
    <glyph glyph-name="glyph260" horiz-adv-x="1229" 
d="M1104 0h-135v1384l-287 -288v-1096h-135v1096l-287 288v-1384h-135v1565h133l358 -355l355 355h133v-1565z" />
    <glyph glyph-name="glyph261" horiz-adv-x="870" 
d="M752 0h-140.001v664l-141 92h-207v-756h-139v1565h512c32.667 0 59.334 -10.333 80.001 -31s31 -47.334 31 -80.001v-465c0 -41.333 -18.667 -76 -56 -104l-110 -66l118 -76c34.667 -21.333 52 -54.666 52 -99.999v-643zM607.999 971v471h-344v-565h205z" />
    <glyph glyph-name="glyph262" horiz-adv-x="899" 
d="M774 0h-139v49l-343 -49c-39.333 -5.33301 -67 -8 -83 -8c-22 0 -41.5 8 -58.5 24s-25.5 34.667 -25.5 56v1493h139v-1426l371 37v1389h139v-1565z" />
    <glyph glyph-name="glyph263" horiz-adv-x="868" 
d="M754 615c0 -71.333 -26 -133 -78 -185l-430 -430h-120v1564h140v-1361l350 350v1011h138v-949z" />
    <glyph glyph-name="glyph264" horiz-adv-x="1229" 
d="M1104 0h-133l-358 354l-355 -354h-133v1565h135v-1385l287 289v1096h135v-1096l287 -289v1385h135v-1565z" />
    <glyph glyph-name="glyph265" horiz-adv-x="870" 
d="M752 0h-139l-1 582l-170 118l-176 -122v-578h-139v562c0 42.667 17 76 51 100l149 106l-140 100c-34 24 -51 56.667 -51 98v598h139v-616l161 -114l167 120v610h140v-598c0 -41.333 -17.333 -74 -52 -98l-139 -100l148 -106c34.667 -24 52 -57.333 52 -100v-562z" />
    <glyph glyph-name="glyph266" horiz-adv-x="899" 
d="M774 752c0 -76 -53.332 -114 -159.999 -114c-12 0 -28.833 0.5 -50.5 1.5s-35.834 1.5 -42.501 1.5v-641h-143v640c-8 0.666992 -23 0.5 -45 -0.5s-39 -1.5 -51 -1.5c-104.667 0 -157 38 -157 114v813h139v-801h371v801h139v-813z" />
    <glyph glyph-name="glyph267" horiz-adv-x="879" 
d="M754 0h-140.001v702h-350v-702h-139v1454c0 32.667 10.333 59.334 31 80.001s47.334 31 80.001 31h405c32.667 0 59.667 -10.333 81 -31s32 -47.334 32 -80.001v-1454zM613.999 825v617h-350v-617h350zM654.999 1877l-245 -231h-93v6l150 229h188v-4z" />
    <glyph glyph-name="glyph268" horiz-adv-x="879" 
d="M754 0h-140.001v702h-350v-702h-139v1454c0 32.667 10.333 59.334 31 80.001s47.334 31 80.001 31h405c32.667 0 59.667 -10.333 81 -31s32 -47.334 32 -80.001v-1454zM613.999 825v617h-350v-617h350zM552.999 1647h-92l-246 231v4h188l150 -229v-6z" />
    <glyph glyph-name="glyph269" horiz-adv-x="879" 
d="M754 0h-140.001v702h-350v-702h-139v1454c0 32.667 10.333 59.334 31 80.001s47.334 31 80.001 31h405c32.667 0 59.667 -10.333 81 -31s32 -47.334 32 -80.001v-1454zM613.999 825v617h-350v-617h350zM668.999 1647h-86l-151 117l-152 -117h-82v8l197 227h78l196 -227
v-8z" />
    <glyph glyph-name="glyph270" horiz-adv-x="879" 
d="M754 0h-140.001v702h-350v-702h-139v1454c0 32.667 10.333 59.334 31 80.001s47.334 31 80.001 31h405c32.667 0 59.667 -10.333 81 -31s32 -47.334 32 -80.001v-1454zM613.999 825v617h-350v-617h350zM641.999 1716c0 -48.667 -24.667 -73 -74 -73
c-28.667 0 -72.667 12 -132 36l-122 54v-88h-106v123c0 48.667 24.333 73 73 73c28.667 0 72.667 -12 132 -36l122 -54v88h107v-123z" />
    <glyph glyph-name="glyph271" horiz-adv-x="879" 
d="M754 0h-140.001v702h-350v-702h-139v1454c0 32.667 10.333 59.334 31 80.001s47.334 31 80.001 31h405c32.667 0 59.667 -10.333 81 -31s32 -47.334 32 -80.001v-1454zM613.999 825v617h-350v-617h350zM629.999 1645h-147v151h147v-151zM371.999 1645h-147v151h147v-151z
" />
    <glyph glyph-name="glyph272" horiz-adv-x="879" 
d="M754 0h-140.001v702h-350v-702h-139v1454c0 32.667 10.333 59.334 31 80.001s47.334 31 80.001 31h405c32.667 0 59.667 -10.333 81 -31s32 -47.334 32 -80.001v-1454zM613.999 825v617h-350v-617h350zM625.999 1734c0 -61.333 -30.667 -92 -92 -92h-201
c-61.333 0 -92 30.667 -92 92v188c0 62 30.667 93 92 93h201c61.333 0 92 -31 92 -93v-188zM523.999 1734v188h-181v-188h181z" />
    <glyph glyph-name="glyph273" horiz-adv-x="899" 
d="M774 0h-139v49l-343 -49c-39.333 -5.33301 -67 -8 -83 -8c-22 0 -41.5 8 -58.5 24s-25.5 34.667 -25.5 56v1493h139v-1426l371 37v1389h139v-1565zM673 1878l-245 -231h-93v6l150 229h188v-4z" />
    <glyph glyph-name="glyph274" horiz-adv-x="899" 
d="M774 0h-139v49l-343 -49c-39.333 -5.33301 -67 -8 -83 -8c-22 0 -41.5 8 -58.5 24s-25.5 34.667 -25.5 56v1493h139v-1426l371 37v1389h139v-1565zM577 1647h-92l-246 231v4h188l150 -229v-6z" />
    <glyph glyph-name="glyph275" horiz-adv-x="899" 
d="M774 0h-139v49l-343 -49c-39.333 -5.33301 -67 -8 -83 -8c-22 0 -41.5 8 -58.5 24s-25.5 34.667 -25.5 56v1493h139v-1426l371 37v1389h139v-1565zM677 1645h-86l-151 117l-152 -117h-82v8l197 227h78l196 -227v-8z" />
    <glyph glyph-name="glyph276" horiz-adv-x="899" 
d="M774 0h-139v49l-343 -49c-39.333 -5.33301 -67 -8 -83 -8c-22 0 -41.5 8 -58.5 24s-25.5 34.667 -25.5 56v1493h139v-1426l371 37v1389h139v-1565zM656 1650h-147v151h147v-151zM398 1650h-147v151h147v-151z" />
    <glyph glyph-name="glyph277" horiz-adv-x="899" 
d="M774 752c0 -76 -53.332 -114 -159.999 -114c-12 0 -28.833 0.5 -50.5 1.5s-35.834 1.5 -42.501 1.5v-641h-143v640c-8 0.666992 -23 0.5 -45 -0.5s-39 -1.5 -51 -1.5c-104.667 0 -157 38 -157 114v813h139v-801h371v801h139v-813zM661.001 1867l-245 -231h-93v6l150 229
h188v-4z" />
    <glyph glyph-name="glyph278" horiz-adv-x="899" 
d="M774 752c0 -76 -53.332 -114 -159.999 -114c-12 0 -28.833 0.5 -50.5 1.5s-35.834 1.5 -42.501 1.5v-641h-143v640c-8 0.666992 -23 0.5 -45 -0.5s-39 -1.5 -51 -1.5c-104.667 0 -157 38 -157 114v813h139v-801h371v801h139v-813zM649.001 1647h-147v151h147v-151z
M391.001 1647h-147v151h147v-151z" />
    <glyph glyph-name="glyph279" horiz-adv-x="899" 
d="M125 1565h139v-49l343 48c39.333 5.33301 67 8 83 8c22 0 41.5 -7.83301 58.5 -23.5s25.5 -34.167 25.5 -55.5v-1493h-139v1426l-371 -37v-1389h-139v1565z" />
    <glyph glyph-name="glyph280" horiz-adv-x="899" 
d="M125 1565h139v-49l343 48c39.333 5.33301 67 8 83 8c22 0 41.5 -7.83301 58.5 -23.5s25.5 -34.167 25.5 -55.5v-1493h-139v1426l-371 -37v-1389h-139v1565zM675 1715c0 -48.667 -24.667 -73 -74 -73c-28.667 0 -72.667 12 -132 36l-122 54v-88h-106v123
c0 48.667 24.333 73 73 73c28.667 0 72.667 -12 132 -36l122 -54v88h107v-123z" />
    <glyph glyph-name="glyph281" horiz-adv-x="669" 
d="M577 871c0 -28 -9.49902 -52.001 -28.499 -72.001s-42.167 -30 -69.5 -30h-291c-24.667 0 -46.834 10.833 -66.501 32.5s-29.5 44.834 -29.5 69.501v591c0 24 10 47.167 30 69.5s42 33.5 66 33.5h291c26 0 48.833 -10.667 68.5 -32s29.5 -45 29.5 -71v-591z
M456.001 880.999v567h-243v-567h243z" />
    <glyph glyph-name="glyph282" horiz-adv-x="644" 
d="M556 882c0 -28.667 -7.33398 -54 -22.001 -76c-17.333 -24.667 -39.666 -37 -66.999 -37h-296c-22 0 -42.333 11 -61 33s-28 44 -28 66v159h119v-146h235v278h-350l5 406h445v-116h-343l-3 -170h277c23.333 0 44 -8.66699 62 -26s27 -37.333 27 -60v-311z" />
    <glyph glyph-name="glyph283" horiz-adv-x="656" 
d="M571 880c0 -32.667 -10.333 -59.334 -31 -80.001s-47.334 -31 -80.001 -31h-257c-32.667 0 -59.334 10.333 -80.001 31s-31 47.334 -31 80.001v574c0 32.667 10.333 59.334 31 80.001s47.334 31 80.001 31h253c32.667 0 59.167 -10.333 79.5 -31
s30.5 -47.334 30.5 -80.001v-128h-116v125h-240v-208h250c32.667 0 59.334 -10.167 80.001 -30.5s31 -46.833 31 -79.5v-253zM451 879v245h-241v-245h241z" />
    <glyph glyph-name="glyph284" horiz-adv-x="591" 
d="M544 1493l-252 -739h-132l249 696h-260v-127h-119v242h514v-72z" />
    <glyph glyph-name="glyph285" horiz-adv-x="668" 
d="M578 865c0 -22.667 -10.5 -44.332 -31.5 -64.999s-42.5 -31 -64.5 -31h-298c-22.667 0 -44 10.333 -64 31s-30 42.334 -30 65.001v180c0 38 14 67.667 42 89c4.66699 4 36 20.667 94 50c-59.333 31.333 -89 47.333 -89 48c-28.667 20.667 -43 48.334 -43 83.001v155
c0 25.333 9.16699 47.666 27.5 66.999s40.5 29 66.5 29h291c22.667 0 44 -10.333 64 -31s30 -42.334 30 -65.001v-155c0 -33.333 -15 -61 -45 -83l-88 -48c61.333 -32 93 -48.667 95 -50c28.667 -20.667 43 -50.334 43 -89.001v-180zM462 1306l-1 147h-253v-148l126 -67z
M461 876.002v179l-128 71l-125 -66l1 -184h252z" />
    <glyph glyph-name="glyph286" horiz-adv-x="656" 
d="M564 881c0 -32.667 -10.332 -59.334 -30.999 -80.001s-47.334 -31 -80.001 -31h-253c-32.667 0 -59.334 10.333 -80.001 31s-31 47.334 -31 80.001v128h116v-125h241v208h-250c-32.667 0 -59.334 10.167 -80.001 30.5s-31 46.833 -31 79.5v253
c0 32.667 10.333 59.334 31 80.001s47.334 31 80.001 31h257c32.667 0 59.334 -10.333 80.001 -31s31 -47.334 31 -80.001v-574zM446.001 1210v246h-241v-246h241z" />
    <glyph glyph-name="glyph287" horiz-adv-x="669" 
d="M577 102c0 -28 -9.49902 -52.001 -28.499 -72.001s-42.167 -30 -69.5 -30h-291c-24.667 0 -46.834 10.833 -66.501 32.5s-29.5 44.834 -29.5 69.501v591c0 24 10 47.167 30 69.5s42 33.5 66 33.5h291c26 0 48.833 -10.667 68.5 -32s29.5 -45 29.5 -71v-591z
M456.001 111.999v567h-243v-567h243z" />
    <glyph glyph-name="glyph288" horiz-adv-x="397" 
d="M268 0h-131v398h-53l87 398h97v-796z" />
    <glyph glyph-name="glyph289" horiz-adv-x="634" 
d="M571 0l-507.999 -0.000976562v78l361 413v191h-226v-179h-119v162c0 35.333 11.667 66 35 92s52.666 39 87.999 39h212c38 0 69 -12.333 93 -37s36 -56 36 -94v-123c0 -55.333 -16 -100.666 -48 -135.999l-260 -289h336v-117z" />
    <glyph glyph-name="glyph290" horiz-adv-x="632" 
d="M563 119c0 -32 -9.83301 -59.834 -29.5 -83.501s-45.167 -35.5 -76.5 -35.5h-267c-79.333 0 -119 40.333 -119 121v130h115v-142h262v160l-183 113v67l169 99v136h-228v-129h-121v112c0 86 42.333 129 127 129h223c75.333 0 113 -37 113 -111v-117
c0 -37.333 -15.667 -68.666 -47 -93.999l-97 -59l109 -66c33.333 -26 50 -61 50 -105v-125z" />
    <glyph glyph-name="glyph291" horiz-adv-x="622" 
d="M563 193h-81v-193h-118v193h-323v85l192 518h121l-190 -499h200v275h118v-275h81v-104z" />
    <glyph glyph-name="glyph292" horiz-adv-x="644" 
d="M556 113c0 -28.667 -7.33398 -54 -22.001 -76c-17.333 -24.667 -39.666 -37 -66.999 -37h-296c-22 0 -42.333 11 -61 33s-28 44 -28 66v159h119v-146h235v278h-350l5 406h445v-116h-343l-3 -170h277c23.333 0 44 -8.66699 62 -26s27 -37.333 27 -60v-311z" />
    <glyph glyph-name="glyph293" horiz-adv-x="656" 
d="M571 111c0 -32.667 -10.333 -59.334 -31 -80.001s-47.334 -31 -80.001 -31h-257c-32.667 0 -59.334 10.333 -80.001 31s-31 47.334 -31 80.001v574c0 32.667 10.333 59.334 31 80.001s47.334 31 80.001 31h253c32.667 0 59.167 -10.333 79.5 -31
s30.5 -47.334 30.5 -80.001v-128h-116v125h-240v-208h250c32.667 0 59.334 -10.167 80.001 -30.5s31 -46.833 31 -79.5v-253zM451 110v245h-241v-245h241z" />
    <glyph glyph-name="glyph294" horiz-adv-x="591" 
d="M544 724l-252 -739h-132l249 696h-260v-127h-119v242h514v-72z" />
    <glyph glyph-name="glyph295" horiz-adv-x="668" 
d="M578 96c0 -22.667 -10.5 -44.332 -31.5 -64.999s-42.5 -31 -64.5 -31h-298c-22.667 0 -44 10.333 -64 31s-30 42.334 -30 65.001v180c0 38 14 67.667 42 89c4.66699 4 36 20.667 94 50c-59.333 31.333 -89 47.333 -89 48c-28.667 20.667 -43 48.334 -43 83.001v155
c0 25.333 9.16699 47.666 27.5 66.999s40.5 29 66.5 29h291c22.667 0 44 -10.333 64 -31s30 -42.334 30 -65.001v-155c0 -33.333 -15 -61 -45 -83l-88 -48c61.333 -32 93 -48.667 95 -50c28.667 -20.667 43 -50.334 43 -89.001v-180zM462 537.002l-1 147h-253v-148l126 -67z
M461 107.002v179l-128 71l-125 -66l1 -184h252z" />
    <glyph glyph-name="glyph296" horiz-adv-x="656" 
d="M564 112c0 -32.667 -10.332 -59.334 -30.999 -80.001s-47.334 -31 -80.001 -31h-253c-32.667 0 -59.334 10.333 -80.001 31s-31 47.334 -31 80.001v128h116v-125h241v208h-250c-32.667 0 -59.334 10.167 -80.001 30.5s-31 46.833 -31 79.5v253
c0 32.667 10.333 59.334 31 80.001s47.334 31 80.001 31h257c32.667 0 59.334 -10.333 80.001 -31s31 -47.334 31 -80.001v-574zM446.001 441v246h-241v-246h241z" />
  </font>
</defs>
</svg>
