<?xml version="1.0" standalone="no"?>
<!DOCTYPE svg PUBLIC "-//W3C//DTD SVG 1.1//EN" "http://www.w3.org/Graphics/SVG/1.1/DTD/svg11.dtd" >
<svg xmlns="http://www.w3.org/2000/svg">
<metadata>Generated by IcoMoon</metadata>
<defs>
<font id="icomoon" horiz-adv-x="1024">
<font-face units-per-em="1024" ascent="960" descent="-64" />
<missing-glyph horiz-adv-x="1024" />
<glyph unicode="&#x20;" horiz-adv-x="512" d="" />
<glyph unicode="&#xe900;" glyph-name="arrow-right" horiz-adv-x="2645" d="M2005-106.667c-56.889 0-113.777 0-170.667 0 0 142.223 0 284.444 0 426.667-597.333 0-1194.667 0-1792 0 0 56.889 0 113.777 0 170.667 597.333 0 1194.667 0 1792 0 0 142.223 0 284.444 0 426.667 28.444 0 56.889 0 85.333 0 241.577-163.564 497.577-305.786 768-426.667 0-56.889 0-113.777 0-170.667-256.966-99.783-484.522-242.005-682.667-426.667z" />
<glyph unicode="&#xe901;" glyph-name="awards-animation-quality" horiz-adv-x="1444" d="M612.721 968.393c83.934 0 167.869 0 251.803 0 162.045-66.446 296.341-172.763 402.885-318.951-22.073-30.483-47.253-58.46-75.541-83.934-95.682 118.28-210.393 210.608-344.131 276.984-194.463 37.054-345.545-27.296-453.246-193.049 131.253-139.652 265.548-276.744 402.885-411.279-95.756-22.075-179.69 0.309-251.803 67.148-114.957 112.155-226.87 226.865-335.738 344.131 106.039 145.557 240.334 251.874 402.885 318.951zM814.164-55.607c-83.934 0-167.869 0-251.803 0-162.171 66.604-296.466 172.92-402.885 318.951 22.073 30.483 47.253 58.46 75.541 83.934 69.946-69.946 139.89-139.89 209.836-209.836 232.841-133.033 428.688-91.065 587.541 125.902-131.253 139.652-265.548 276.744-402.885 411.279 95.756 22.075 179.69-0.309 251.803-67.148 114.957-112.155 226.87-226.865 335.738-344.131-106.039-145.557-240.334-251.874-402.885-318.951zM-8.393 397.639c0 16.787 0 33.574 0 50.361 50.028 44.391 100.388 89.155 151.082 134.295 33.574-22.382 61.552-50.361 83.934-83.934-54.060-48.269-107.22-98.63-159.475-151.082-21.333 23.208-46.514 39.995-75.541 50.361zM1435.279 515.148c0-16.787 0-33.574 0-50.361-50.028-44.391-100.389-89.155-151.082-134.295-33.574 22.382-61.552 50.361-83.934 83.934 45.103 59.098 98.262 109.459 159.475 151.082 21.333-23.208 46.513-39.995 75.541-50.361z" />
<glyph unicode="&#xe902;" glyph-name="best-product-design" horiz-adv-x="1091" d="M226.623 968.393c39.169 0 78.339 0 117.508 0 0-262.995 0-525.989 0-788.984-39.169 0-78.339 0-117.508 0 0 190.251 0 380.503 0 570.754-78.339 0-156.678 0-235.016 0 0 39.169 0 78.339 0 117.508 78.339 0 156.678 0 235.016 0 0 33.574 0 67.148 0 100.721zM730.23 968.393c39.169 0 78.339 0 117.508 0 0-33.574 0-67.148 0-100.721 78.339 0 156.677 0 235.016 0 0-39.169 0-78.339 0-117.508-78.339 0-156.677 0-235.016 0 0-190.251 0-380.503 0-570.754-39.169 0-78.339 0-117.508 0 0 262.995 0 525.989 0 788.984zM1082.754 666.23c0-173.464 0-346.93 0-520.393-39.169-95.126-106.316-162.274-201.443-201.443-67.148 0-134.295 0-201.443 0-54.146 28.758-101.708 67.926-142.689 117.508-40.98-49.582-88.542-88.751-142.689-117.508-67.148 0-134.295 0-201.443 0-95.126 39.169-162.273 106.316-201.443 201.443 0 173.464 0 346.93 0 520.393 33.574 0 67.148 0 100.721 0-2.794-156.778 0.004-313.455 8.393-470.033 73.819-157.045 182.933-187.822 327.344-92.328 16.117 23.827 30.107 49.008 41.967 75.541 8.392 195.767 11.188 391.615 8.393 587.541 39.169 0 78.339 0 117.508 0-2.795-195.926 0.002-391.774 8.393-587.541 101.418-162.319 218.926-173.509 352.525-33.574 23.941 172.139 32.335 345.605 25.18 520.393 33.574 0 67.148 0 100.721 0z" />
<glyph unicode="&#xe903;" glyph-name="best-seo" horiz-adv-x="1175" d="M-8.393 968.393c128.7 0 257.398 0 386.098 0 57.116-108.602 118.668-214.919 184.656-318.951-23.821-30.819-43.406-64.393-58.754-100.721-62.247 104.928-126.597 208.448-193.049 310.557-50.361 11.191-100.721 11.191-151.082 0 89.529-151.082 179.061-302.164 268.59-453.246-24.437-29.29-46.819-60.065-67.148-92.328-119.316 210.873-242.419 417.913-369.311 621.115 0 11.191 0 22.383 0 33.574zM780.59 968.393c128.7 0 257.398 0 386.098 0 0-11.191 0-22.383 0-33.574-125.472-205.968-251.374-413.008-377.705-621.115-31.642 40.525-42.833 85.291-33.574 134.295 79.023 138.477 160.159 275.57 243.41 411.279-56.778 13.826-112.734 11.028-167.869-8.393-105.554-197.17-217.466-390.22-335.738-579.148 28.697-32.159 51.079-68.531 67.148-109.115 11.192-22.382 22.382-22.382 33.574 0 16.068 40.584 38.45 76.956 67.148 109.115-81.091 63.109-83.887 127.458-8.393 193.049 62.367-68.482 95.94-146.821 100.721-235.016-62.075-90.619-115.234-185.744-159.475-285.377-11.192 0-22.382 0-33.574 0-59.024 109.56-120.575 218.674-184.656 327.344 136.612 231.306 270.907 463.526 402.885 696.656z" />
<glyph unicode="&#xe904;" glyph-name="long-bottom-arrow" horiz-adv-x="960" d="M454.038 963.22c-16.998-11.651-30.951-26.678-41.862-45.082-2.147-246.876-4.294-493.753-6.44-740.629-99.824 99.824-199.648 199.648-299.472 299.472-50.981 21.68-87.476 7.726-109.484-41.862 0-12.881 0-25.761 0-38.642 145.789-156.524 296.061-308.945 450.818-457.258 19.321 0 38.642 0 57.962 0 152.421 148.126 302.692 298.396 450.818 450.818 0 17.174 0 34.348 0 51.522-25.342 44.33-61.839 56.137-109.484 35.421-97.679-97.677-195.352-195.352-293.031-293.031-2.147 240.436-4.294 480.872-6.44 721.308-5.942 28.43-22.043 47.751-48.302 57.962-15.027 0-30.055 0-45.082 0zM460.478 950.34c37.408 5.462 62.095-9.565 74.063-45.082 2.147-251.17 4.294-502.34 6.44-753.509 104.12 104.12 208.233 208.235 312.352 312.352 66.167 19.731 95.148-4.956 86.943-74.063-144.906-144.906-289.811-289.811-434.717-434.717-10.312-1.758-19.973-4.978-28.981-9.66-9.009 4.682-18.669 7.902-28.981 9.66-142.759 142.761-285.518 285.516-428.277 428.277-19.45 49.118-3.349 79.173 48.302 90.164 11.586-0.496 22.319-3.716 32.201-9.66 104.207-105.281 209.398-209.398 315.572-312.352 5.367 255.436 8.587 510.899 9.66 766.39 9.052 14.45 20.859 25.184 35.421 32.201z" />
<glyph unicode="&#xe905;" glyph-name="site-of-the-day" horiz-adv-x="1544" d="M612.721 968.393c-90.626-52.829-121.403-131.167-92.328-235.016 116.159-193.113 228.070-388.961 335.738-587.541 11.192-22.382 11.192-44.766 0-67.148-39.169-44.766-78.339-44.766-117.508 0-147.192 264.573-301.071 524.77-461.639 780.59-114.258 66.795-209.384 47.21-285.377-58.754 0-50.361 0-100.721 0-151.082 96.117-152.853 188.445-309.532 276.984-470.033 82.899-145.27 189.217-167.652 318.951-67.148 36.097-67.193 83.661-123.15 142.689-167.869 44.766 0 89.529 0 134.295 0 93.671 58.247 124.446 142.182 92.328 251.803-111.913 190.251-223.825 380.503-335.738 570.754-11.192 22.382-11.192 44.765 0 67.148 49.795 46.419 94.561 40.823 134.295-16.787 163.796-299.815 340.059-590.788 528.787-872.918 50.361 0 100.721 0 151.082 0 39.169 27.979 72.743 61.552 100.721 100.721 0 50.361 0 100.721 0 151.082-121.989 207.407-250.687 411.648-386.098 612.721-90.872 41.278-172.008 27.289-243.41-41.967-35.771 77.756-83.333 144.904-142.689 201.443-50.361 0-100.721 0-151.082 0zM142.689 800.525c28.039-4.216 53.219-15.407 75.541-33.574 101.396-183.222 204.914-365.081 310.557-545.574-36.701-66.647-84.263-75.041-142.689-25.18-102.471 176.993-200.393 356.052-293.77 537.18 4.813 32.622 21.6 55.006 50.361 67.148zM1032.393 733.377c28.039-4.217 53.219-15.407 75.541-33.574 117.906-191.055 227.021-386.902 327.344-587.541-25.293-72.773-67.26-83.965-125.902-33.574-115.608 189.234-224.723 382.283-327.344 579.148 7.667 32.57 24.453 57.75 50.361 75.541z" />
<glyph unicode="&#xe906;" glyph-name="plus" d="M544 832v-352h352v-64h-352v-352h-64v352h-352v64h352v352z" />
<glyph unicode="&#xe907;" glyph-name="minus" d="M880 480h-736v-64h736z" />
<glyph unicode="&#xe908;" glyph-name="pinterest" d="M441.14 282.72c-26.88-140.96-59.72-276.12-157-346.72-30.020 213.080 44.1 373.1 78.5 542.98-58.68 98.8 7.060 297.6 130.84 248.6 152.3-60.24-131.88-367.26 58.9-405.6 199.2-40.020 280.5 345.62 157 471.020-178.48 181.1-519.52 4.14-477.58-255.14 10.2-63.38 75.7-82.62 26.18-170.080-114.24 25.32-148.32 115.4-143.94 235.5 7.060 196.6 176.64 334.24 346.74 353.28 215.1 24.080 416.98-78.96 444.86-281.32 31.4-228.38-97.1-475.72-327.1-457.94-62.36 4.84-88.52 35.74-137.4 65.42z" />
<glyph unicode="&#xe909;" glyph-name="instagram" d="M522.078-64c-3.391 0-6.781 0-10.195 0.016-80.266-0.195-154.43 1.844-226.555 6.234-66.125 4.023-126.484 26.875-174.562 66.078-46.391 37.828-78.070 88.977-94.156 152.008-14 54.875-14.742 108.742-15.453 160.844-0.516 37.383-1.047 81.68-1.156 126.727 0.109 45.234 0.641 89.531 1.156 126.914 0.711 52.094 1.453 105.961 15.453 160.844 16.086 63.031 47.766 114.18 94.156 152.008 48.078 39.203 108.437 62.055 174.57 66.078 72.125 4.383 146.305 6.43 226.742 6.234 80.289 0.172 154.43-1.852 226.555-6.234 66.125-4.023 126.484-26.875 174.562-66.078 46.398-37.828 78.070-88.977 94.156-152.008 14-54.875 14.742-108.75 15.453-160.844 0.516-37.383 1.055-81.68 1.156-126.727-0.102-45.234-0.641-89.531-1.156-126.914-0.297-22.094-18.547-39.75-40.539-39.453-22.094 0.305-39.75 18.461-39.453 40.547 0.508 37.164 1.047 81.172 1.148 125.82-0.102 44.461-0.641 88.469-1.148 125.633-0.648 47.43-1.32 96.477-12.977 142.156-11.758 46.078-34.367 83.016-67.195 109.789-35.508 28.961-78.867 45.187-128.867 48.227-70.43 4.281-142.93 6.258-221.695 6.094-78.953 0.187-151.461-1.812-221.891-6.094-50-3.039-93.352-19.266-128.867-48.219-32.828-26.773-55.437-63.711-67.195-109.797-11.656-45.68-12.328-94.727-12.977-142.156-0.508-37.164-1.039-81.172-1.148-125.82 0.109-44.461 0.641-88.469 1.148-125.633 0.648-47.43 1.32-96.477 12.977-142.156 11.758-46.078 34.367-83.016 67.195-109.789 35.516-28.961 78.867-45.187 128.867-48.227 70.43-4.281 142.953-6.281 221.703-6.086 78.961-0.187 151.453 1.805 221.883 6.086 50 3.039 93.352 19.266 128.867 48.227 23.648 19.289 42.125 44.039 54.914 73.57 8.781 20.266 32.328 29.586 52.602 20.805s29.586-32.328 20.812-52.602c-17.93-41.398-44.094-76.312-77.773-103.773-48.078-39.211-108.437-62.055-174.562-66.078-69.070-4.203-140.023-6.25-216.555-6.25zM759.977 448c0 137.852-112.148 250-250 250-137.844 0-250-112.148-250-250s112.156-250 250-250c137.852 0 250 112.148 250 250zM679.977 448c0-93.734-76.258-170-170-170-93.734 0-170 76.266-170 170s76.266 170 170 170c93.742 0 170-76.266 170-170zM787.977 778c-33.133 0-60-26.859-60-60s26.867-60 60-60c33.141 0 60 26.859 60 60s-26.859 60-60 60z" />
<glyph unicode="&#xe90a;" glyph-name="social" d="M641.472 861.728c-92.48-33.664-150.912-120.448-144.288-215.424l2.24-36.64-36.992 4.48c-134.624 17.184-252.288 75.52-352.192 173.536l-48.832 48.608-12.576-35.904c-26.624-80.032-9.6-164.576 45.856-221.44 29.6-31.424 22.912-35.904-28.096-17.184-17.76 5.952-33.312 10.464-34.784 8.224-5.152-5.248 12.576-73.312 26.624-100.256 19.232-37.44 58.432-74.048 101.376-95.776l36.256-17.184-42.912-0.736c-41.408 0-42.912-0.736-38.464-16.48 14.784-48.608 73.248-100.256 138.336-122.688l45.856-15.68-39.936-23.936c-59.168-34.464-128.736-53.888-198.304-55.328-33.28-0.736-60.64-3.744-60.64-6.016 0-7.456 90.272-49.312 142.784-65.824 157.6-48.608 344.8-27.648 485.376 55.36 99.904 59.104 199.744 176.544 246.4 290.272 25.184 60.544 50.304 171.296 50.304 224.352 0 34.432 2.24 38.912 43.648 80.032 24.448 23.936 47.36 50.112 51.808 57.6 7.424 14.24 6.624 14.24-31.072 1.504-62.88-22.464-71.776-19.456-40.672 14.208 22.912 23.936 50.304 67.328 50.304 80.032 0 2.24-11.072-1.472-23.68-8.224-13.312-7.424-42.912-18.656-65.12-25.376l-39.936-12.736-36.256 24.704c-20 13.44-48.064 28.416-62.88 32.896-37.76 10.464-95.488 8.992-129.536-2.976z" />
<glyph unicode="&#xe90b;" glyph-name="facebook-app-symbol" d="M591.302-64v467.060h156.71l23.511 182.076h-180.221v116.229c0 52.699 14.574 88.612 90.229 88.612l96.335 0.040v162.855c-16.66 2.165-73.847 7.129-140.407 7.129-138.987 0-234.141-84.837-234.141-240.603v-134.261h-157.185v-182.076h157.185v-467.060h187.983z" />
<glyph unicode="&#xe90c;" glyph-name="play-button" d="M73.143 960l877.714-512-877.714-512z" />
<glyph unicode="&#xe90d;" glyph-name="star" d="M1022.4 565.6c-4 12-14.6 20.6-27.2 22l-322.4 33.8-131.6 296c-5.2 11.6-16.6 19-29.2 19s-24.2-7.4-29.2-19l-131.6-296.2-322.6-33.6c-12.6-1.4-23.2-10-27.2-22s-0.4-25.2 9-33.6l241-216.8-67.4-317c-2.6-12.4 2.2-25.2 12.4-32.6s23.8-8.2 34.8-1.8l280.8 162.2 280.6-162.2c5-2.8 10.4-4.2 16-4.2 6.6 0 13.2 2 18.8 6.2 10.2 7.4 15.2 20.2 12.4 32.6l-67.6 317 241.2 216.6c9.4 8.4 13 21.6 9 33.6zM715.8 350.4c-8.6-7.6-12.2-19.2-10-30.4l56.4-264.8-234.2 135.6c-5 2.8-10.4 4.2-16 4.2s-11-1.4-16-4.2l-234.4-135.4 56.4 264.6c2.4 11.2-1.4 22.8-9.8 30.4l-201.2 181 269.2 28.2c11.4 1.2 21.2 8.4 26 18.8l110 247.2 110-247.2c4.6-10.4 14.6-17.6 26-18.8l269.2-28.2z" />
<glyph unicode="&#xe90e;" glyph-name="star-1" d="M1024 564.368l-372.078 24.462-140.126 352.032-140.126-352.032-371.67-24.462 285.068-242.052-93.544-367.178 320.272 202.442 320.274-202.442-93.544 367.178z" />
<glyph unicode="&#xe90f;" glyph-name="comment" d="M320 608c-35.346 0-64-28.653-64-64s28.654-64 64-64c35.347 0 64 28.653 64 64s-28.653 64-64 64zM448 544c0 35.347 28.653 64 64 64s64-28.653 64-64-28.653-64-64-64-64 28.653-64 64zM704 608c-35.347 0-64-28.653-64-64s28.653-64 64-64 64 28.653 64 64-28.653 64-64 64zM160 928c-88.365 0-160-71.635-160-160v-448c0-88.365 71.635-160 160-160h0.388l0.298-149.709c0.026-13.085 8.016-24.835 20.175-29.67s26.036-1.782 35.042 7.712l162.844 171.667h485.254c88.365 0 160 71.635 160 160v448c0 88.365-71.635 160-160 160zM64 768c0 53.019 42.981 96 96 96h704c53.021 0 96-42.981 96-96v-448c0-53.021-42.979-96-96-96h-499.008c-8.781 0-17.174-3.606-23.216-9.978l-117.25-123.603-0.202 101.645c-0.035 17.648-14.352 31.936-32 31.936h-32.324c-53.019 0-96 42.979-96 96z" />
<glyph unicode="&#xe910;" glyph-name="up-right-arrow" d="M896 864h-768c-17.664 0-32-14.336-32-32s14.336-32 32-32h690.736l-713.36-713.376c-12.496-12.496-12.496-32.752 0-45.248 6.256-6.256 14.432-9.376 22.624-9.376s16.384 3.12 22.624 9.376l713.376 713.376v-690.752c0-17.664 14.336-32 32-32s32 14.336 32 32v768c0 17.664-14.336 32-32 32z" />
<glyph unicode="&#xe911;" glyph-name="top1" d="M128.068 543.232l44.954-39.738 308.978 349.534v-917.028h60v917.028l308.978-349.534 44.954 39.738-368.41 416.768h-31.044z" />
<glyph unicode="&#xe912;" glyph-name="left1-arrow" d="M280.844 167.157l45.612 45.614-202.973 202.975h900.517v64.509h-900.517l202.973 202.973-45.612 45.614-280.844-280.844z" />
<glyph unicode="&#xe913;" glyph-name="facebook" horiz-adv-x="1022" d="M580-62h-163.984c-27.391 0-49.672 22.281-49.672 49.672v369.875h-95.672c-27.391 0-49.672 22.289-49.672 49.672v158.492c0 27.391 22.281 49.672 49.672 49.672h95.672v79.367c0 78.695 24.711 145.648 71.453 193.609 46.953 48.18 112.57 73.641 189.758 73.641l125.063-0.203c27.344-0.047 49.586-22.328 49.586-49.672v-147.156c0-27.391-22.273-49.672-49.656-49.672l-84.203-0.031c-25.68 0-32.219-5.148-33.617-6.727-2.305-2.617-5.047-10.016-5.047-30.445v-62.703h116.539c8.773 0 17.273-2.164 24.578-6.242 15.758-8.805 25.555-25.453 25.555-43.445l-0.063-158.492c0-27.375-22.281-49.656-49.672-49.656h-116.938v-369.883c0-27.391-22.289-49.672-49.68-49.672zM426.375-1.969h143.266v386.391c0 18.289 14.883 33.164 33.164 33.164h133.453l0.055 137.766h-133.516c-18.281 0-33.156 14.875-33.156 33.164v89.578c0 23.453 2.383 50.125 20.086 70.172 21.391 24.234 55.102 27.031 78.602 27.031l73.844 0.031v126.453l-114.664 0.188c-124.047 0-201.133-79.406-201.133-207.219v-106.234c0-18.281-14.875-33.164-33.156-33.164h-112.188v-137.766h112.188c18.281 0 33.156-14.875 33.156-33.164zM752.5 901.766h0.008z" />
<glyph unicode="&#xe914;" glyph-name="twitter" d="M1019.478 740.924c-6.054 9.848-17.132 15.43-28.664 14.43l-51.060-4.448 48.806 98.386c5.812 11.718 3.516 25.836-5.708 35.11-9.228 9.274-23.332 11.638-35.078 5.886l-129.174-63.262c-79.806 42.132-179.512 29.626-248.12-32.872-57.26-52.16-87.358-132.374-81.746-212.366-149.658 15-276.339 100.662-351.247 239.074-4.97 9.182-14.288 15.188-24.702 15.926-10.434 0.726-20.486-3.898-26.698-12.292-46.46-62.764-49.72-148.82-13.298-219.618-10.040 2.536-20.724 5.968-32.572 9.926-10.15 3.394-21.34 1.22-29.486-5.724s-12.062-17.646-10.32-28.208c14.412-87.376 65.364-154.528 145.852-194.276-10.48-3.65-21.174-6.614-32.048-8.88-10.804-2.252-19.552-10.156-22.882-20.678-3.33-10.52-0.726-22.020 6.814-30.078 57.962-61.956 141.69-92.45 201.162-107.078-67.62-52.954-140.614-61.816-246.682-58.174-12.278 0.372-23.59-6.544-28.752-17.674-5.16-11.132-3.158-24.272 5.088-33.362 44.216-48.738 205.308-103.694 374.653-107.814 6.698-0.162 13.53-0.25 20.506-0.25 118.902 0.002 276.045 25.49 388.839 138.284 85.374 85.372 138.774 183.654 158.712 292.107 16.104 87.594 5.926 157.738 1.036 191.45-0.36 2.478-0.744 5.108-1.056 7.408l47.762 76.98c6.092 9.82 6.118 22.24 0.064 32.088zM912.266 615.679c9.062-62.448 36.632-252.48-142.49-431.603-104.12-104.118-255.776-122.814-364.677-120.168-92.922 2.26-176.038 20.032-236.278 40.3 24.458 3 46.254 7.628 66.828 14.022 56.718 17.63 104.634 49.352 150.79 99.83 7.694 8.414 10.058 20.41 6.136 31.114s-13.482 18.332-24.79 19.78c-29.118 3.732-116.61 18.46-185.506 65.984 19.854 8.12 39.002 18.282 57.286 30.41 10.030 6.656 15.218 18.58 13.242 30.454-1.974 11.872-10.736 21.482-22.38 24.534-56.39 14.784-124.446 47.864-155.828 121.71 20.040-3.512 41.83-4.362 65.070 0.848 10.772 2.412 19.404 10.452 22.572 21.028 3.17 10.576 0.386 22.040-7.282 29.98-39.048 40.444-53.65 98.728-41.122 148.602 41.028-59.962 93.006-110.426 152.558-147.736 76.182-47.73 165.098-74.108 257.141-76.274 9.366-0.198 18.35 3.89 24.314 11.146 5.96 7.254 8.252 16.848 6.214 26.014-15.836 71.19 6.75 147.082 57.542 193.348 52.68 47.99 130.538 55.27 189.332 17.692 8.978-5.738 20.304-6.38 29.876-1.692l63.082 30.896-33.018-66.562c-4.906-9.89-4.092-21.658 2.13-30.776 6.22-9.118 16.862-14.18 27.876-13.214l44.484 3.874-20.492-33.030c-6.878-11.086-5.452-20.922-2.61-40.512z" />
<glyph unicode="&#xe915;" glyph-name="linkedin" d="M267.13-53.562h-267.13v690.082h267.13zM44.519-9.043h178.092v601.043h-178.092zM1024.003-53.562h-267.13v378.432c0 36.88-29.902 66.783-66.783 66.783-36.889 0-66.783-29.902-66.783-66.783v-378.432h-267.13v690.082h267.13v-44.796c40.321 29.152 88.818 44.829 138.571 44.796 144.416 0 262.125-117.147 262.125-261.285zM801.391-9.043h178.084v384.277c-0.302 119.918-97.679 216.921-217.598 216.766-54.815 0-106.296-23.095-144.693-64.834l-38.405-42.016v106.851h-178.084v-601.043h178.084v333.913c0 61.476 49.834 111.302 111.31 111.302 61.467 0 111.302-49.826 111.302-111.302zM133.565 681.046c-73.769 0-133.565 59.796-133.565 133.565 0 73.761 59.796 133.565 133.565 133.565s133.565-59.804 133.565-133.565c-0.155-73.704-59.861-133.418-133.565-133.565zM133.565 903.649c-49.174 0-89.046-39.864-89.046-89.038 0-49.182 39.872-89.046 89.046-89.046s89.046 39.864 89.046 89.046c0 49.174-39.872 89.038-89.046 89.038z" />
<glyph unicode="&#xe916;" glyph-name="instagram-1" d="M746.811 960h-469.624c-152.843 0-277.187-124.344-277.187-277.187v-469.632c0-152.836 124.344-277.179 277.187-277.179h469.632c152.836 0 277.179 124.344 277.179 277.179v469.632c0 152.843-124.344 277.187-277.187 277.187zM963.967 213.181c0-119.734-97.414-217.148-217.156-217.148h-469.624c-119.742 0-217.156 97.414-217.156 217.148v469.632c0 119.742 97.414 217.156 217.156 217.156h469.632c119.734 0 217.148-97.414 217.148-217.156zM511.999 727.993c-154.39 0-279.992-125.601-279.992-279.992s125.601-279.992 279.992-279.992 279.992 125.601 279.992 279.992-125.601 279.992-279.992 279.992zM511.999 228.040c-121.281 0-219.961 98.672-219.961 219.961 0 121.281 98.68 219.961 219.961 219.961 121.289 0 219.961-98.68 219.961-219.961 0-121.289-98.672-219.961-219.961-219.961zM798.686 827.43c-45.625 0-82.734-37.117-82.734-82.734 0-45.625 37.109-82.742 82.734-82.742s82.742 37.117 82.742 82.742-37.117 82.734-82.742 82.734zM798.686 721.993c-12.516 0-22.703 10.187-22.703 22.703 0 12.523 10.187 22.703 22.703 22.703 12.523 0 22.711-10.18 22.711-22.703 0-12.516-10.187-22.703-22.711-22.703z" />
<glyph unicode="&#xe917;" glyph-name="up-right-arrow-1" d="M853.76 836.256h-592.16c-17.673 0-32-14.327-32-32s14.327-32 32-32v0h529.408l-656.608-656.64c-6.36-5.867-10.329-14.243-10.329-23.545 0-17.673 14.327-32 32-32 9.303 0 17.678 3.97 23.525 10.307l0.020 0.022 656.64 656.64v-529.44c0-17.673 14.327-32 32-32s32 14.327 32 32v0 592.128c-0.036 25.671-20.828 46.473-46.491 46.528h-0.005z" />
<glyph unicode="&#xe918;" glyph-name="search" d="M725.308 264.862l164.446-164.442c8.329-8.333 8.329-21.841 0-30.174-8.333-8.329-21.841-8.329-30.174 0l-164.442 164.446c-60.173-53.124-139.226-85.359-225.805-85.359-188.513 0-341.333 152.819-341.333 341.333s152.82 341.333 341.333 341.333c188.514 0 341.333-152.82 341.333-341.333 0-86.579-32.235-165.632-85.359-225.805zM469.333 192c164.949 0 298.667 133.717 298.667 298.667s-133.717 298.667-298.667 298.667c-164.949 0-298.667-133.718-298.667-298.667s133.718-298.667 298.667-298.667z" />
<glyph unicode="&#xe919;" glyph-name="phone" d="M704.16 194.752c13.344-21.92 17.344-47.68 11.264-72.608-6.048-24.896-21.472-45.984-43.392-59.328l-79.488-48.384c-15.264-9.28-32.384-13.952-49.632-13.952-15.488 0-31.104 3.744-45.6 11.296-166.912 86.56-262.208 215.104-304.16 284-92.96 152.704-112.48 303.168-112.512 402.464 0 33.472 17.216 64 46.080 81.6l79.52 48.384c21.888 13.344 47.648 17.344 72.608 11.264 24.896-6.048 45.984-21.44 59.296-43.36l49.92-81.984c27.52-45.248 13.12-104.416-32.096-131.936l-41.184-25.056c-12.352-7.52-18.368-22.624-14.24-35.872 13.6-44 32.672-86.272 56.64-125.664 23.904-39.264 52.672-75.552 85.44-107.872 10.144-9.984 25.984-11.616 38.56-3.968l41.152 25.056c45.152 27.584 104.384 13.152 131.936-32.064l49.92-82.016zM514.848 579.392c69.76-10.752 117.728-76.288 106.976-146.016-2.688-17.472 9.28-33.824 26.752-36.512 1.664-0.256 3.296-0.384 4.928-0.384 15.52 0 29.152 11.328 31.584 27.136 16.128 104.64-55.84 202.88-160.448 219.040-17.44 2.624-33.824-9.28-36.512-26.72-2.688-17.472 9.28-33.824 26.72-36.512zM544.128 769.152c-17.312 2.688-33.824-9.28-36.512-26.752-2.688-17.44 9.28-33.792 26.752-36.512 67.584-10.432 127.040-46.56 167.456-101.728s56.928-122.752 46.496-190.336c-2.688-17.44 9.28-33.792 26.752-36.512 1.632-0.256 3.296-0.384 4.928-0.384 15.52 0 29.152 11.328 31.584 27.136 13.056 84.48-7.584 168.96-58.112 237.92s-124.864 114.080-209.344 127.136zM563.648 895.648c-17.408 2.592-33.824-9.28-36.512-26.752-2.688-17.44 9.28-33.792 26.752-36.512 209.248-32.288 353.216-228.8 320.928-438.080-2.688-17.44 9.28-33.792 26.752-36.512 1.632-0.256 3.296-0.384 4.928-0.384 15.52 0 29.152 11.328 31.584 27.136 37.696 244.128-130.272 473.376-374.432 511.072z" />
<glyph unicode="&#xe91a;" glyph-name="mail" d="M457.833 441.041c14.623-12.042 33.542-19.344 54.167-19.344s39.544 7.302 54.314 19.461l-0.147-0.118 374.792 307.872c-31.212 37.68-77.944 61.559-130.259 61.753h-597.366c-52.348-0.194-99.080-24.072-130.065-61.471l-0.227-0.282zM620.333 375.083c-29.254-24.059-67.090-38.646-108.333-38.646s-79.079 14.587-108.63 38.883l0.297-0.237-358.042 294.118c-1.74-8.705-2.81-18.779-2.957-29.077l-0.001-0.124v-384c0.104-94.215 76.452-170.563 170.657-170.667h597.343c94.215 0.104 170.563 76.452 170.667 170.657v384.010c-0.149 10.421-1.219 20.495-3.133 30.267l0.174-1.067z" />
<glyph unicode="&#xe91b;" glyph-name="google" d="M0 448c0 282.317 229.683 512 512 512 114.020 0 221.94-36.684 312.096-106.086l-118.979-154.556c-55.745 42.91-122.524 65.595-193.117 65.595-174.768 0-316.952-142.185-316.952-316.952s142.185-316.952 316.952-316.952c140.761 0 260.379 92.223 301.602 219.429h-301.602v195.048h512v-97.524c0-282.317-229.683-512-512-512s-512 229.683-512 512z" />
<glyph unicode="&#xe91c;" glyph-name="whatsapp" d="M727.63 369.198c-5.070 2.852-10.816 6.086-17.74 10.252-3.864 2.334-8.722 5.524-13.87 8.902-26.424 17.344-46.446 29.62-63.49 29.62-3.992 0-7.768-0.676-11.21-2.004-14.932-5.75-27.194-21.112-39.052-35.966-4.346-5.442-10.566-13.234-14.34-16.716-14.972 2.722-46.55 22.284-80.626 56.36-34.116 34.116-53.682 65.73-56.368 80.666 3.478 3.788 11.33 10.054 16.806 14.428 14.798 11.814 30.1 24.030 35.882 38.916 7.376 19.126-6.142 42-27.612 74.708-3.378 5.148-6.57 10.010-8.886 13.844-4.182 6.95-7.414 12.7-10.266 17.768-11.706 20.804-19.44 34.554-48.502 34.554-18.862 0-45.53-17.824-63.594-35.5-26.252-25.694-40.712-55.358-40.712-83.586 0.050-76.668 42.838-164.54 117.394-241.172 0.128-0.128 0.256-0.162 0.388-0.29 76.632-74.558 164.552-117.2 241.218-117.2h0.030c28.19 0 57.864 14.294 83.556 40.532 17.69 18.062 35.538 44.536 35.538 63.386 0.002 29.058-13.74 36.79-34.544 48.498zM643.058 256.392c-65.304 0.048-144.966 39.624-213.134 105.87-66.254 68.176-105.83 147.844-105.872 213.142 0 39.498 51.256 77.052 64.66 79.11 2.738-0.012 4.174-0.174 4.858-0.29 1.772-2.040 5.294-8.3 8.43-13.874 2.838-5.044 6.372-11.324 10.872-18.802 2.72-4.506 6.112-9.672 9.702-15.14 6.794-10.352 20.452-31.16 22.754-40.042-3.85-5.45-15.796-14.986-22.54-20.37-17.262-13.782-32.17-25.682-32.17-42.5 0.042-40.624 52.368-96.104 68.404-112.14s71.516-68.362 112.226-68.402c16.71 0.054 28.56 14.9 42.284 32.090 5.412 6.778 15.006 18.796 20.478 22.626 8.872-2.286 29.706-15.96 40.066-22.762 5.468-3.588 10.632-6.978 15.166-9.716 7.452-4.484 13.73-8.018 18.776-10.856 5.572-3.136 11.834-6.66 13.874-8.432 0.116-0.682 0.276-2.118 0.29-4.854-2.074-13.392-39.64-64.61-79.124-64.658zM920.768 446.086c-1.404 108.082-44.788 210.214-122.156 287.584-78.796 78.796-182.806 122.192-292.874 122.192-106.25 0-205.646-40.884-279.882-115.118-65.876-65.876-106.292-153.736-113.81-247.398-7.13-88.864 15.492-178.792 63.798-254.404l-65.964-178.304c-2.768-7.484-0.824-15.898 4.95-21.408 3.794-3.622 8.764-5.532 13.812-5.532 2.632 0 5.288 0.762 7.806 1.832l171.798 73.108c65.584-40.82 140.576-61.858 217.58-61.858h0.008c106.232 0 205.626 40.396 279.852 114.622 75.616 75.618 116.488 176.408 115.082 284.684zM777.398 189.2c-66.676-66.676-156.020-103.394-251.574-103.392-72.746 0.002-143.522 21.294-204.678 61.578-3.316 2.184-7.148 3.296-11.002 3.296-2.646 0-5.302-0.524-7.808-1.588l-138.872-58.9 53.4 144.342c2.234 6.042 1.422 12.79-2.18 18.128-98.152 145.41-81.558 338.782 39.456 459.794 66.68 66.68 156.032 103.404 251.598 103.404 99.382 0 193.348-39.234 264.588-110.476 69.954-69.952 109.176-162.224 110.444-259.82 1.266-97.396-35.446-188.442-103.372-256.366z" />
<glyph unicode="&#xe91d;" glyph-name="arrow-down" d="M854.626 630.627c12.497-12.497 12.497-32.758 0-45.255l-320-319.999c-12.497-12.497-32.755-12.497-45.252 0l-320.001 319.999c-12.497 12.497-12.497 32.758 0 45.255s32.758 12.497 45.255 0l297.373-297.371 297.374 297.371c12.497 12.497 32.755 12.497 45.252 0z" />
<glyph unicode="&#xe91e;" glyph-name="play" d="M822.020 383.309c42.321 32.747 42.321 96.64 0 129.387-127.898 98.959-270.711 176.96-423.096 231.082l-27.839 9.888c-53.26 18.916-109.516-17.119-116.727-72.097-20.145-153.611-20.145-313.521 0-467.134 7.21-54.976 63.467-91.012 116.726-72.094l27.839 9.886c152.384 54.123 295.198 132.122 423.096 231.083z" />
<glyph unicode="&#xe91f;" glyph-name="top-right" d="M190.706 171.959c-12.497-12.497-12.497-32.755 0-45.252s32.758-12.497 45.255 0l542.706 542.705v-434.745c0-17.673 14.327-32 32-32s32 14.327 32 32v544h-544c-17.673 0-32-14.327-32-32s14.327-32 32-32h434.743z" />
<glyph unicode="&#xe920;" glyph-name="arrow-upper-right" d="M810.667 277.333c0-23.565-19.102-42.667-42.667-42.667s-42.667 19.102-42.667 42.667v323.659l-439.165-439.162c-16.662-16.661-43.677-16.661-60.34 0s-16.662 43.678 0 60.339l439.165 439.164h-323.661c-23.564 0-42.667 19.103-42.667 42.667s19.102 42.667 42.667 42.667h426.667c23.565 0 42.667-19.102 42.667-42.667z" />
<glyph unicode="&#xe921;" glyph-name="plus-1" d="M512 704c-23.564 0-42.667-19.103-42.667-42.667v0-170.667h-170.667c-23.564 0-42.667-19.103-42.667-42.667s19.103-42.667 42.667-42.667v0h170.667v-170.667c0-23.564 19.103-42.667 42.667-42.667s42.667 19.103 42.667 42.667v0 170.667h170.667c23.564 0 42.667 19.103 42.667 42.667s-19.103 42.667-42.667 42.667v0h-170.667v170.667c0 23.564-19.103 42.667-42.667 42.667v0z" />
<glyph unicode="&#xe922;" glyph-name="share" d="M768 320c-56.354-0.136-106.256-27.639-137.136-69.918l-0.336-0.482-213.973 142.635c6.403 16.564 10.113 35.731 10.113 55.765s-3.71 39.201-10.48 56.853l0.367-1.088 213.973 142.635c31.312-42.112 80.92-69.099 136.831-69.099 93.903 0 170.027 76.124 170.027 170.027s-76.124 170.027-170.027 170.027c-93.903 0-170.027-76.124-170.027-170.027 0-0.232 0-0.465 0.001-0.697v0.036c0.311-6.852 0.983-13.243 2.006-19.516l-0.129 0.956-230.016-153.344c-30.122 27.237-70.251 43.904-114.273 43.904-94.257 0-170.667-76.41-170.667-170.667s76.41-170.667 170.667-170.667c44.022 0 84.151 16.667 114.421 44.035l-0.148-0.131 230.016-153.344c-0.895-5.317-1.566-11.708-1.864-18.197l-0.013-0.363c0-94.257 76.41-170.667 170.667-170.667s170.667 76.41 170.667 170.667c0 94.257-76.41 170.667-170.667 170.667v0z" />
<glyph unicode="&#xe923;" glyph-name="calendar" d="M914.286 850.286h-109.714v73.142c0 20.199-16.374 36.572-36.572 36.572s-36.572-16.374-36.572-36.572v-73.142h-438.857v73.142c0 20.199-16.374 36.572-36.57 36.572s-36.572-16.374-36.572-36.572v-73.142h-109.714c-60.594 0-109.714-49.121-109.714-109.714v-694.857c0-60.594 49.121-109.714 109.714-109.714h804.572c60.594 0 109.714 49.121 109.714 109.714v694.857c0 60.594-49.121 109.714-109.714 109.714zM950.856 45.714c0-20.199-16.374-36.572-36.572-36.572h-804.569c-20.199 0-36.572 16.374-36.572 36.572v475.429h877.714v-475.429zM950.856 594.285h-877.714v146.286c0 20.199 16.374 36.572 36.572 36.572h109.714v-73.142c0-20.199 16.374-36.572 36.572-36.572s36.572 16.374 36.572 36.572v73.142h438.857v-73.142c0-20.199 16.374-36.572 36.572-36.572s36.572 16.374 36.572 36.572v73.142h109.714c20.199 0 36.572-16.374 36.572-36.572v-146.286zM292.571 448.001h-73.142c-20.199 0-36.572-16.374-36.572-36.572s16.374-36.572 36.572-36.572h73.142c20.199 0 36.572 16.374 36.572 36.572s-16.374 36.572-36.572 36.572zM548.571 448.001h-73.142c-20.199 0-36.572-16.374-36.572-36.572s16.374-36.572 36.572-36.572h73.142c20.199 0 36.572 16.374 36.572 36.572s-16.374 36.572-36.572 36.572zM804.572 448.001h-73.142c-20.199 0-36.572-16.374-36.572-36.572s16.374-36.572 36.572-36.572h73.142c20.199 0 36.572 16.374 36.572 36.572-0.002 20.199-16.376 36.572-36.572 36.572zM292.571 301.715h-73.142c-20.199 0-36.572-16.374-36.572-36.572s16.374-36.572 36.572-36.572h73.142c20.199 0 36.572 16.374 36.572 36.572s-16.374 36.572-36.572 36.572zM548.571 301.715h-73.142c-20.199 0-36.572-16.374-36.572-36.572s16.374-36.572 36.572-36.572h73.142c20.199 0 36.572 16.374 36.572 36.572s-16.374 36.572-36.572 36.572zM804.572 301.715h-73.142c-20.199 0-36.572-16.374-36.572-36.572s16.374-36.572 36.572-36.572h73.142c20.199 0 36.572 16.374 36.572 36.572-0.002 20.199-16.376 36.572-36.572 36.572zM292.571 155.428h-73.142c-20.199 0-36.572-16.374-36.572-36.572s16.374-36.57 36.572-36.57h73.142c20.199 0 36.572 16.374 36.572 36.572s-16.374 36.57-36.572 36.57zM548.571 155.428h-73.142c-20.199 0-36.572-16.374-36.572-36.572s16.374-36.572 36.572-36.572h73.142c20.199 0 36.572 16.374 36.572 36.572s-16.374 36.572-36.572 36.572zM804.572 155.428h-73.142c-20.199 0-36.572-16.374-36.572-36.572s16.374-36.572 36.572-36.572h73.142c20.199 0 36.572 16.374 36.572 36.572s-16.376 36.572-36.572 36.572z" />
<glyph unicode="&#xe924;" glyph-name="user" d="M504.701 466.736c67.765 0 126.445 24.305 174.39 72.258 47.945 47.945 72.25 106.609 72.25 174.382 0 67.75-24.305 126.421-72.258 174.382-47.953 47.937-106.625 72.242-174.382 72.242-67.773 0-126.437-24.305-174.382-72.25s-72.258-106.617-72.258-174.374c0-67.773 24.312-126.445 72.265-174.39 47.953-47.937 106.625-72.25 174.374-72.25zM936.254 172.597c-1.383 19.953-4.18 41.719-8.297 64.703-4.156 23.156-9.508 45.047-15.914 65.054-6.617 20.68-15.617 41.101-26.742 60.672-11.547 20.312-25.109 38-40.328 52.554-15.914 15.227-35.398 27.469-57.929 36.398-22.453 8.883-47.336 13.383-73.953 13.383-10.453 0-20.562-4.289-40.086-17-12.016-7.836-26.070-16.898-41.758-26.922-13.414-8.547-31.586-16.555-54.031-23.805-21.898-7.086-44.133-10.68-66.078-10.68s-44.172 3.594-66.093 10.68c-22.422 7.242-40.594 15.25-53.992 23.797-15.539 9.93-29.601 18.992-41.797 26.937-19.5 12.711-29.617 17-40.070 17-26.625 0-51.5-4.508-73.945-13.398-22.516-8.914-42.008-21.156-57.937-36.398-15.211-14.562-28.781-32.242-40.312-52.547-11.117-19.57-20.117-39.984-26.742-60.679-6.398-20.008-11.75-41.89-15.906-65.047-4.117-22.953-6.914-44.726-8.297-64.726-1.359-19.594-2.047-39.93-2.047-60.469 0-53.453 16.992-96.726 50.5-128.64 33.094-31.492 76.883-47.469 130.132-47.469h493.061c53.25 0 97.023 15.969 130.124 47.469 33.515 31.89 50.508 75.172 50.508 128.648-0.008 20.633-0.703 40.984-2.070 60.484z" />
<glyph unicode="&#xe925;" glyph-name="bubble-chat" d="M606.784 837.214c-63.59 39.22-138.944 60.786-216.784 60.786-211.892 0-390-157.866-390-360 0-70.87 22.016-138.808 63.836-197.482l-58.42-183.412c-6.172-19.374 8.34-39.106 28.59-39.106 4.63 0 9.29 1.070 13.59 3.258l177.664 90.334c7.194-3.098 14.478-5.98 21.836-8.656-41.134 64.204-63.096 137.904-63.096 215.064 0 229.794 193.356 406.456 422.784 419.214zM960.164 220.518c41.82 58.674 63.836 126.612 63.836 197.482 0 202.208-178.184 360-390 360-211.892 0-390-157.866-390-360 0-202.208 178.184-360 390-360 56.834 0 113.464 11.582 164.73 33.596l177.674-90.338c10.782-5.482 23.806-3.952 33.024 3.882s12.83 20.438 9.158 31.964zM512 388c-16.568 0-30 13.432-30 30s13.432 30 30 30 30-13.432 30-30-13.432-30-30-30zM632 388c-16.568 0-30 13.432-30 30s13.432 30 30 30 30-13.432 30-30-13.432-30-30-30zM752 388c-16.568 0-30 13.432-30 30s13.432 30 30 30 30-13.432 30-30-13.432-30-30-30z" />
<glyph unicode="&#xe926;" glyph-name="search-1" d="M247.902 728.098c132.567 127.789 329.853 122.696 452.548 0 117.328-117.328 124.501-303.097 21.519-428.793l182.128-182.147-45.255-45.255-182.147 182.128c-125.696-102.982-311.466-95.809-428.793 21.519-122.696 122.696-128.465 328.713 0 452.548zM655.196 682.843c-99.974 99.974-262.064 99.974-362.039 0s-99.974-262.064 0-362.039c99.974-99.974 262.064-99.974 362.039 0s99.974 262.064 0 362.039z" />
<glyph unicode="&#xe927;" glyph-name="down-left-arrow" d="M798.165 673.835l-481.835-481.835h323.669c23.564 0 42.667-19.103 42.667-42.667s-19.103-42.667-42.667-42.667v0h-426.667c-5.887 0.029-11.485 1.234-16.581 3.392l0.283-0.106c-10.484 4.423-18.66 12.598-22.977 22.803l-0.105 0.28c-2.051 4.814-3.256 10.412-3.285 16.288v426.678c0 23.564 19.103 42.667 42.667 42.667s42.667-19.103 42.667-42.667v0-323.669l481.835 481.835c7.769 8.036 18.647 13.026 30.69 13.026 23.564 0 42.667-19.103 42.667-42.667 0-12.043-4.989-22.92-13.014-30.678l-0.012-0.012z" />
<glyph unicode="&#xe928;" glyph-name="link" d="M579.888 483.872c-8.192 0-16.384 3.12-22.624 9.376-49.904 49.904-131.104 49.92-181.024 0-12.48-12.496-32.768-12.496-45.248 0-12.496 12.496-12.496 32.752 0 45.248 74.864 74.88 196.672 74.864 271.52 0 12.496-12.496 12.496-32.752 0-45.248-6.24-6.256-14.448-9.376-22.624-9.376zM557.264 301.328c-49.168 0-98.336 18.72-135.76 56.144-12.496 12.496-12.496 32.752 0 45.248 12.48 12.496 32.768 12.496 45.248 0 49.904-49.904 131.104-49.92 181.024 0 12.48 12.496 32.768 12.496 45.248 0 12.496-12.496 12.496-32.752 0-45.248-37.44-37.424-86.608-56.144-135.76-56.144zM670.384 348.112c-8.192 0-16.384 3.12-22.624 9.376-12.496 12.496-12.496 32.752 0 45.248l178.752 178.752c12.48 12.496 32.768 12.496 45.248 0 12.496-12.496 12.496-32.752 0-45.248l-178.752-178.752c-6.24-6.256-14.432-9.376-22.624-9.376zM401.136 78.864c-8.192 0-16.384 3.12-22.624 9.376-12.496 12.496-12.496 32.752 0 45.248l99.92 99.92c12.48 12.496 32.768 12.496 45.248 0 12.496-12.496 12.496-32.752 0-45.248l-99.92-99.92c-6.24-6.256-14.432-9.376-22.624-9.376zM174.864 305.136c-8.192 0-16.384 3.12-22.624 9.376-12.496 12.496-12.496 32.752 0 45.248l178.752 178.736c12.496 12.496 32.768 12.496 45.248 0 12.496-12.496 12.496-32.752 0-45.248l-178.752-178.736c-6.256-6.24-14.448-9.376-22.624-9.376zM522.944 653.2c-8.192 0-16.368 3.12-22.624 9.36-12.496 12.496-12.496 32.752 0 45.264l99.92 99.936c12.496 12.496 32.752 12.496 45.264 0 12.496-12.496 12.496-32.752 0-45.264l-99.92-99.936c-6.256-6.224-14.464-9.36-22.64-9.36zM288 33.040c-49.488 0-98.976 18.4-135.76 55.2-73.6 73.6-73.6 197.936 0 271.536 12.48 12.496 32.768 12.496 45.248 0 12.496-12.496 12.496-32.752 0-45.248-49.056-49.056-49.056-131.968 0-181.024s131.968-49.056 181.024 0c12.48 12.496 32.768 12.496 45.248 0 12.496-12.496 12.496-32.752 0-45.248-36.784-36.816-86.272-55.216-135.76-55.216zM849.136 526.864c-8.192 0-16.384 3.12-22.624 9.376-12.496 12.496-12.496 32.752 0 45.248 49.056 49.056 49.056 131.968 0 181.024s-131.968 49.056-181.024 0c-12.48-12.496-32.768-12.496-45.248 0-12.496 12.496-12.496 32.752 0 45.248 73.6 73.6 197.936 73.6 271.536 0s73.6-197.936 0-271.536c-6.256-6.24-14.448-9.36-22.64-9.36z" />
<glyph unicode="&#xe929;" glyph-name="zoom" d="M981.856 875.152l-0.016-213.608c0-23.592-19.12-42.704-42.704-42.704-23.592 0-42.696 19.112-42.696 42.712v110.4l-248.152-248.368c-8.352-8.36-19.296-12.512-30.232-12.512-10.92 0-21.84 4.16-30.184 12.504-16.68 16.664-16.696 43.704-0.024 60.384l248.232 248.472h-110.376c-23.592 0-42.712 19.128-42.712 42.728 0 23.584 19.128 42.712 42.712 42.712h213.432c11.336 0 22.192-4.504 30.208-12.528 8.016-8.008 12.512-18.888 12.512-30.192zM939.144 277.184c-23.6 0-42.704-19.152-42.704-42.728v-110.4l-243.992 241.912c-16.696 16.68-44.88 16.696-61.56 0.016-16.688-16.656-17.264-43.712-0.6-60.384l241.528-242.032h-110.584c-23.592 0-42.736-19.112-42.744-42.712-0.008-23.568 19.080-42.704 42.68-42.704l213.4-0.024c11.344 0 24.496 4.504 32.488 12.512 8.008 8.008 14.808 18.872 14.808 30.192v213.632c-0.008 23.576-19.136 42.72-42.72 42.72zM371.536 367.848l-243.968-243.808v110.424c0 23.592-18.744 42.672-42.328 42.672h0.176c-23.592 0-42.624-19.104-42.624-42.672l0.016-213.6c0-11.336 4.52-22.2 12.528-30.208 8.024-8.016 18.904-12.512 30.232-12.512h213.44c23.592 0 42.712 19.128 42.712 42.712 0 23.608-19.128 42.728-42.712 42.728h-110.344l243.664 243.888c16.696 16.672 16.48 43.752-0.2 60.408s-43.904 16.64-60.592-0.032zM187.912 828.584h110.36c23.592 0 42.704 19.104 42.704 42.688 0 23.6-19.12 42.728-42.704 42.728l-213.424 0.016c-11.336 0-22.184-4.48-30.208-12.488-8-8.008-12.504-18.864-12.504-30.216l0.024-213.616c0-23.56 19.12-42.712 42.704-42.712 23.592 0 42.704 19.152 42.704 42.712v110.416l246.208-246.408c8.344-8.352 19.288-12.528 30.224-12.528 10.912 0 21.848 4.16 30.184 12.504 16.688 16.664 16.712 43.728 0.024 60.424z" />
<glyph unicode="&#xe92a;" glyph-name="trophy" d="M1023.964 764.598c-1.020 86.91-45.496 134.776-125.238 134.776-30.864 0-60.604-7.184-80.046-13.178 1.936 35.524 1.966 57.452 1.966 58.542l0.002 15.208h-617.282v-15.206c0-0.52 0.052-22.794 2.010-58.562-19.44 5.998-49.208 13.196-80.102 13.196-79.74 0-124.218-47.864-125.238-134.776-1.004-85.5 18.496-161.608 57.954-226.214 38.74-63.43 88.256-101.652 122.974-122.542 55.606-33.464 111.18-40.488 148.012-40.488 9.080 0 17.828 0.428 26.010 1.272 0.542 0.056 1.044 0.12 1.574 0.178 17.808-19.178 37.006-34.54 57.52-45.956 15.122-8.414 25.64-23.088 29.244-39.954-20.39-6.346-35.236-25.396-35.236-47.846 0-22.954 15.526-42.34 36.62-48.24v-63.82h-82.284v-66.602h-81.2v-128.334h461.562v128.334h-81.2v66.602h-82.284v63.82c21.096 5.902 36.622 25.286 36.622 48.24 0 22.452-14.846 41.5-35.236 47.846 3.604 16.866 14.12 31.538 29.244 39.954 20.464 11.386 39.794 26.832 57.558 45.948 6.294-0.698 15.732-1.44 27.532-1.44 0.004 0 0.002 0 0.008 0 36.828 0 92.4 7.028 148.002 40.488 34.716 20.892 84.234 59.112 122.974 122.542 39.464 64.604 58.962 140.714 57.958 226.212zM789.984 929.534c-0.136-5.562-0.352-12.554-0.684-20.738h-554.526c-0.344 8.182-0.574 15.184-0.722 20.738h555.932zM810.668 789.908c20.604 6.858 47.308 13.774 71.23 13.774 20.058 0 34.5-4.9 42.926-14.564 9.684-11.108 12.806-29.768 9.274-55.468-14.706-107.052-61.124-190.616-130.708-235.294-24.238-15.564-50.342-21.994-72.218-24.278 46.274 97.262 68.67 219.294 79.496 315.83zM228.99 683.982c14.958-80.23 35.61-149.126 61.386-204.772 0.798-1.728 1.61-3.43 2.418-5.132-21.868 2.29-47.956 8.718-72.184 24.274-69.582 44.68-116.002 128.242-130.708 235.294-3.53 25.702-0.41 44.364 9.276 55.468 8.426 9.664 22.87 14.562 42.926 14.562 23.942 0 50.67-6.926 71.282-13.788 3.682-32.924 8.716-68.962 15.604-105.906zM328.976 405.766c-32.976 0-82.706 6.27-132.328 36.132-50.75 30.54-168.54 123.088-166.2 322.342 0.828 70.466 31.846 104.72 94.826 104.72 33.682 0 66.948-10.154 82.154-15.51 0.758-10.202 1.608-20.434 2.548-30.624-20.67 6.072-45.024 11.268-67.872 11.268-29.236 0-51.39-8.406-65.85-24.986-15.718-18.026-21.264-44.806-16.484-79.596 8.188-59.602 25.3-112.282 50.862-156.574 24.402-42.284 55.876-75.988 93.544-100.172 36.792-23.626 76.586-29.584 104.972-30.154 0.096-0.168 0.194-0.328 0.29-0.494 1.556-2.726 3.128-5.406 4.716-8.052 0.494-0.826 0.992-1.646 1.49-2.464 1.514-2.488 3.040-4.952 4.582-7.366 0.58-0.908 1.168-1.794 1.752-2.694 1.050-1.614 2.106-3.214 3.17-4.796 1.028-1.53 2.060-3.044 3.098-4.542 1.018-1.466 2.038-2.924 3.066-4.362 0.482-0.676 0.956-1.378 1.438-2.046-1.224-0.020-2.482-0.030-3.774-0.030zM712.376 33.97v-67.506h-400.736v67.506h400.736zM579.306 100.572h51.868v-36.188h-238.334v36.188h186.466zM475.122 130.986v61.964h73.77v-61.964h-73.77zM585.514 243.048c0-10.854-8.832-19.684-19.684-19.684h-107.644c-10.854 0-19.684 8.83-19.684 19.684s8.83 19.684 19.684 19.684h107.644c10.854 0 19.684-8.83 19.684-19.684zM661.582 416.896c-0.168-0.218-0.336-0.436-0.504-0.654-1.496-1.936-3.004-3.824-4.52-5.686-0.372-0.454-0.738-0.916-1.112-1.368-1.666-2.024-3.346-4.004-5.034-5.936-0.082-0.092-0.158-0.188-0.24-0.28-16.958-19.346-35.47-34.668-55.024-45.548-24.102-13.408-40.49-37.222-44.998-64.278h-76.284c-4.51 27.058-20.898 50.87-45 64.278-18.872 10.498-35.916 24.532-51.314 41.302l-3.72 4.244c-15.12 17.244-29.372 38.136-42.358 62.090l-3.978 7.342c-65.394 126.354-85.174 308.976-91.138 405.982h551.41c-0.254-4.22-0.532-8.578-0.84-13.104-0.014-0.21-0.030-0.426-0.044-0.636-0.336-4.904-0.696-9.822-1.078-14.744-0.010-0.144-0.022-0.288-0.032-0.434-1.216-15.6-2.656-31.258-4.298-46.73l-0.994-9.356c-11.050-99.056-34.388-225.25-83.602-320.306l-4.346-8.012c-9.67-17.832-20.042-33.964-30.952-48.166zM827.354 441.898c-49.626-29.864-99.346-36.132-132.32-36.132-0.002 0-0.006 0-0.008 0-1.294 0-2.552 0.010-3.778 0.030 0.020 0.028 0.040 0.058 0.060 0.086 1.974 2.724 3.918 5.488 5.832 8.29 0.234 0.342 0.464 0.692 0.698 1.034 1.618 2.384 3.212 4.8 4.788 7.24 0.406 0.626 0.812 1.254 1.214 1.884 1.744 2.738 3.47 5.494 5.162 8.298 0.266 0.438 0.524 0.888 0.788 1.33 1.386 2.316 2.756 4.654 4.108 7.014 0.316 0.552 0.642 1.080 0.96 1.636 28.386 0.57 68.18 6.528 104.972 30.154 37.668 24.188 69.142 57.892 93.544 100.172 25.56 44.292 42.672 96.972 50.862 156.574 4.776 34.792-0.768 61.572-16.484 79.596-14.458 16.582-36.614 24.988-65.85 24.988-22.846 0-47.204-5.192-67.872-11.266 0.958 10.39 1.78 20.356 2.484 29.828 0.020 0.264 0.042 0.53 0.062 0.792 15.21 5.358 48.474 15.51 82.154 15.51 62.98 0 93.998-34.254 94.828-104.716 2.332-199.254-115.454-291.8-166.204-322.342zM384.712 467.526l-25.4-16.734c8.672-13.166 17.992-25.128 27.702-35.552l22.256 20.732c-8.554 9.182-16.816 19.8-24.558 31.554zM319.432 636.156l-29.652-6.764c14.584-63.93 34.054-117.598 57.866-159.512l26.444 15.024c-22.344 39.33-40.734 90.218-54.658 151.252zM887.332 292.982l-0.022 30.414-25.674-0.016-0.018 25.674-30.414-0.020 0.018-25.676-25.674-0.018 0.020-30.414 25.674 0.018 0.018-25.672 30.414 0.020-0.018 25.674zM225.57 135.050l-0.032 30.414-21.544-0.022-0.022 21.546-30.414-0.032 0.022-21.544-21.548-0.022 0.034-30.414 21.544 0.022 0.022-21.548 30.414 0.032-0.022 21.546zM97.69 383.678h28.69v-30.414h-28.69v30.414zM282.078 293.694h28.69v-30.414h-28.69v30.414zM744.508 202.19h28.69v-30.414h-28.69v30.414z" />
<glyph unicode="&#xe92b;" glyph-name="rating" d="M532 148c0-11.047-8.953-20-20-20s-20 8.953-20 20 8.953 20 20 20 20-8.953 20-20zM958 328c0 66.172-53.828 120-120 120s-120-53.828-120-120 53.828-120 120-120 120 53.828 120 120zM838 248c-44.109 0-80 35.891-80 80s35.891 80 80 80 80-35.891 80-80-35.891-80-80-80zM838 208c-50.398 0-100.656-20.922-134.891-54.844-45.063 59.219-114.547 94.844-191.109 94.844-73.32 0-144.367-33.453-191.102-94.844-34.242 33.914-84.492 54.844-134.898 54.844-100.82 0-186-82.43-186-180v-40c0-11.047 8.953-20 20-20h984c11.047 0 20 8.953 20 20v40c0 97.57-85.18 180-186 180zM40 28c0 75.891 66.859 140 146 140 43.305 0 86.25-19.188 112.836-49.688-17.578-33.953-26.836-71.797-26.836-110.313h-232zM512 208c111.289 0 200-90.297 200-200h-400c0 111.164 90.523 200 200 200zM984 8h-232c0 38.516-9.258 76.359-26.836 110.313 26.586 30.5 69.531 49.688 112.836 49.688 79.141 0 146-64.109 146-140zM306 328c0 66.172-53.828 120-120 120s-120-53.828-120-120 53.828-120 120-120 120 53.828 120 120zM186 248c-44.109 0-80 35.891-80 80s35.891 80 80 80 80-35.891 80-80-35.891-80-80-80zM672 408c0 88.227-71.773 160-160 160s-160-71.773-160-160 71.773-160 160-160 160 71.773 160 160zM512 288c-66.172 0-120 53.828-120 120s53.828 120 120 120 120-53.828 120-120-53.828-120-120-120zM670.281 811.68c-2.352 7.242-8.609 12.516-16.148 13.609l-86.266 12.523-38.625 78.969c-3.352 6.867-10.32 11.219-17.961 11.219s-14.609-4.352-17.969-11.211l-38.617-78.977-86.266-12.516c-7.539-1.094-13.797-6.375-16.148-13.617s-0.391-15.188 5.063-20.5l62.469-60.883-14.742-85.977c-1.289-7.5 1.797-15.086 7.961-19.555 6.125-4.453 14.281-5.086 21.063-1.523l77.188 40.586 77.219-40.586c6.734-3.547 14.898-2.953 21.063 1.523 6.156 4.477 9.242 12.055 7.953 19.563l-14.758 85.969 62.461 60.883c5.453 5.313 7.414 13.258 5.063 20.5zM567.297 751.602c-4.711-4.594-6.867-11.219-5.75-17.703l9.68-56.398-50.641 26.625c-5.828 3.063-12.789 3.063-18.617 0l-50.625-26.625 9.672 56.398c1.109 6.492-1.047 13.109-5.758 17.703l-40.969 39.93 56.602 8.219c6.547 0.945 12.195 5.070 15.094 11.008l25.297 51.719 25.289-51.719c2.906-5.945 8.555-10.063 15.094-11.008l56.609-8.219zM969.219 661.781c-2.352 7.242-8.609 12.516-16.148 13.609l-58.445 8.492-26.133 52.969c-3.367 6.828-10.313 11.148-17.93 11.148 0 0 0 0-0.008 0-7.609 0-14.563-4.32-17.93-11.148l-26.148-52.969-58.453-8.492c-7.531-1.094-13.789-6.367-16.141-13.609-2.359-7.242-0.398-15.188 5.055-20.5l42.289-41.242-9.984-58.203c-1.281-7.5 1.797-15.078 7.961-19.555 6.156-4.477 14.32-5.070 21.055-1.531l52.297 27.477 52.281-27.477c6.734-3.539 14.906-2.945 21.063 1.531 6.156 4.469 9.234 12.055 7.953 19.555l-9.984 58.203 42.297 41.242c5.453 5.313 7.406 13.258 5.055 20.5zM886.422 621.336c-4.719-4.594-6.867-11.211-5.75-17.695l4.906-28.625-25.711 13.508c-5.828 3.063-12.789 3.063-18.609 0l-25.734-13.516 4.914 28.633c1.109 6.484-1.039 13.102-5.75 17.695l-20.813 20.297 28.758 4.172c6.516 0.945 12.148 5.039 15.063 10.938l12.859 26.055 12.852-26.047c2.914-5.906 8.547-10 15.063-10.945l28.758-4.172zM289.219 661.781c-2.352 7.242-8.609 12.516-16.148 13.609l-58.445 8.492-26.133 52.969c-3.367 6.828-10.313 11.148-17.93 11.148s-14.57-4.32-17.938-11.148l-26.148-52.969-58.453-8.492c-7.531-1.094-13.789-6.367-16.141-13.609-2.359-7.242-0.398-15.188 5.055-20.5l42.289-41.242-9.977-58.203c-1.289-7.5 1.797-15.078 7.953-19.555s14.32-5.070 21.063-1.531l52.289 27.477 52.281-27.477c6.781-3.563 14.938-2.922 21.063 1.531 6.156 4.469 9.242 12.055 7.953 19.555l-9.984 58.203 42.297 41.242c5.453 5.313 7.406 13.258 5.055 20.5zM206.414 621.336c-4.711-4.594-6.859-11.211-5.75-17.695l4.914-28.625-25.719 13.508c-5.82 3.063-12.781 3.063-18.602 0l-25.742-13.516 4.914 28.633c1.117 6.484-1.039 13.102-5.75 17.695l-20.813 20.297 28.766 4.172c6.508 0.945 12.141 5.039 15.055 10.938l12.859 26.055 12.852-26.047c2.914-5.906 8.547-10 15.063-10.945l28.758-4.172zM599.641 141.812c-9.234 6.070-21.633 3.5-27.695-5.734-6.070-9.227-3.5-21.625 5.734-27.695 18.492-12.148 33.273-29.086 42.742-48.977 4.734-9.961 16.656-14.219 26.648-9.461 9.977 4.742 14.211 16.68 9.469 26.648-12.609 26.5-32.289 49.055-56.898 65.219z" />
<glyph unicode="&#xe92c;" glyph-name="highlight" d="M0 448c256 0 512 256 512 512 0-256 256-512 512-512-256 0-512-256-512-512 0 256-256 512-512 512z" />
<glyph unicode="&#xe92d;" glyph-name="star-of-life" d="M921.6 565.166l-103.332 178.964-203.868-117.729v231.199h-204.8v-231.127l-203.868 117.658-103.332-178.934 202.998-117.197-202.998-117.197 103.332-178.934 203.868 117.699v-231.168h204.8v231.199l203.899-117.729 103.301 178.964-202.926 117.166z" />
<glyph unicode="&#xe92e;" glyph-name="bottom-right" d="M845.754 74.246c-0.015 0-0.034 0-0.052 0-11.029 0-21.013 4.478-28.232 11.715l-667.511 667.509c-7.239 7.239-11.716 17.239-11.716 28.285 0 22.092 17.909 40.001 40.001 40.001 11.046 0 21.046-4.477 28.285-11.716l667.508-667.51c7.238-7.239 11.715-17.238 11.715-28.284 0-22.091-17.908-40-39.999-40v0zM845.754 74.246h-478c-22.091 0-40 17.909-40 40s17.909 40 40 40v0h438v438c0 22.091 17.909 40 40 40s40-17.909 40-40v0-478c0-22.091-17.909-40-40-40v0z" />
<glyph unicode="&#xe92f;" glyph-name="plus-positive-add-mathematical-symbol" d="M962.601 509.41l-398.231-1.204v390.394c0 34.016-27.383 61.399-61.399 61.399-34.005 0-61.399-27.383-61.399-61.399l1.204-389.201h-381.376c-34.016 0-61.399-27.383-61.399-61.399 0-34.005 27.383-61.388 61.399-61.388h380.774v-389.212c0-33.994 27.383-61.399 61.399-61.399s61.399 27.405 61.399 61.399v389.201h397.629c34.016 0 61.399 27.405 61.399 61.399 0 34.027-27.69 61.41-61.399 61.41z" />
<glyph unicode="&#xe930;" glyph-name="arrow-down-1" d="M981.6 746.56c-4.032 8.013-12.182 13.419-21.597 13.44h-896.003c-9.418-0.021-17.568-5.427-21.537-13.301l-0.063-0.139c-1.532-3.060-2.428-6.666-2.428-10.483 0-5.613 1.94-10.773 5.185-14.846l-0.037 0.048 448-576c4.402-5.67 11.219-9.284 18.88-9.284s14.478 3.614 18.84 9.229l0.040 0.054 448 576c3.209 4.025 5.148 9.185 5.148 14.797 0 3.816-0.897 7.423-2.491 10.621l0.062-0.138z" />
<glyph unicode="&#xe931;" glyph-name="clock" d="M569.216 148.608l-94.869 46.165c-19.861 9.621-44.011 4.949-58.837-11.328l-33.109-36.416c-14.379 2.752-50.368 14.869-103.445 67.947-53.397 53.376-65.323 89.493-68.011 103.381l36.48 33.173c16.341 14.805 20.992 38.997 11.349 58.837l-46.165 94.891c-9.749 19.968-31.872 31.296-53.76 27.328-31.211-5.568-86.592-22.869-106.688-76.181-28.117-74.496 1.493-207.637 131.051-337.173 100.373-100.395 202.944-140.779 278.677-140.779 21.973 0 41.728 3.392 58.475 9.728 53.333 20.096 70.613 75.477 76.16 106.667 3.947 21.909-7.317 44.011-27.328 53.781zM505.323 28.096c-49.792-18.816-168.661-2.027-291.947 121.301-123.285 123.285-140.075 242.133-121.301 291.947 12.672 33.579 51.968 45.269 74.24 49.237 0.448 0.064 0.896 0.107 1.323 0.107 2.773 0 5.312-1.557 6.571-4.117l46.165-94.891c1.408-2.901 0.725-6.421-1.664-8.576l-44.117-40.107c-3.797-3.456-6.229-8.171-6.827-13.269-0.683-5.824-4.331-59.584 81.024-144.917 85.312-85.333 139.093-81.749 144.917-81.024 5.099 0.597 9.813 3.051 13.269 6.827l40.107 44.139c2.197 2.368 5.739 3.093 8.576 1.643l94.869-46.165c2.987-1.429 4.587-4.608 4.011-7.893-3.989-22.293-15.637-61.589-49.237-74.24zM554.667 917.333c-192.341 0-361.6-129.387-411.648-314.645-3.072-11.371 3.669-23.083 15.040-26.155 11.2-3.008 23.061 3.648 26.176 15.040 45.013 166.677 197.355 283.115 370.432 283.115 211.733 0 384-172.267 384-384 0-173.077-116.416-325.419-283.115-370.432-11.371-3.093-18.112-14.784-15.040-26.176 2.581-9.515 11.179-15.765 20.587-15.765 1.856 0 3.733 0.235 5.589 0.725 185.259 50.048 314.645 219.307 314.645 411.648 0 235.264-191.403 426.667-426.667 426.667zM469.333 384c5.461 0 10.923 2.091 15.083 6.251l85.333 85.333c4.011 4.011 6.251 9.429 6.251 15.083v170.667c0 11.776-9.536 21.333-21.333 21.333s-21.333-9.557-21.333-21.333v-161.835l-79.083-79.083c-8.341-8.341-8.341-21.824 0-30.165 4.16-4.16 9.621-6.251 15.083-6.251zM896 490.667c0 188.203-153.131 341.333-341.333 341.333-157.525 0-293.781-106.603-331.307-259.221-2.816-11.435 4.16-22.997 15.595-25.813s22.997 4.181 25.813 15.616c5.056 20.565 12.395 40.043 21.312 58.517l17.728-10.24c3.349-1.941 7.019-2.859 10.645-2.859 7.381 0 14.549 3.819 18.496 10.667 5.888 10.197 2.389 23.253-7.808 29.141l-17.899 10.325c21.397 31.68 48.555 58.773 79.915 79.979l10.347-17.92c3.968-6.848 11.115-10.667 18.496-10.667 3.627 0 7.296 0.917 10.645 2.859 10.219 5.888 13.717 18.944 7.808 29.141l-10.283 17.792c33.557 16.235 70.4 26.411 109.12 29.141v-41.771c0-11.776 9.536-21.333 21.333-21.333s21.333 9.557 21.333 21.333v41.579c38.848-2.773 75.584-12.992 108.949-29.248l-10.091-17.493c-5.888-10.197-2.389-23.253 7.808-29.141 3.349-1.941 7.019-2.859 10.645-2.859 7.381 0 14.549 3.819 18.496 10.667l10.219 17.707c31.403-21.333 58.539-48.469 79.851-79.851l-17.707-10.219c-10.219-5.888-13.717-18.944-7.808-29.141 3.968-6.848 11.115-10.667 18.496-10.667 3.627 0 7.296 0.917 10.645 2.859l17.472 10.091c16.277-33.365 26.496-70.101 29.248-108.949h-41.579c-11.797 0-21.333-9.557-21.333-21.333s9.536-21.333 21.333-21.333h41.771c-2.731-38.741-12.885-75.584-29.141-109.12l-17.771 10.261c-10.219 5.867-23.253 2.411-29.141-7.808s-2.389-23.253 7.808-29.141l17.92-10.347c-21.184-31.36-48.277-58.517-79.957-79.915l-10.325 17.877c-5.909 10.219-18.987 13.717-29.141 7.808-10.219-5.888-13.717-18.944-7.808-29.141l10.24-17.728c-18.475-8.917-37.931-16.256-58.517-21.312-11.435-2.816-18.411-14.379-15.595-25.813 2.389-9.728 11.115-16.235 20.693-16.235 1.685 0 3.413 0.192 5.12 0.619 152.619 37.547 259.2 173.781 259.2 331.307z" />
<glyph unicode="&#xe932;" glyph-name="document" d="M911.774 492h-0.088c-0.006 0-0.013 0-0.020 0-37.502 0-67.915-30.346-68.026-67.821v-0.011l-0.756-344.012c0 0 0 0 0 0 0-1.949 0.469-3.788 1.301-5.411l-0.031 0.067 55.902-112.18c2.012-3.959 6.052-6.625 10.715-6.632h0.017c4.666 0 8.71 2.663 10.695 6.552l0.031 0.068 56.2 112.040c0.804 1.557 1.277 3.398 1.282 5.348v0.002l0.748 343.966c0 0.007 0 0.016 0 0.024 0 37.545-30.428 67.983-67.968 68h-0.002zM867.492 356.868l32.158-0.042-0.686-264.696-32.052 0.042zM910.822-5.164l-36.538 73.326 73.266-0.096zM955.008 92.056l-32.044 0.042 0.686 264.696 31.934-0.042zM955.636 380.724l-88.092 0.13 0.096 43.266c0.068 24.249 19.741 43.88 44 43.88 0.016 0 0.032 0 0.049 0h0.053c0.041 0 0.090 0 0.138 0 24.218 0 43.85-19.632 43.85-43.85 0-0.025 0-0.049 0-0.074v0.004zM721.698 754h-1.698v33.82c-0.119 3.423-1.619 6.474-3.958 8.63l-0.008 0.008-145.532 140.18c-2.208 2.082-5.193 3.362-8.476 3.362-0.001 0-0.001 0-0.002 0h-442.624c-41.537-0.030-75.219-33.62-75.4-75.119v-761.217c0.137-41.64 33.781-75.377 75.373-75.664h26.329c1.608-40.101 34.507-72 74.855-72 0.075 0 0.149 0 0.224 0h500.916c41.063 0.12 74.305 33.436 74.305 74.516 0 0.218-0.001 0.436-0.003 0.654v-0.033 648.182c0.001 0.165 0.002 0.361 0.002 0.556 0 40.939-33.187 74.126-74.126 74.126-0.063 0-0.125 0-0.188 0h0.010zM574 899.76l104.010-99.76h-104.010zM119.4 52c-28.371 0.271-51.28 23.273-51.4 51.654v761.21c0.163 28.268 23.111 51.123 51.399 51.136h430.601v-128.506c0.056-6.364 5.228-11.502 11.6-11.502 0.149 0 0.298 0.003 0.446 0.008l-0.021-0.001h133.976v-672.334c-0.277-28.445-23.28-51.425-51.707-51.666h-0.023zM772 31.136c0.003-0.193 0.004-0.42 0.004-0.648 0-27.82-22.501-50.384-50.296-50.488h-500.938c-27.085 0.152-49.206 21.204-51.059 47.839l-0.009 0.161h474.568c41.698 0.257 75.437 33.973 75.73 75.638v626.362h1.698c0.060 0 0.132 0 0.203 0 27.671 0 50.102-22.431 50.102-50.102 0-0.204-0.001-0.408-0.004-0.611v0.031zM185.32 336c-6.627 0-12-5.373-12-12s5.373-12 12-12v0h249.914c6.627 0 12 5.373 12 12s-5.373 12-12 12v0zM578.466 260h-393.146c-6.627 0-12-5.373-12-12s5.373-12 12-12v0h393.146c6.627 0 12 5.373 12 12s-5.373 12-12 12v0zM522.046 186h-336.726c-6.627 0-12-5.373-12-12s5.373-12 12-12v0h336.726c6.627 0 12 5.373 12 12s-5.373 12-12 12v0zM352.188 410.4c0.007 0 0.016 0 0.025 0 106.753 0 193.294 86.541 193.294 193.294s-86.541 193.294-193.294 193.294c-17.9 0-35.232-2.433-51.683-6.987l1.358 0.321-6.454 19.366c-1.639 4.805-6.114 8.2-11.382 8.2-0.001 0-0.003 0-0.004 0v0c-82.472-0.012-149.325-66.872-149.326-149.346v0c0-0.001 0-0.002 0-0.004 0-5.268 3.395-9.743 8.116-11.357l0.084-0.025 21.586-7.2c-3.569-13.891-5.618-29.837-5.618-46.262 0-106.753 86.541-193.294 193.294-193.294 0.001 0 0.003 0 0.004 0v0zM352.188 772.988c93.455-0.025 169.206-75.791 169.206-169.25 0-93.474-75.776-169.25-169.25-169.25s-169.25 75.776-169.25 169.25c0 13.698 1.627 27.016 4.699 39.771l-0.235-1.155 161.57-53.846c1.132-0.39 2.437-0.616 3.794-0.616 6.627 0 12 5.373 12 12 0 1.358-0.226 2.663-0.641 3.88l0.025-0.084-54.616 163.828c12.796 3.473 27.487 5.468 42.644 5.468 0.019 0 0.038 0 0.057 0h-0.003zM159 677.096c4.417 62.484 54.013 112.082 116.097 116.481l0.399 0.023 58.252-174.744zM108 878.834c-6.627 0-12-5.373-12-12v0-8.6c0-6.627 5.373-12 12-12s12 5.373 12 12v0 8.6c0 6.627-5.373 12-12 12v0zM108 828.244c-6.627 0-12-5.373-12-12v0-144c0-6.627 5.373-12 12-12s12 5.373 12 12v0 144c0 6.627-5.373 12-12 12v0z" />
<glyph unicode="&#xe933;" glyph-name="file" d="M145.545 31.373h30.024v-30.024h-30.024zM205.593 31.373h30.024v-30.024h-30.024zM988.325 288.996l35.13 31.716-33.529 80.945-47.276-2.414c-5.232 5.208-22.902 22.632-28.193 27.898v196.94h-30.024v84.932l-60.048 60.048v190.938h-533.842v-60.038h-62.054v-137.11h30.024v107.086h32.030v-506.065h-32.030v368.955h-30.024v-108.746h-40.653l-187.291-270.532v-342.49c0-41.389 33.671-75.060 75.060-75.060l436.351 0.006v30.024h-86.309c-24.834 0-45.036 20.202-45.036 45.036l0.004 333.11 172.993 249.879h330.822v-106.956l-47.756 20.633-31.828-35.256h-38.987l-31.716 35.128-80.943-33.529 2.412-47.266-27.566-27.566-47.264 2.414-33.531-80.945 35.13-31.716v-38.985l-35.13-31.716 33.531-80.945 47.264 2.414 27.566-27.566-2.412-47.266 80.943-33.529 31.716 35.128h38.987l31.828-35.256 47.76 20.633v-40.843c0-24.834-20.204-45.036-45.036-45.036h-297.419v-30.024h297.419c41.389 0 75.060 33.671 75.060 75.060v100.801l28.189 27.898 47.276-2.414 33.529 80.945-35.13 31.716v38.985zM764.337 786.649l68.841-68.843h-68.843v68.843zM320.568 929.976h473.793v-130.893l-38.819 38.819h-404.95v-474.029h-30.024zM203.568 594.058h24.92v-230.185h-184.278zM30.571 11.060v322.788h320.018v-322.784c0-16.888 5.609-32.486 15.058-45.042h-290.039c-24.834 0.002-45.036 20.204-45.036 45.038zM537.879 624.080l-157.263-227.157v410.955h353.697v-120.097h120.097v-63.701zM987.607 210.209l-17.31-41.794-39.432 2.014-46.427-46.117v-39.698l-39.904-17.238-26.343 29.179h-65.673l-26.459-29.306-41.794 17.312 2.014 39.43-46.437 46.437-39.43-2.014-17.31 41.794 29.306 26.457v65.673l-29.306 26.459 17.31 41.792 39.43-2.014 46.437 46.437-2.014 39.43 41.794 17.312 26.459-29.306h65.673l26.343 29.179 39.9-17.236v-39.7l46.431-46.117 39.432 2.014 17.31-41.792-29.308-26.459v-65.673zM785.354 372.585c-56.84 0-103.083-46.243-103.083-103.083s46.243-103.083 103.083-103.083 103.083 46.243 103.083 103.083-46.243 103.083-103.083 103.083zM785.354 196.444c-40.284 0-73.059 32.774-73.059 73.059s32.774 73.059 73.059 73.059 73.059-32.774 73.059-73.059-32.774-73.059-73.059-73.059zM254.339 277.687h-127.515c-24.834 0-45.036-20.202-45.036-45.036v-127.515c0-24.834 20.202-45.036 45.036-45.036h127.515c24.834 0 45.036 20.202 45.036 45.036v127.515c0 24.832-20.204 45.036-45.036 45.036zM269.351 105.136c0-8.279-6.733-15.012-15.012-15.012h-127.515c-8.279 0-15.012 6.733-15.012 15.012v127.515c0 8.279 6.733 15.012 15.012 15.012h127.515c8.279 0 15.012-6.733 15.012-15.012zM144.72 153.881h91.722v-30.024h-91.722zM144.72 213.93h91.722v-30.024h-91.722z" />
<glyph unicode="&#xe934;" glyph-name="suitcase" d="M917.333 746.667h-213.333v64c0 58.816-47.851 106.667-106.667 106.667h-170.667c-58.816 0-106.667-47.851-106.667-106.667v-64h-213.333c-35.285 0-64-28.715-64-64v-170.667c0-28.907 8.384-55.829 22.677-78.72-0.704-2.112-1.344-4.267-1.344-6.613v-341.333c0-58.816 47.851-106.667 106.667-106.667h682.667c58.816 0 106.667 47.851 106.667 106.667v341.333c0 2.347-0.64 4.501-1.344 6.613 14.293 22.891 22.677 49.813 22.677 78.72v170.667c0 35.285-28.715 64-64 64zM362.667 810.667c0 35.285 28.715 64 64 64h170.667c35.285 0 64-28.715 64-64v-64h-298.667zM917.333 85.333c0-35.285-28.715-64-64-64h-682.667c-35.285 0-64 28.715-64 64v304.299c24.213-16.939 53.611-26.965 85.333-26.965h192v-64c0-11.776 9.557-21.333 21.333-21.333h213.333c11.797 0 21.333 9.557 21.333 21.333v64h192c31.723 0 61.12 10.027 85.333 26.965zM426.667 320v42.667h170.667v-42.667zM938.667 512c0-58.816-47.851-106.667-106.667-106.667 0 0-533.717-0.043-640 0-58.816 0-106.667 47.851-106.667 106.667v170.667c0 11.755 9.579 21.333 21.333 21.333h810.667c11.776 0 21.333-9.579 21.333-21.333z" />
<glyph unicode="&#xe935;" glyph-name="location" d="M512 407c0.001 0 0.001 0 0.002 0 94.911 0 171.852 76.941 171.852 171.852s-76.941 171.852-171.852 171.852c-94.911 0-171.852-76.941-171.852-171.852v0c0.11-94.866 76.984-171.741 171.839-171.852h0.011zM512 702.702c0.001 0 0.001 0 0.002 0 68.402 0 123.852-55.45 123.852-123.852s-55.45-123.852-123.852-123.852c-68.402 0-123.852 55.45-123.852 123.852 0 0.001 0 0.002 0 0.002v0c0.088 68.364 55.485 123.761 123.842 123.846h0.008zM467.886 72.702c10.285-13.249 26.214-21.693 44.115-21.693s33.83 8.444 44.021 21.567l0.094 0.126 212.422 275.6c59.732 77.498 93.92 168.922 96.268 257.428 2.552 96.2-31.442 182.388-98.306 249.252-65.24 64.896-155.185 105.012-254.5 105.012s-189.26-40.116-254.516-105.028l0.016 0.015c-66.864-66.86-100.858-153.048-98.3-249.246 2.348-88.506 36.538-179.93 96.27-257.428zM291.44 821.046c56.554 56.21 134.5 90.954 220.56 90.954s164.006-34.743 220.575-90.969l-0.015 0.015c112.962-112.964 112.126-295.312-2.040-443.436l-212.42-275.61c-1.422-1.833-3.624-3.001-6.1-3.001s-4.678 1.168-6.087 2.984l-0.013 0.018-212.42 275.6c-114.166 148.134-115.004 330.482-2.040 443.446zM157.352 107.846c0 46.688 35.534 89.772 100.060 121.316 3.053 1.51 6.648 2.394 10.449 2.394 13.255 0 24-10.745 24-24 0-9.382-5.383-17.506-13.229-21.453l-0.138-0.063c-46.484-22.724-73.142-51.226-73.142-78.2 0-58.57 125.936-123.84 306.648-123.84s306.648 65.27 306.648 123.85c0 26.968-26.658 55.47-73.142 78.2-7.984 4.010-13.367 12.134-13.367 21.516 0 13.255 10.745 24 24 24 3.801 0 7.395-0.884 10.589-2.456l-0.141 0.063c64.526-31.544 100.060-74.628 100.060-121.316 0-49.526-39.438-94.434-111.048-126.454-65.468-29.28-151.98-45.402-243.6-45.402s-178.134 16.122-243.6 45.4c-71.612 32.016-111.048 76.924-111.048 126.45z" />
<glyph unicode="&#xe936;" glyph-name="phone-1" d="M582.882 959.999c-11.047 0-20-8.953-20-20s8.953-20 20-20c221.179 0 401.117-179.945 401.117-401.117 0-11.047 8.961-20 20-20 11.047 0 20 8.953 20 20 0 243.226-197.883 441.117-441.117 441.117zM883.686 498.875c11.047 0 20 8.961 20 20 0 176.898-143.914 320.812-320.804 320.812-11.047 0-20-8.961-20-20 0-11.047 8.953-20 20-20 154.836 0 280.804-125.969 280.804-280.812 0-11.039 8.953-20 20-20zM743.351 518.875c0-11.039 8.953-20 20-20s20 8.961 20 20c0 110.539-89.93 200.468-200.468 200.468-11.047 0-20-8.953-20-19.992 0-11.047 8.953-20 20-20 88.484 0 160.469-71.984 160.469-160.476zM562.882 579.031c0-11.039 8.953-19.992 20-19.992 22.141 0 40.156-18.016 40.156-40.164 0-11.039 8.953-20 20-20 11.039 0 20 8.961 20 20 0 44.203-35.961 80.156-80.156 80.156-11.047 0-20-8.953-20-20zM374.867 310.641c0-11.047-8.953-20-20-20s-20 8.953-20 20c0 11.039 8.953 20 20 20s20-8.961 20-20zM548.062-39.718c91.070-44.633 200.633-26.062 272.648 45.953l41.352 41.352c22.453 22.43 22.461 58.766 0.008 81.211l-159.781 159.765c-22.414 22.445-58.758 22.477-81.195 0.008l-67.891-67.898c-13.297-13.297-33.82-16.008-48.789-6.453-24.406 15.602-48.148 32.805-70.562 51.133-8.555 6.992-21.148 5.727-28.141-2.82-6.992-8.555-5.727-21.156 2.82-28.141 23.617-19.312 48.625-37.437 74.351-53.875 30.664-19.586 72.133-14.594 98.601 11.875l67.906 67.906c6.789 6.797 17.789 6.812 24.609-0.008l159.789-159.773c6.805-6.812 6.82-17.828 0-24.633l-41.359-41.367c-59.992-59.992-151.117-75.391-226.765-38.32-277.132 135.898-427.913 351.382-505.601 508.226-37.164 75.008-21.734 165.789 38.398 225.906l40.453 40.445c6.781 6.797 17.789 6.82 24.602-0.008l159.804-159.797c6.766-6.758 6.836-17.773-0.016-24.609l-67.891-67.898c-26.469-26.469-31.461-67.937-11.875-98.609 11.539-18.055 23.977-35.867 36.977-52.937 6.687-8.789 19.234-10.484 28.023-3.797s10.492 19.234 3.797 28.031c-12.328 16.195-24.141 33.102-35.094 50.234-9.555 14.977-6.844 35.5 6.453 48.797l67.883 67.883c22.445 22.414 22.469 58.766 0.016 81.195l-159.789 159.781c-22.406 22.445-58.758 22.477-81.187 0.008l-40.437-40.437c-72.281-72.258-90.75-181.547-45.961-271.945 80.445-162.398 236.617-385.539 523.843-526.382z" />
<glyph unicode="&#xe937;" glyph-name="mail-1" d="M971.486 789.334h-918.972c-28.884 0-52.514-23.63-52.514-52.512v-577.642c0-28.88 23.63-52.514 52.514-52.514h918.974c28.88 0 52.514 23.63 52.514 52.514v577.642c-0.002 28.882-23.632 52.512-52.516 52.512zM951.78 749.952l-409.572-307.204c-7.364-5.604-18.668-9.11-30.21-9.058-11.54-0.052-22.842 3.454-30.208 9.058l-409.572 307.204h879.562zM733 422.478l223.18-275.694c0.224-0.276 0.498-0.486 0.736-0.736h-889.832c0.236 0.262 0.512 0.46 0.736 0.736l223.18 275.694c6.838 8.454 5.542 20.848-2.928 27.702-8.454 6.838-20.848 5.542-27.688-2.914l-221-273.002v551.072l418.788-314.092c15.742-11.724 34.894-16.884 53.824-16.936 18.904 0.040 38.072 5.2 53.824 16.936l418.788 314.092v-551.068l-220.994 272.998c-6.84 8.454-19.246 9.754-27.688 2.914-8.468-6.838-9.768-19.248-2.926-27.702z" />
<glyph unicode="&#xe938;" glyph-name="arrowhead-pointing-to-the-right" d="M780.994 493.002l-447.996 448c-12.669 12.669-27.653 18.998-44.997 18.998s-32.339-6.329-45.008-18.998c-12.669-12.669-18.998-27.663-18.998-44.997v-895.996c0-17.331 6.329-32.335 18.998-44.997 12.683-12.669 27.677-19.012 45.008-19.012 17.334 0 32.328 6.343 44.997 19.012l447.996 448c12.658 12.655 19.012 27.66 19.012 44.997 0 17.331-6.35 32.325-19.012 44.994z" />
<glyph unicode="&#xe939;" glyph-name="quote-left" d="M354.459 487.381h-137.848c-16.411 0-30.363 5.742-41.852 17.23-11.482 11.488-17.23 25.436-17.23 41.852v19.683c0 43.49 15.388 80.615 46.161 111.388 30.771 30.762 67.902 46.15 111.388 46.15h39.382c10.665 0 19.892 3.899 27.691 11.691 7.794 7.796 11.691 17.024 11.691 27.691v78.776c0 10.665-3.899 19.901-11.691 27.697-7.796 7.785-17.024 11.691-27.691 11.691h-39.382c-42.671 0-83.38-8.316-122.154-24.923-38.77-16.618-72.304-39.082-100.615-67.394-28.309-28.299-50.767-61.835-67.383-100.609-16.616-38.77-24.925-79.49-24.925-122.156v-433.22c0-32.838 11.482-60.72 34.457-83.704 22.977-22.97 50.881-34.454 83.699-34.454h236.318c32.816 0 60.712 11.484 83.691 34.454 22.97 22.983 34.459 50.866 34.459 83.704v236.297c0 32.831-11.488 60.714-34.474 83.699-22.968 22.968-50.874 34.457-83.691 34.457zM989.561 452.924c-22.968 22.968-50.866 34.457-83.691 34.457h-137.846c-16.403 0-30.368 5.742-41.837 17.23-11.493 11.488-17.23 25.436-17.23 41.852v19.683c0 43.49 15.388 80.615 46.145 111.388 30.76 30.762 67.889 46.15 111.397 46.15h39.373c10.667 0 19.901 3.899 27.693 11.691 7.788 7.796 11.7 17.024 11.7 27.691v78.776c0 10.665-3.91 19.901-11.7 27.697-7.79 7.785-17.024 11.691-27.693 11.691h-39.373c-42.695 0-83.395-8.316-122.18-24.923-38.763-16.618-72.286-39.082-100.598-67.394-28.311-28.299-50.78-61.835-67.389-100.609-16.612-38.77-24.932-79.49-24.932-122.156v-433.22c0-32.838 11.493-60.72 34.461-83.704 22.97-22.97 50.868-34.454 83.691-34.454h236.305c32.825 0 60.72 11.484 83.689 34.454 22.985 22.983 34.454 50.866 34.454 83.704v236.297c0.002 32.834-11.469 60.714-34.439 83.699z" />
<glyph unicode="&#xe93a;" glyph-name="menu" d="M960 63.999h-895.999c-35.348 0-64 28.655-64 64s28.653 64 64 64h896.001c35.345 0 64-28.655 64-64-0.002-35.345-28.655-64-64.003-64zM960 384.001h-895.999c-35.348 0-64 28.653-64 63.998s28.653 64 64 64h896.001c35.345 0 64-28.653 64-64s-28.655-63.998-64.003-63.998zM960 704.001h-895.999c-35.348 0-64 28.653-64 64s28.653 64 64 64h896.001c35.345 0 64-28.653 64-64s-28.655-64-64.003-64z" />
<glyph unicode="&#xe93b;" glyph-name="close" d="M73.44 9.44c5.792-5.798 13.797-9.385 22.64-9.385s16.848 3.587 22.64 9.385v0l393.28 393.28 393.44-393.28c5.794-5.794 13.799-9.378 22.64-9.378 17.683 0 32.018 14.335 32.018 32.018 0 8.841-3.584 16.846-9.378 22.64l-393.44 393.28 393.28 393.44c5.794 5.794 9.378 13.799 9.378 22.64 0 17.683-14.335 32.018-32.018 32.018-8.841 0-16.846-3.584-22.64-9.378v0l-393.28-393.44-393.44 393.28c-5.559 4.783-12.847 7.695-20.815 7.695-17.673 0-32-14.327-32-32 0-7.968 2.912-15.255 7.73-20.857l-0.035 0.042 393.28-393.44-393.28-393.44c-5.751-5.784-9.305-13.757-9.305-22.56s3.555-16.776 9.307-22.562l-0.002 0.002z" />
</font>
</defs>
</svg>
