<?xml version="1.0" standalone="no"?>
<!DOCTYPE svg PUBLIC "-//W3C//DTD SVG 1.1//EN" "http://www.w3.org/Graphics/SVG/1.1/DTD/svg11.dtd" >
<svg xmlns="http://www.w3.org/2000/svg">
<metadata>Generated by IcoMoon</metadata>
<defs>
<font id="icomoon" horiz-adv-x="1024">
<font-face units-per-em="1024" ascent="960" descent="-64" />
<missing-glyph horiz-adv-x="1024" />
<glyph unicode="&#x20;" horiz-adv-x="512" d="" />
<glyph unicode="&#xe900;" glyph-name="life-insurance" d="M774.827 846.507l-256 112.060c-4.353 1.9-9.3 1.9-13.653 0l-256-112.060c-6.217-2.713-10.237-8.85-10.24-15.633v-267.947c0.093-60.217 29.029-116.744 77.824-152.030l176.93-127.607c10.927-7.909 25.698-7.909 36.625 0l176.93 127.59c48.795 35.286 77.731 91.813 77.824 152.030v267.964c-0.003 6.783-4.023 12.92-10.24 15.633zM750.933 562.91c-0.078-49.253-23.747-95.487-63.659-124.348l-175.275-126.413-175.275 126.413c-39.911 28.861-63.58 75.095-63.659 124.348v256.802l238.933 104.585 238.933-104.585v-256.802zM505.173 884.053l-187.733-82.193c-6.217-2.713-10.237-8.85-10.24-15.633v-223.317c0.053-38.292 18.457-74.238 49.493-96.666l145.323-104.823c5.961-4.3 14.007-4.3 19.968 0l145.323 104.823c31.036 22.428 49.441 58.374 49.493 96.666v223.317c-0.003 6.783-4.023 12.92-10.24 15.633l-187.733 82.193c-4.353 1.9-9.3 1.9-13.653 0zM682.667 775.083v-212.173c-0.052-27.324-13.187-52.971-35.328-68.983l-135.339-97.621-135.339 97.621c-22.141 16.012-35.276 41.659-35.328 68.983v212.173l170.667 74.701 170.667-74.701zM141.397 393.387l-36.915 86.255c-7.85 17.783-24.591 30.027-43.917 32.12s-38.3-6.283-49.775-21.973c-11.475-15.69-13.708-36.31-5.858-54.093l66.884-147.132c9.023-19.918 21.576-38.039 37.052-53.487l105.182-105.199c-5.924-6.279-9.232-14.579-9.25-23.211v-136.533c0-18.851 15.282-34.133 34.133-34.133h187.733c18.851 0 34.133 15.282 34.133 34.133v136.533c0 18.851-15.282 34.133-34.133 34.133v31.761c0.523 40.419-12.664 79.824-37.41 111.787-14.508 19.082-34.281 33.504-56.883 41.489-35.945 15.102-69.003 36.317-97.707 62.703-26.644 21.944-64.495 23.911-93.269 4.847zM426.667-29.867h-187.733v136.533h187.733v-136.533zM362.615 263.031c19.893-25.918 30.437-57.802 29.918-90.47v-31.761h-141.124l-118.409 118.409c-12.576 12.558-22.78 27.284-30.123 43.469l-66.884 147.132c-2.854 6.28-2.323 13.579 1.41 19.38s10.158 9.307 17.056 9.309c8.118 0.007 15.454-4.837 18.637-12.305l38.178-89.037c10.138-23.755 24.751-45.338 43.042-63.573l77.961-77.978c4.285-4.437 10.63-6.216 16.597-4.654s10.627 6.222 12.189 12.189c1.562 5.967-0.217 12.312-4.654 16.597l-77.961 77.978c-7.839 7.82-14.888 16.395-21.043 25.6 16.39 12.612 39.319 12.23 55.279-0.922 31.903-29.279 68.777-52.628 108.885-68.949 16.342-5.943 30.602-16.509 41.045-30.413zM375.467 55.467h-17.067c-9.426 0-17.067-7.641-17.067-17.067s7.641-17.067 17.067-17.067h17.067c9.426 0 17.067 7.641 17.067 17.067s-7.641 17.067-17.067 17.067zM952.183 288.563l66.884 147.132c8.224 17.843 6.189 38.734-5.323 54.655s-30.713 24.399-50.235 22.18c-19.521-2.219-36.33-14.79-43.975-32.888l-36.83-85.931c-28.875 18.97-66.744 16.893-93.372-5.12-28.704-26.386-61.762-47.601-97.707-62.703-22.602-7.985-42.375-22.407-56.883-41.489-24.757-31.977-37.945-71.401-37.41-111.838v-31.761c-18.851 0-34.133-15.282-34.133-34.133v-136.533c0-18.851 15.282-34.133 34.133-34.133h187.733c18.851 0 34.133 15.282 34.133 34.133v136.533c-0.019 8.632-3.326 16.932-9.25 23.211l105.182 105.199c15.476 15.448 28.028 33.569 37.052 53.487zM785.067-29.867h-187.733v136.533h187.733v-136.533zM772.591 140.8h-141.124v31.761c-0.515 32.663 10.028 64.54 29.918 90.453 10.42 13.895 24.649 24.466 40.96 30.43 40.116 16.317 76.996 39.666 108.902 68.949 15.943 13.251 38.936 13.698 55.381 1.075-6.173-9.273-13.257-17.906-21.146-25.771l-77.961-77.978c-6.468-6.697-6.375-17.341 0.208-23.924s17.228-6.676 23.924-0.208l77.961 77.978c18.291 18.235 32.904 39.818 43.042 63.573l38.178 89.054c3.192 7.458 10.525 12.293 18.637 12.288 6.898-0.003 13.322-3.509 17.056-9.309s4.265-13.1 1.41-19.38l-66.884-147.132c-7.342-16.185-17.547-30.911-30.123-43.469l-118.34-118.391zM665.6 55.467h-17.067c-9.426 0-17.067-7.641-17.067-17.067s7.641-17.067 17.067-17.067h17.067c9.426 0 17.067 7.641 17.067 17.067s-7.641 17.067-17.067 17.067zM419.84 598.187c-7.541 5.655-18.238 4.127-23.893-3.413s-4.127-18.238 3.413-23.893l68.267-51.2c2.954-2.216 6.547-3.413 10.24-3.413 0.966 0.003 1.931 0.083 2.884 0.239 4.622 0.793 8.714 3.453 11.315 7.356l136.533 204.8c3.384 5.073 3.805 11.566 1.103 17.033s-8.114 9.078-14.199 9.472c-6.085 0.394-11.919-2.488-15.303-7.561l-126.532-189.798-53.828 40.38z" />
<glyph unicode="&#xe901;" glyph-name="travel-insurance" d="M312.917-63.957c-1.621 0-3.2 0.043-4.821 0.171-18.603 1.408-35.627 10.88-46.72 25.941l-91.349 125.056c-3.371 4.395-6.571 7.637-10.112 10.155l-133.803 98.731c-14.848 10.667-24.405 27.477-25.984 45.824-1.621 18.688 5.035 37.12 18.304 50.688 19.712 19.712 49.664 25.216 74.795 13.952l108.757-47.573 211.541 228.224c6.997 7.424 7.040 15.701 6.443 19.968-1.024 7.381-5.248 13.824-11.605 17.664l-355.627 188.459c-18.944 11.307-30.635 29.44-33.067 50.219-2.475 20.693 4.693 40.96 19.584 55.552 14.165 14.123 34.816 20.011 53.845 15.232l518.485-109.44c8.448-1.835 17.237 0.853 23.339 7.168l185.856 197.333c18.389 19.499 50.005 30.635 86.741 30.635 36.267 0 67.883-10.837 86.784-29.696 19.243-19.243 30.336-52.907 29.696-90.027-0.64-35.541-11.776-66.005-30.635-83.627l-153.088-144.555c-8.576-8.107-22.101-7.68-30.165 0.853-8.107 8.576-7.723 22.059 0.853 30.165l153.173 144.64c10.069 9.429 16.768 30.293 17.195 53.291 0.427 25.003-6.315 48.213-17.195 59.093-10.453 10.453-32.683 17.195-56.619 17.195-24.32 0-45.696-6.613-55.765-17.237l-185.984-197.504c-16.64-17.195-40.149-24.405-63.147-19.456l-519.125 109.653c-5.291 1.323-10.453-0.341-14.208-4.053-5.547-5.419-8.107-12.757-7.211-20.267 0.896-7.552 5.12-14.123 11.648-18.048l355.669-188.459c18.517-11.136 30.123-28.757 32.896-48.981 2.731-20.096-3.627-40.064-17.536-54.869l-221.739-239.232c-6.187-6.699-15.872-8.661-24.192-5.035l-122.88 53.76c-9.131 4.139-20.181 2.005-27.136-4.949-4.395-4.48-6.699-10.709-6.144-16.981 0.555-6.101 3.584-11.435 8.619-15.061l133.76-98.688c6.741-4.821 12.928-10.923 19.2-19.115l91.605-125.397c3.669-4.992 9.344-8.149 15.531-8.619 6.016-0.469 11.819 1.664 16.171 6.016 7.253 7.040 9.259 17.92 5.291 27.349l-53.717 122.667c-3.627 8.32-1.621 18.005 5.035 24.149l107.093 99.413c8.576 8.021 22.144 7.552 30.165-1.109s7.509-22.144-1.109-30.165l-96-89.131 47.659-109.013c10.965-25.728 5.12-55.637-14.507-74.667-11.691-11.648-27.776-18.261-44.544-18.261zM768-64c-2.816 0-5.632 0.555-8.277 1.707-10.155 4.224-247.723 106.923-247.723 316.757v178.304c0 9.131 5.845 17.28 14.507 20.224l234.667 79.232c4.437 1.493 9.216 1.493 13.653 0l234.667-79.232c8.661-2.901 14.507-11.051 14.507-20.224v-178.304c0-209.835-237.568-312.533-247.723-316.8-2.645-1.109-5.461-1.664-8.277-1.664zM554.667 417.451v-162.987c0-161.493 173.013-254.208 213.333-273.664 40.277 19.499 213.333 112.555 213.333 273.664v162.987l-213.333 72.021zM746.667 149.333c-0.384 0-0.811 0-1.195 0.043-6.059 0.341-11.691 3.243-15.488 7.979l-85.333 106.667c-7.339 9.216-5.845 22.613 3.328 29.995 9.216 7.339 22.656 5.845 29.995-3.328l70.443-88.064 132.48 132.48c8.32 8.32 21.845 8.32 30.165 0s8.32-21.845 0-30.165l-149.333-149.333c-3.968-4.053-9.429-6.272-15.061-6.272z" />
<glyph unicode="&#xe902;" glyph-name="insurance" d="M816-64h-608c-44.161 0.055-79.945 35.839-80 79.995v288.005h32v-288c0-26.51 21.49-48 48-48v0h608c26.51 0 48 21.49 48 48v0 288h32v-288c-0.055-44.161-35.839-79.945-79.995-80h-0.005zM896 512h-32v368c0 26.51-21.49 48-48 48v0h-608c-26.51 0-48-21.49-48-48v0-368h-32v368c0.055 44.161 35.839 79.945 79.995 80h608.005c44.161-0.055 79.945-35.839 80-79.995v-0.005zM976 112h-96v32h80v32c0 8.837 7.163 16 16 16v0c0.429-0.045 0.926-0.070 1.43-0.070 8.085 0 14.64 6.555 14.64 14.64 0 0.504-0.025 1.001-0.075 1.492l0.005-0.062v157.504c-6 18.128-51.824 146.496-144 146.496h-112c-17.673 0-32-14.327-32-32s14.327-32 32-32v0h64c8.837 0 16-7.163 16-16v0c0-5.232 1.744-128 112-128v-32c-103.664 0-137.92 86.704-143.232 144h-48.768c-35.346 0-64 28.654-64 64s28.654 64 64 64v0h112c122.496 0 173.232-164.4 175.328-171.408 0.426-1.368 0.672-2.94 0.672-4.57 0-0.008 0-0.016 0-0.024v0.001-160c0.033-0.647 0.052-1.404 0.052-2.166 0-20.252-13.352-37.385-31.733-43.077l-0.319-0.085v-34.672c0-8.837-7.163-16-16-16v0zM1008 0h-128v32h112v80h-16v32h32c8.837 0 16-7.163 16-16v0-112c0-8.837-7.163-16-16-16v0zM960 16h32v-64h-32zM957.76 438.848l-43.776 175.28-42.864 28.56 17.76 26.624 48-32c3.256-2.197 5.633-5.484 6.616-9.329l0.024-0.111 45.28-181.28zM144 112h-96c-8.837 0-16 7.163-16 16v0 34.672c-18.7 5.778-32.052 22.911-32.052 43.162 0 0.762 0.019 1.519 0.056 2.271l-0.004-0.106v160c0 0.007 0 0.015 0 0.022 0 1.63 0.246 3.202 0.702 4.682l-0.030-0.112c2.096 7.008 52.832 171.408 175.328 171.408h112c35.346 0 64-28.654 64-64s-28.654-64-64-64v0h-48.768c-5.312-57.296-39.568-144-143.232-144v32c110.256 0 112 122.8 112 128 0 8.837 7.163 16 16 16v0h64c17.673 0 32 14.327 32 32s-14.327 32-32 32v0h-112c-92.176 0-138-128.368-144-146.496v-157.504c-0.042-0.419-0.067-0.905-0.067-1.396 0-8.112 6.576-14.688 14.688-14.688 0.553 0 1.099 0.031 1.637 0.090l-0.066-0.006c8.711-0.213 15.704-7.273 15.808-15.99v-32.010h80zM144 0h-128c-8.837 0-16 7.163-16 16v0 112c0 8.837 7.163 16 16 16v0h32v-32h-16v-80h112zM32 16h32v-64h-32zM66.24 438.848l-31.040 7.744 45.28 181.28c1.007 3.956 3.384 7.243 6.583 9.404l0.057 0.036 48 32 17.76-26.624-42.864-28.56zM512 416c-0.052-0.001-0.114-0.001-0.176-0.001-2.538 0-4.938 0.591-7.070 1.643l0.094-0.042c-164.416 82.288-198.848 197.152-200.224 202.016-0.396 1.305-0.624 2.804-0.624 4.357 0 0.010 0 0.019 0 0.029v-0.001 128c0 8.837 7.163 16 16 16v0c44.161 0.055 79.945 35.839 80 79.995v0.005c0 8.837 7.163 16 16 16v0h192c8.837 0 16-7.163 16-16v0c0.055-44.161 35.839-79.945 79.995-80h0.005c8.837 0 16-7.163 16-16v0-128c0-0.008 0-0.018 0-0.027 0-1.553-0.228-3.052-0.652-4.467l0.028 0.11c-1.376-4.8-35.808-119.728-200.224-201.936-2.080-1.059-4.536-1.68-7.137-1.68-0.005 0-0.011 0-0.016 0h0.001zM336 626.544c4.992-14.192 41.936-106.992 176-176.592 134.832 69.952 171.072 162.256 176 176.544v110.64c-49.139 7.373-87.491 45.725-94.788 94.246l-0.076 0.618h-162.272c-7.373-49.139-45.725-87.491-94.246-94.788l-0.618-0.076zM576 560h-128c-8.837 0-16 7.163-16 16v0 96c0 8.837 7.163 16 16 16v0h128c8.837 0 16-7.163 16-16v0-96c0-8.837-7.163-16-16-16v0zM464 592h96v64h-96zM576 672h-32v32c0 17.673-14.327 32-32 32s-32-14.327-32-32v0-32h-32v32c0 35.346 28.654 64 64 64s64-28.654 64-64v0zM496 672h32v-48h-32zM320 320h32v-32h-32zM384 320h320v-32h-320zM288 256h448v-32h-448zM480 64h-224c-8.837 0-16 7.163-16 16v0 96c0 8.837 7.163 16 16 16v0h224c8.837 0 16-7.163 16-16v0-96c0-8.837-7.163-16-16-16v0zM272 96h192v64h-192zM768 64h-224c-8.837 0-16 7.163-16 16v0 96c0 8.837 7.163 16 16 16v0h224c8.837 0 16-7.163 16-16v0-96c0-8.837-7.163-16-16-16v0zM560 96h192v64h-192z" />
<glyph unicode="&#xe903;" glyph-name="insurance-1" d="M560 752v96c0 8.837-7.163 16-16 16v0h-352c-8.837 0-16-7.163-16-16v0-96c0-8.837 7.163-16 16-16v0h352c8.837 0 16 7.163 16 16v0zM528 768h-320v64h320zM112 672v-192c0-8.837 7.163-16 16-16v0h192c8.837 0 16 7.163 16 16v0 92.128l-32-32v-44.128h-160v160h140.128l32 32h-188.128c-8.837 0-16-7.163-16-16v0zM356.688 683.312l-116.688-116.688-36.688 36.688-22.624-22.624 48-48c2.895-2.894 6.895-4.685 11.312-4.685s8.417 1.79 11.312 4.685l128 128zM112 208c0-8.837 7.163-16 16-16v0h192c8.837 0 16 7.163 16 16v0 92.128l-32-32v-44.128h-160v160h140.128l32 32h-188.128c-8.837 0-16-7.163-16-16v0zM203.312 331.312l-22.624-22.624 48-48c2.895-2.894 6.895-4.685 11.312-4.685s8.417 1.79 11.312 4.685l128 128-22.624 22.624-116.688-116.688zM416 576h208v-32h-208zM416 656h208v-32h-208zM416 384h96v-32h-96zM416 304h96v-32h-96zM64 0v896h608v-341.696q16.192 5.664 32 12.368v345.328c0 8.837-7.163 16-16 16v0h-640c-8.837 0-16-7.163-16-16v0-928c0-8.837 7.163-16 16-16v0h640c1.788 0.071 3.472 0.429 5.036 1.028l-0.108-0.036c-16.404 10.205-30.513 20.425-43.868 31.522l0.636-0.514zM977.744 495.904c-75.206 8.352-143.668 30.416-205.18 63.686l2.956-1.462c-2.177 1.182-4.767 1.877-7.52 1.877s-5.343-0.695-7.605-1.919l0.085 0.042c-58.556-31.808-127.018-53.872-199.692-61.994l-2.532-0.23c-8.054-0.909-14.256-7.682-14.256-15.904v0-189.52c0.953-144.602 89.678-268.244 215.525-320.398l2.315-0.85c1.819-0.78 3.937-1.233 6.16-1.233s4.341 0.453 6.265 1.273l-0.105-0.040c128.162 53.004 216.887 176.647 217.839 321.128l0.001 0.12v189.52c0 8.222-6.202 14.995-14.183 15.897l-0.073 0.007zM960 290.48c-0.923-129.016-78.794-239.62-189.961-288.277l-2.039-0.795c-113.206 49.452-191.077 160.056-191.999 288.953l-0.001 0.119v175.36c71.575 9.719 136.338 30.853 195.255 61.645l-3.255-1.549c55.663-29.246 120.426-50.38 188.935-59.753l3.065-0.343zM635.312 299.312l-22.624-22.624 96-96c2.895-2.894 6.895-4.685 11.312-4.685s8.417 1.79 11.312 4.685l192 192-22.624 22.624-180.688-180.688zM400 80h112v-32h-112zM256 144h256v-32h-256z" />
<glyph unicode="&#xe904;" glyph-name="user" d="M512 960c-148.878 0-270-121.122-270-270s121.122-270 270-270 270 121.122 270 270-121.122 270-270 270zM512 480c-115.794 0-210 94.206-210 210s94.206 210 210 210c115.794 0 210-94.206 210-210s-94.206-210-210-210zM847.932 243.61c-73.92 75.056-171.914 116.39-275.932 116.39h-120c-104.016 0-202.012-41.334-275.932-116.39-73.558-74.688-114.068-173.276-114.068-277.61 0-16.568 13.432-30 30-30h840c16.568 0 30 13.432 30 30 0 104.334-40.51 202.922-114.068 277.61zM123.32-4c15.030 170.172 156.702 304 328.68 304h120c171.978 0 313.65-133.828 328.68-304h-777.36z" />
<glyph unicode="&#xe905;" glyph-name="search" d="M412.129 136.098c91.527-0.002 180.435 30.535 252.643 86.776l272.417-272.417c20.351-19.654 52.778-19.090 72.432 1.26 19.172 19.851 19.172 51.322 0 71.172l-272.417 272.417c139.559 179.65 107.060 438.419-72.589 577.977s-438.417 107.060-577.975-72.589-107.060-438.419 72.589-577.977c72.325-56.186 161.314-86.665 252.9-86.619zM193.244 766.836c120.888 120.89 316.885 120.892 437.775 0.004s120.892-316.885 0.004-437.775-316.885-120.892-437.775-0.004c-0.002 0.002-0.002 0.002-0.004 0.004-120.888 120.007-121.6 315.29-1.593 436.178 0.53 0.533 1.061 1.063 1.593 1.593z" />
<glyph unicode="&#xe906;" glyph-name="phone-call" d="M809.283 325.668c-20.964 21.828-46.25 33.499-73.049 33.499-26.583 0-52.085-11.454-73.914-33.283l-68.295-68.078c-5.619 3.026-11.238 5.835-16.641 8.645-7.78 3.89-15.129 7.564-21.396 11.454-63.972 40.631-122.109 93.581-177.869 162.092-27.015 34.147-45.17 62.892-58.353 92.068 17.722 16.209 34.147 33.067 50.14 49.276 6.051 6.051 12.103 12.319 18.154 18.37 45.386 45.386 45.386 104.171 0 149.557l-59.001 59.001c-6.7 6.7-13.616 13.616-20.099 20.532-12.967 13.4-26.583 27.231-40.631 40.199-20.964 20.748-46.034 31.77-72.401 31.77s-51.869-11.022-73.482-31.77c-0.216-0.216-0.216-0.216-0.432-0.432l-73.482-74.13c-27.664-27.664-43.441-61.379-46.899-100.497-5.187-63.108 13.4-121.893 27.664-160.363 35.012-94.445 87.313-181.975 165.333-275.772 94.662-113.032 208.558-202.29 338.664-265.182 49.708-23.557 116.058-51.437 190.188-56.192 4.539-0.216 9.293-0.432 13.616-0.432 49.924 0 91.852 17.938 124.703 53.598 0.216 0.432 0.648 0.648 0.864 1.081 11.238 13.616 24.206 25.935 37.821 39.118 9.293 8.861 18.803 18.154 28.096 27.88 21.396 22.261 32.634 48.195 32.634 74.778 0 26.799-11.454 52.518-33.283 74.13l-118.651 119.083zM886.654 98.092c-0.216 0-0.216-0.216 0 0-8.429-9.077-17.074-17.29-26.367-26.367-14.048-13.4-28.312-27.448-41.712-43.224-21.828-23.341-47.547-34.363-81.262-34.363-3.242 0-6.7 0-9.942 0.216-64.188 4.106-123.838 29.176-168.575 50.573-122.325 59.217-229.738 143.289-318.996 249.837-73.698 88.826-122.974 170.953-155.608 259.131-20.099 53.814-27.448 95.742-24.206 135.293 2.161 25.286 11.887 46.25 29.825 64.188l73.698 73.698c10.59 9.942 21.828 15.345 32.851 15.345 13.616 0 24.638-8.213 31.554-15.129 0.216-0.216 0.432-0.432 0.648-0.648 13.183-12.319 25.719-25.070 38.902-38.686 6.7-6.916 13.616-13.832 20.532-20.964l59.001-59.001c22.909-22.909 22.909-44.089 0-66.998-6.268-6.268-12.319-12.535-18.587-18.587-18.154-18.587-35.444-35.876-54.247-52.734-0.432-0.432-0.864-0.648-1.081-1.081-18.587-18.587-15.129-36.741-11.238-49.060 0.216-0.648 0.432-1.297 0.648-1.945 15.345-37.173 36.957-72.185 69.807-113.896l0.216-0.216c59.65-73.482 122.541-130.754 191.917-174.627 8.861-5.619 17.938-10.158 26.583-14.48 7.78-3.89 15.129-7.564 21.396-11.454 0.864-0.432 1.729-1.081 2.593-1.513 7.348-3.674 14.264-5.403 21.396-5.403 17.938 0 29.176 11.238 32.851 14.912l73.914 73.914c7.348 7.348 19.019 16.209 32.634 16.209 13.4 0 24.422-8.429 31.122-15.777 0.216-0.216 0.216-0.216 0.432-0.432l119.083-119.083c22.261-22.044 22.261-44.737 0.216-67.646zM553.394 716.417c56.624-9.509 108.061-36.309 149.124-77.372s67.646-92.5 77.372-149.124c2.377-14.264 14.696-24.206 28.744-24.206 1.729 0 3.242 0.216 4.971 0.432 15.993 2.593 26.583 17.722 23.99 33.715-11.671 68.511-44.089 130.97-93.581 180.462s-111.951 81.91-180.462 93.581c-15.993 2.593-30.905-7.997-33.715-23.773s7.564-31.122 23.557-33.715zM1022.811 508.292c-19.235 112.816-72.401 215.474-154.095 297.168s-184.352 134.86-297.168 154.095c-15.777 2.81-30.689-7.997-33.499-23.773-2.593-15.993 7.997-30.905 23.99-33.715 100.713-17.074 192.565-64.837 265.614-137.67 73.049-73.049 120.596-164.901 137.67-265.614 2.377-14.264 14.696-24.206 28.744-24.206 1.729 0 3.242 0.216 4.971 0.432 15.777 2.377 26.583 17.506 23.773 33.283z" />
<glyph unicode="&#xe907;" glyph-name="award" d="M804.084 274.038c70.064 72.884 113.202 171.832 113.202 280.674 0.002 223.478-181.81 405.288-405.286 405.288s-405.288-181.81-405.288-405.288c0-108.842 43.138-207.788 113.202-280.672l-104.65-181.258c-3.932-6.808-3.508-15.29 1.080-21.672 4.588-6.384 12.49-9.488 20.198-7.934l138.84 28.026 45.15-134.252c2.506-7.452 9.146-12.744 16.968-13.526 0.666-0.066 1.332-0.1 1.994-0.1 7.092 0 13.72 3.772 17.316 10l114.4 198.146c13.418-1.348 27.024-2.044 40.79-2.044s27.372 0.696 40.79 2.044l118.628-205.47c3.596-6.228 10.224-10 17.316-10 0.66 0 1.326 0.034 1.994 0.1 7.824 0.782 14.462 6.074 16.968 13.526l45.15 134.25 138.84-28.024c7.71-1.552 15.61 1.548 20.198 7.934 4.588 6.382 5.012 14.864 1.080 21.672zM344.322 11.696l-36.65 108.976c-3.214 9.554-13.038 15.22-22.914 13.23l-112.7-22.75 77.792 134.74c50.538-42.966 111.704-73.78 178.956-87.866zM146.712 554.712c0 201.42 163.868 365.288 365.288 365.288s365.288-163.868 365.288-365.288-163.868-365.286-365.288-365.286-365.288 163.866-365.288 365.286zM743.468 126.576c-9.884 1.988-19.7-3.676-22.914-13.23l-36.65-108.974-88.714 153.656c67.252 14.086 128.418 44.9 178.956 87.866l82.020-142.064zM714.13 610.558c-17.248 0-24.048 13.184-25.722 17.224s-6.188 18.172 6.006 30.368c6.462 6.462 10.022 15.052 10.022 24.192s-3.558 17.732-10.020 24.19l-30.594 30.596c-6.462 6.46-15.054 10.020-24.192 10.020-9.14 0-17.73-3.558-24.192-10.020-12.196-12.2-26.328-7.686-30.37-6.010-4.040 1.674-17.224 8.476-17.224 25.724 0 18.864-15.346 34.21-34.21 34.21h-43.266c-18.864 0-34.21-15.346-34.21-34.21 0-17.248-13.184-24.050-17.226-25.724-4.042-1.672-18.174-6.184-30.368 6.008-6.462 6.462-15.054 10.022-24.194 10.022-9.138 0-17.73-3.558-24.192-10.020l-30.592-30.594c-6.462-6.46-10.022-15.052-10.022-24.192s3.558-17.73 10.020-24.19c12.196-12.198 7.682-26.33 6.008-30.37s-8.476-17.224-25.722-17.224c-18.864 0-34.21-15.348-34.21-34.212v-43.266c0-18.864 15.346-34.21 34.21-34.21 17.248 0 24.048-13.184 25.722-17.224 1.674-4.042 6.188-18.174-6.006-30.37-6.462-6.462-10.022-15.054-10.022-24.192s3.558-17.73 10.020-24.192l30.594-30.596c6.462-6.46 15.052-10.020 24.192-10.020s17.73 3.558 24.192 10.020c12.224 12.222 26.346 7.716 30.384 6.042 4.038-1.672 17.21-8.47 17.21-25.756 0-18.864 15.346-34.21 34.21-34.21h43.266c18.864 0 34.21 15.348 34.21 34.21 0 17.248 13.184 24.048 17.226 25.722 4.038 1.678 18.17 6.19 30.37-6.010 13.338-13.338 35.042-13.338 48.384 0l30.592 30.596c6.462 6.46 10.022 15.052 10.022 24.192s-3.558 17.73-10.020 24.19c-12.196 12.198-7.682 26.332-6.008 30.372s8.476 17.224 25.722 17.224c18.864 0 34.21 15.346 34.21 34.21v43.266c0.002 18.866-15.344 34.214-34.21 34.214zM708.342 538.636c-25.448-2.056-46.926-17.632-56.888-41.684-9.964-24.052-5.792-50.254 10.75-69.706l-22.738-22.738c-19.448 16.542-45.648 20.714-69.704 10.752-24.052-9.96-39.628-31.44-41.686-56.888h-32.152c-2.054 25.472-17.626 46.962-41.672 56.924-24.044 9.958-50.254 5.776-69.718-10.788l-22.736 22.738c16.54 19.45 20.712 45.654 10.75 69.706s-31.44 39.628-56.888 41.684v32.154c25.448 2.056 46.924 17.632 56.888 41.684s5.792 50.254-10.75 69.704l22.738 22.738c19.448-16.542 45.652-20.714 69.704-10.75 24.052 9.962 39.628 31.44 41.686 56.888h32.152c2.056-25.45 17.632-46.926 41.686-56.888 24.054-9.964 50.254-5.79 69.704 10.752l22.738-22.738c-16.54-19.45-20.712-45.652-10.75-69.706 9.962-24.050 31.44-39.628 56.888-41.684v-32.154zM512 665.338c-61 0-110.626-49.626-110.626-110.626s49.626-110.624 110.626-110.624 110.626 49.626 110.626 110.626-49.626 110.624-110.626 110.624zM512 484.088c-38.942 0-70.626 31.682-70.626 70.626s31.682 70.626 70.626 70.626 70.626-31.682 70.626-70.626-31.682-70.626-70.626-70.626zM512 884.056c-181.6 0-329.342-147.742-329.342-329.342s147.742-329.342 329.342-329.342 329.342 147.742 329.342 329.342-147.742 329.342-329.342 329.342zM512 265.372c-159.544 0-289.342 129.798-289.342 289.342s129.798 289.342 289.342 289.342 289.342-129.798 289.342-289.342-129.798-289.342-289.342-289.342z" />
<glyph unicode="&#xe908;" glyph-name="medical-protection" d="M790.613 342.613c12.501-12.501 12.501-32.768 0-45.269l-85.333-85.333c-6.229-6.229-14.421-9.387-22.613-9.387s-16.384 3.115-22.613 9.387l-42.667 42.667c-12.501 12.501-12.501 32.768 0 45.269s32.768 12.501 45.269 0l20.053-20.053 62.72 62.72c12.501 12.501 32.768 12.501 45.269 0zM928 355.328v-13.995c0-145.664-88.533-272.384-215.296-308.139-2.816-0.811-5.76-1.195-8.704-1.195s-5.845 0.427-8.704 1.195c-64.085 18.091-118.272 59.52-156.331 114.773-0.768-17.024-14.549-30.635-31.744-30.635h-75.819c-17.664 0-32 14.336-32 32s14.336 32 32 32h5.931v52.096c-47.573 5.888-91.093 24.704-127.147 52.821l-36.949-36.949 4.181-4.181c12.501-12.501 12.501-32.768 0-45.269-6.229-6.229-14.421-9.387-22.613-9.387s-16.384 3.115-22.613 9.387l-26.752 26.752s-0.043 0-0.043 0 0 0.043 0 0.043l-26.752 26.752c-12.501 12.501-12.501 32.768 0 45.269s32.768 12.501 45.269 0l4.181-4.181 36.949 36.949c-28.117 36.053-46.933 79.573-52.821 127.189h-52.096v-5.931c0-17.664-14.336-32-32-32s-32 14.336-32 32v75.819c0 17.664 14.336 32 32 32s32-14.336 32-32v-5.931h52.096c5.888 47.573 24.704 91.136 52.821 127.189l-36.949 36.949-4.181-4.181c-6.229-6.229-14.421-9.387-22.613-9.387s-16.384 3.115-22.613 9.387c-12.501 12.501-12.501 32.768 0 45.269l26.752 26.752s0 0.043 0 0.043 0.043 0 0.043 0l26.752 26.752c12.501 12.501 32.768 12.501 45.269 0s12.501-32.768 0-45.269l-4.181-4.181 36.949-36.949c36.053 28.117 79.573 46.933 127.147 52.821v52.096h-5.931c-17.664 0-32 14.336-32 32s14.336 32 32 32h75.819c17.664 0 32-14.336 32-32s-14.336-32-32-32h-5.931v-52.096c47.573-5.888 91.093-24.704 127.147-52.821l36.949 36.949-4.181 4.181c-12.501 12.501-12.501 32.768 0 45.269s32.768 12.501 45.269 0l26.752-26.752s0.043 0 0.043 0 0-0.043 0-0.043l26.752-26.752c12.501-12.501 12.501-32.768 0-45.269-6.229-6.229-14.421-9.387-22.613-9.387s-16.384 3.115-22.613 9.387l-4.181 4.181-36.949-36.949c28.117-36.053 46.933-79.573 52.821-127.189h52.096v5.931c0 17.664 14.336 32 32 32s32-14.336 32-32v-73.003l42.496-23.979c26.411-14.891 42.837-44.117 42.837-76.288zM469.333 295.253c4.693 0 9.387 0.469 14.080 0.811-1.92 14.891-3.413 29.867-3.413 45.269v13.995c0 32.171 16.427 61.397 42.837 76.288l139.904 78.891c-10.112 98.304-92.459 175.531-193.408 175.531-107.733 0-195.413-87.68-195.413-195.413s87.68-195.413 195.413-195.413zM521.6 177.536c-7.851 14.464-14.549 29.568-20.267 45.312v-41.557h5.931c5.248 0 9.984-1.536 14.336-3.797zM864 355.328c0 8.832-4.139 17.067-10.24 20.523l-144 81.195c-1.877 1.067-3.797 1.579-5.717 1.579s-3.84-0.512-5.717-1.579l-144-81.195c-6.144-3.456-10.283-11.691-10.283-20.523v-13.995c0-113.707 65.365-212.523 160-243.883 94.635 31.317 160 130.176 160 243.883v13.995z" />
<glyph unicode="&#xe909;" glyph-name="car-insurance" d="M254.4 473.6l-81.6 17.6c-22.4 4.8-43.2-12.8-43.2-35.2v-33.6c0-27.2 20.8-33.6 46.4-33.6h89.6c17.6 0 35.2 3.2 35.2 22.4v4.8c0 28.8-19.2 52.8-46.4 57.6zM160 422.4c0 1.6 0 1.6 0 35.2 0 3.2 3.2 6.4 6.4 4.8l81.6-17.6c11.2-3.2 19.2-12.8 20.8-24-56 0-104 0-108.8 1.6zM980.8 644.8l-115.2 54.4c-38.4 17.6-80 24-120 16l-17.6 35.2c-12.8 32-43.2 54.4-78.4 54.4h-374.4c-35.2 0-65.6-20.8-78.4-52.8l-62.4-129.6c-14.4 20.8-38.4 33.6-64 33.6h-27.2c-24 0-43.2-19.2-43.2-43.2v-17.6c0-24 19.2-43.2 43.2-43.2h41.6c-17.6-22.4-25.6-51.2-25.6-80v-96c0-36.8 12.8-72 38.4-102.4v-72c0-32 25.6-57.6 57.6-57.6h59.2c32 0 57.6 25.6 57.6 57.6v28.8h320c70.4-96 180.8-137.6 182.4-137.6 3.2-1.6 6.4-1.6 11.2 0 1.6 1.6 238.4 88 238.4 304v179.2c0 28.8-17.6 56-43.2 68.8zM225.6 739.2c8 20.8 27.2 33.6 49.6 33.6h374.4c22.4 0 41.6-12.8 51.2-35.2l14.4-30.4c-6.4-1.6-12.8-4.8-19.2-8l-115.2-54.4c-25.6-12.8-43.2-38.4-43.2-67.2h-392c6.4 9.6 0-6.4 80 161.6zM32 595.2v17.6c0 6.4 4.8 11.2 11.2 11.2h27.2c32 0 43.2-28.8 46.4-33.6-1.6-3.2-3.2-4.8-6.4-8h-67.2c-6.4 1.6-11.2 6.4-11.2 12.8zM240 203.2c0-14.4-11.2-25.6-25.6-25.6h-60.8c-14.4-1.6-25.6 11.2-25.6 25.6v46.4c19.2-11.2 41.6-17.6 64-17.6h48zM190.4 262.4c-57.6 0-102.4 56-102.4 115.2v96c0 27.2 11.2 52.8 30.4 73.6h419.2v-140.8h-176c-8 0-16-6.4-16-16s6.4-16 16-16h177.6c1.6-11.2 1.6-20.8 4.8-30.4h-182.4c-8 0-16-6.4-16-16s6.4-16 16-16h188.8c6.4-17.6 12.8-35.2 22.4-49.6zM992 396.8c0-177.6-179.2-259.2-211.2-272-115.2 46.4-211.2 145.6-211.2 272 0 59.2 0 91.2 0 179.2 0 17.6 9.6 32 25.6 40l115.2 54.4c46.4 22.4 97.6 22.4 144 0l115.2-54.4c14.4-8 25.6-22.4 25.6-40v-179.2zM937.6 579.2l-105.6 49.6c-32 16-72 16-104 0l-104-49.6c-4.8-3.2-9.6-8-9.6-14.4v-168c0-126.4 110.4-195.2 158.4-219.2 4.8-1.6 9.6-1.6 14.4 0 48 24 158.4 92.8 158.4 219.2v168c0 6.4-3.2 11.2-8 14.4zM915.2 396.8c0-102.4-89.6-163.2-134.4-187.2-52.8 28.8-134.4 86.4-134.4 187.2v158.4l96 46.4c24 11.2 52.8 11.2 76.8 0l96-46.4zM718.4 401.6c-6.4 4.8-16 3.2-22.4-3.2s-3.2-16 3.2-22.4l60.8-46.4c6.4-4.8 16-3.2 22.4 3.2l89.6 116.8c4.8 6.4 3.2 16-3.2 22.4-6.4 4.8-16 3.2-22.4-3.2l-80-104z" />
<glyph unicode="&#xe90a;" glyph-name="insurance-agent" d="M125.402 475.865c0.008 0 0.017 0 0.026 0 3.955 0 7.574 1.44 10.361 3.825l-0.022-0.018c33.143 22.721 74.117 36.285 118.258 36.285 44.75 0 86.244-13.941 120.376-37.716l-0.689 0.454c2.612-1.645 5.76-2.673 9.138-2.81l0.037-0.001c31.33 12.369 61.289 40.315 128.688 40.071 44.739-0.157 86.199-14.069 120.405-37.724l-0.71 0.465c2.568-1.607 5.652-2.63 8.959-2.812l0.049-0.002c31.83 12.222 60.143 40.125 128.847 40.074 44.125-0.156 85.058-13.689 118.992-36.751l-0.744 0.477c2.774-2.372 6.404-3.815 10.371-3.815 0.050 0 0.1 0 0.149 0.001h-0.008c8.858 0.107 15.999 7.313 15.999 16.186 0 0.806-0.059 1.599-0.173 2.373l0.011-0.088c-4 219.052-182.516 395.093-402.149 395.093-219.795 0-398.413-176.302-402.152-395.205l-0.005-0.35c-0.066-0.549-0.104-1.185-0.104-1.83 0-8.904 7.192-16.128 16.084-16.18h0.005zM880.236 521.045c-32.205 17.079-70.407 27.107-110.951 27.107-41.483 0-80.515-10.498-114.583-28.981l1.268 0.63c-3.368 133.678-30.805 268.045-79.865 331.648 163.161-30.218 287.656-163.644 304.008-328.862l0.123-1.542zM511.573 857.362c51.422-0.459 107.189-137.338 112.282-337.058-32.516 17.544-71.168 27.855-112.229 27.855-41.103 0-79.792-10.332-113.613-28.54l1.277 0.629c5.084 199.756 60.855 336.649 112.283 337.114zM447.042 851.449c-49.059-63.6-76.496-197.961-79.866-331.635-32.766 17.871-71.766 28.38-113.222 28.38-40.593 0-78.832-10.076-112.353-27.863l1.301 0.63c16.433 166.8 140.947 300.272 301.846 330.135l2.294 0.354zM956.854 130.222c-17.572 50.328-55.827 89.519-104.307 107.978l-1.213 0.406c25.179 18.963 41.297 48.79 41.33 82.383v0.005c-4.894 136.58-201.508 136.568-206.374-0.001 0.033-33.626 16.178-63.475 41.131-82.245l0.264-0.19c-26.974-10.305-49.838-26.039-68.188-45.99l-0.115-0.127c-21.811 19.081-47.684 34.151-76.087 43.718l-1.59 0.465c106.877 68.926 58.829 237.268-70.134 237.857-0.030 0-0.066 0-0.102 0-71.376 0-129.237-57.862-129.237-129.237 0-45.355 23.364-85.253 58.712-108.316l0.497-0.304c-29.993-10.032-55.865-25.102-77.939-44.407l0.263 0.225c-18.464 20.079-41.329 35.812-67.089 45.707l-1.214 0.41c25.193 19.007 41.308 48.887 41.308 82.531 0 56.94-46.159 103.1-103.1 103.1s-103.1-46.159-103.1-103.1c0-33.615 16.088-63.473 40.984-82.294l0.26-0.188c-52.116-16.642-136.464-99.884-98.13-157.942 10.43-14.467 27.224-23.781 46.195-23.809h177.324c8.553-29.153 34.984-50.108 66.336-50.275l296.049-0.001c31.373 0.163 57.806 21.122 66.232 49.787l0.124 0.491 177.32-0.001c31.066 0.064 56.225 25.263 56.225 56.339 0 6.082-0.964 11.939-2.747 17.427l0.112-0.399zM718.307 320.995c0.358 39.035 32.085 70.541 71.17 70.541s70.813-31.507 71.17-70.508v-0.034c-0.358-39.035-32.085-70.541-71.17-70.541s-70.813 31.507-71.17 70.508v0.034zM414.249 345.148c4.092 128.61 190.576 128.579 194.649-0.002-4.087-128.629-190.581-128.599-194.649 0.002zM162.5 320.995c0.358 39.035 32.085 70.541 71.17 70.541s70.813-31.507 71.17-70.508v-0.034c-0.358-39.035-32.085-70.541-71.17-70.541s-70.813 31.507-71.17 70.508v0.034zM296.562 88.873h-176.679c-8.275 0.021-15.596 4.086-20.094 10.323l-0.050 0.073c-2.724 3.681-4.36 8.31-4.36 13.321 0 2.608 0.443 5.112 1.258 7.442l-0.048-0.158c32.412 102.85 174.8 132.036 244.5 49.917-19.82-22.551-35.113-49.608-44.131-79.392l-0.397-1.526zM659.589 38.596h-296.030c-0.035 0-0.076 0-0.118 0-20.013 0-36.236 16.224-36.236 36.236 0 3.708 0.557 7.286 1.592 10.655l-0.068-0.257c26.856 76.613 98.55 130.568 182.845 130.568s155.99-53.955 182.431-129.214l0.414-1.354c0.966-3.111 1.523-6.689 1.523-10.396 0-20.014-16.224-36.238-36.238-36.238-0.041 0-0.081 0-0.122 0h0.006zM923.407 99.268c-4.548-6.31-11.869-10.375-20.141-10.396h-176.681c-9.415 31.31-24.707 58.368-44.736 81.162l0.208-0.242c69.724 82.124 212.091 52.925 244.506-49.938 0.763-2.167 1.204-4.665 1.204-7.266 0-5.011-1.636-9.639-4.404-13.381l0.043 0.061z" />
<glyph unicode="&#xe90b;" glyph-name="checked" d="M994.72 820.010c-15.064 15.090-39.506 15.116-54.57 0.064l-462.986-461.764-167.044 181.426c-14.434 15.668-38.838 16.684-54.532 2.252-15.682-14.434-16.686-38.85-2.252-54.532l194.252-210.962c7.114-7.732 17.070-12.222 27.568-12.44 0.282-0.012 0.554-0.012 0.824-0.012 10.202 0 20.016 4.052 27.246 11.256l491.418 490.13c15.102 15.050 15.128 39.492 0.076 54.582zM985.406 486.594c-21.316 0-38.592-17.276-38.592-38.594 0-239.766-195.048-434.814-434.814-434.814-239.752 0-434.814 195.048-434.814 434.814 0 239.752 195.062 434.814 434.814 434.814 21.316 0 38.594 17.276 38.594 38.592 0 21.318-17.278 38.594-38.594 38.594-282.32 0-512-229.68-512-512 0-282.308 229.68-512 512-512 282.308 0 512 229.692 512 512 0 21.316-17.276 38.594-38.594 38.594z" />
<glyph unicode="&#xe90c;" glyph-name="trophy1" d="M592 56c-11.040 0-20-8.96-20-20s8.96-20 20-20c11.040 0 20 8.96 20 20s-8.96 20-20 20zM872 868h-60v32c0 33.084-26.916 60-60 60h-480c-33.084 0-60-26.916-60-60v-32h-60c-33.084 0-60-26.916-60-60 0-130.114 60.884-225.734 159.656-252.356 33.86-74.53 87.396-137.888 155.348-183.67 15.652-10.546 24.996-28.6 24.996-48.294v-110.198c-13.71-3.516-26.288-10.644-36.562-20.92-15.114-15.116-23.438-35.202-23.438-56.562h-20c-33.084 0-60-26.916-60-60v-120c0-11.046 8.956-20 20-20h400c11.044 0 20 8.954 20 20v120c0 33.084-26.916 60-60 60h-20c0 37.208-25.534 68.566-60 77.468v110.112c0 19.758 9.35 37.846 25.016 48.392 67.958 45.786 121.494 109.146 155.352 183.678 98.758 26.632 159.632 122.246 159.632 252.35 0 33.084-26.916 60-60 60zM132 808c0 11.028 8.972 20 20 20h60v-89.4c0-45.59 6.906-90.234 20.54-133.228-63.646 31.526-100.54 104.336-100.54 202.628zM672 96c11.028 0 20-8.972 20-20v-100h-360v100c0 11.028 8.972 20 20 20h320zM772 738.6c0-54.632-10.876-107.792-32.332-158-30.52-71.434-80.66-132.104-144.996-175.45-26.72-17.986-42.672-48.48-42.672-81.57v-127.58c0-11.046 8.956-20 20-20 22.056 0 40-17.944 40-40h-200c0 10.676 4.164 20.718 11.722 28.278 7.188 7.188 16.622 11.304 26.71 11.692 0.518-0.040 1.040-0.060 1.566-0.060 11.044 0 20 9.044 20 20.090v127.68c0 33.020-15.942 63.474-42.644 81.466-64.342 43.348-114.482 104.018-145.006 175.458-21.464 50.19-32.348 103.348-32.348 157.996v161.4c0 11.028 8.972 20 20 20h480c11.028 0 20-8.972 20-20v-161.4zM791.468 605.376c13.628 43.004 20.532 87.646 20.532 133.224v89.4h60c11.028 0 20-8.972 20-20 0-98.286-36.89-171.094-100.532-202.624zM670.278 723.68c-2.35 7.242-8.61 12.52-16.146 13.612l-86.312 12.528-38.606 78.23c-3.37 6.828-10.322 11.15-17.936 11.15s-14.566-4.322-17.936-11.15l-38.606-78.23-86.31-12.528c-7.536-1.094-13.794-6.372-16.148-13.612-2.352-7.242-0.39-15.19 5.062-20.504l62.468-60.88-14.744-85.974c-1.286-7.504 1.798-15.086 7.958-19.562 6.16-4.474 14.326-5.064 21.062-1.522l77.196 40.586 77.214-40.586c6.78-3.564 14.942-2.924 21.062 1.524 6.158 4.476 9.242 12.060 7.954 19.564l-14.76 85.972 62.466 60.878c5.454 5.314 7.414 13.262 5.062 20.504zM567.3 663.604c-4.714-4.596-6.868-11.218-5.752-17.708l9.682-56.394-50.646 26.622c-5.83 3.062-12.79 3.062-18.612-0.002l-50.63-26.62 9.672 56.398c1.112 6.49-1.040 13.11-5.754 17.704l-40.968 39.928 56.602 8.216c6.516 0.946 12.148 5.038 15.062 10.942l25.324 51.318 25.324-51.318c2.914-5.904 8.546-9.996 15.062-10.942l56.604-8.216-40.97-39.928zM512 56h-80c-11.044 0-20-8.954-20-20s8.956-20 20-20h80c11.044 0 20 8.954 20 20s-8.956 20-20 20zM820.020-4h11.15c-5.68 1.126-9.5 1.238-11.15 0z" />
<glyph unicode="&#xe90d;" glyph-name="mitigation" d="M852.67 800.888c-87.185 87.185-207.63 141.109-340.67 141.109-266.080 0-481.781-215.7-481.782-481.779v0c0-0.46 0-0.92 0.018-1.378v-0.788c0.034-7.707 6.289-13.941 14-13.941 4.036 0 7.674 1.708 10.229 4.441l0.007 0.008c43.2 46.302 88.29 69.8 133.988 69.856h0.152c49.16 0 99.422-27.028 149.4-80.332 2.56-2.727 6.188-4.425 10.212-4.426v0c0.188 0 0.374 0 0.562 0.012 4.207 0.174 7.914 2.179 10.365 5.235l0.021 0.027c41.228 51.708 89.628 79.668 139.95 80.868 52.526 1.302 104.946-26.134 151.504-79.174 2.579-2.928 6.336-4.766 10.523-4.766 4.072 0 7.738 1.739 10.296 4.514l0.009 0.010c50.494 54.934 100.456 79.762 152.754 75.904 43.416-3.2 88.726-24.888 146.918-70.304 2.35-1.848 5.352-2.964 8.614-2.964 7.701 0 13.95 6.218 14 13.907v0.005l0.018 1.266c0.012 0.674 0.024 1.35 0.024 2.028 0.001 0.385 0.002 0.841 0.002 1.297 0 132.63-53.946 252.66-141.093 339.345l-0.021 0.021zM188.438 546.416c-44.546-0.050-87.854-18.25-129.102-54.184 13.182 188.172 141.614 345.066 314.972 400.4-27.867-20.518-51.782-44.221-71.874-70.961l-0.634-0.881c-54.080-71.336-90.678-168.466-103.7-274.656q-4.734 0.276-9.47 0.282zM347.454 468.552c-39.942 39.684-80.682 64.314-121.638 73.62 12.36 101.56 47.060 194.124 98.292 261.702 49 64.636 110.28 102.2 173.892 107.020v-363.126c-54.484-1.436-106.26-28.742-150.546-79.216zM661.354 470.352c-41.688 43.666-87.858 69.482-135.354 75.886v364.656c63.61-4.824 124.888-42.382 173.888-107.016 50.92-67.162 85.502-159.010 98.060-259.838-43.37-4.104-88.992-25.552-136.594-73.68zM826.132 544.326c-12.826 106.904-49.532 204.728-103.932 276.474-20.721 27.614-44.631 51.311-71.551 71.162l-0.941 0.662c175.422-56 304.838-215.966 315.378-407.128-42.834 30.654-89.304 55.254-138.954 58.838zM512 447.932c-100.545-0.005-182.051-81.514-182.051-182.060 0-63.176 32.179-118.837 81.041-151.486l0.662-0.416v-46.436c0.027-21.808 13.584-40.442 32.726-47.963l0.35-0.121v-31.25c0.019-18.88 15.32-34.181 34.198-34.2h66.156c18.88 0.019 34.181 15.32 34.2 34.198v31.252c19.493 7.641 33.050 26.276 33.078 48.080v46.44c49.524 33.065 81.703 88.726 81.703 151.902 0 100.549-81.511 182.060-182.060 182.060-0.001 0-0.002 0-0.002 0v0zM545.078-18h-66.154c-3.406 0.044-6.156 2.794-6.2 6.196v27.832h78.544v-27.828c-0.043-3.403-2.788-6.151-6.185-6.2h-0.005zM560.844 44.028h-97.686c-12.976 0.015-23.491 10.53-23.506 23.505v40.155h144.698v-40.154c-0.015-12.976-10.53-23.491-23.505-23.506h-0.001zM525.6 135.688h-38.4v101.428l6.678-6.678c2.534-2.534 6.034-4.101 9.9-4.101 2.577 0 4.992 0.696 7.066 1.911l-0.066-0.036 14.834 8.566zM594.352 135.688h-40.752v125.34c-0.001 7.731-6.269 13.998-14 13.998-2.577 0-4.992-0.696-7.066-1.911l0.066 0.036-26.53-15.318-22.98 22.98c-2.534 2.534-6.034 4.101-9.9 4.101-7.732 0-13.999-6.267-14-13.999v0-135.226h-29.542c-43.366 27.747-71.701 75.662-71.701 130.195 0 85.082 68.972 154.054 154.054 154.054s154.054-68.972 154.054-154.054c0-54.533-28.335-102.448-71.085-129.825l-0.616-0.369z" />
<glyph unicode="&#xe90e;" glyph-name="back" d="M865.925 321.915c-8.684 8.674-20.676 14.038-33.92 14.038s-25.236-5.364-33.921-14.038l-158.079-158.015-158.080 158.080c-8.621 8.327-20.376 13.459-33.33 13.459-26.51 0-48-21.49-48-48 0-12.97 5.144-24.738 13.503-33.376l191.987-191.987c8.684-8.674 20.676-14.038 33.92-14.038s25.236 5.364 33.921 14.038l191.999 191.999c8.693 8.687 14.070 20.692 14.070 33.952s-5.377 25.265-14.069 33.952v0zM640.005 47.995c26.51 0 48 21.49 48 48v0 544c0 150.221-121.779 272-272 272s-272-121.779-272-272v0-352c0-26.51 21.49-48 48-48s48 21.49 48 48v0 352c0 97.202 78.798 176 176 176s176-78.798 176-176v0-544c0-26.51 21.49-48 48-48v0z" />
<glyph unicode="&#xe90f;" glyph-name="home" d="M910.138 246.14c-3.718 3.722-8.878 5.86-14.138 5.86s-10.42-2.138-14.14-5.86c-3.72-3.722-5.86-8.858-5.86-14.14 0-5.26 2.138-10.42 5.86-14.138 3.72-3.72 8.88-5.862 14.14-5.862s10.42 2.14 14.138 5.862c3.722 3.718 5.862 8.878 5.862 14.138s-2.14 10.42-5.862 14.14zM1004-24h-88v186c0 11.044-8.956 20-20 20s-20-8.956-20-20v-186h-632v188c0 11.044-8.956 20-20 20s-20-8.956-20-20v-188h-56v525.996l364 284.174 364-284.174v-189.996c0-11.044 8.956-20 20-20s20 8.956 20 20v158.768l3.496-2.73c3.634-2.838 7.976-4.236 12.3-4.236 5.144 0 10.268 1.978 14.148 5.858l72.138 72.14c4.050 4.052 6.17 9.648 5.82 15.368-0.352 5.72-3.138 11.014-7.656 14.54l-120.246 93.876v200.416c0 11.046-8.956 20-20 20h-115.916c-11.044 0-20-8.954-20-20v-78.692l-215.778 168.456c-7.23 5.646-17.382 5.646-24.614 0l-491.94-384.056c-4.518-3.526-7.304-8.82-7.656-14.54-0.35-5.72 1.77-11.314 5.82-15.368l72.138-72.14c7.14-7.138 18.488-7.838 26.45-1.622l3.496 2.73v-494.768h-88c-11.044 0-20-8.956-20-20s8.956-20 20-20h984c11.044 0 20 8.956 20 20s-8.956 20-20 20zM780.084 846h75.916v-149.188l-75.916 59.268v89.92zM93.832 510.452l-43.64 43.642 461.808 360.534 461.808-360.534-43.64-43.642-405.862 316.856c-3.616 2.824-7.96 4.236-12.306 4.236s-8.692-1.412-12.306-4.236l-405.862-316.856zM704 524h-384c-11.044 0-20-8.954-20-20v-384c0-11.044 8.956-20 20-20h384c11.044 0 20 8.956 20 20v384c0 11.046-8.956 20-20 20zM492 140h-152v152h152v-152zM492 332h-152v152h152v-152zM684 140h-152v152h152v-152zM684 332h-152v152h152v-152zM224 262.988c-11.044 0-20-8.954-20-20v-0.322c0-11.044 8.956-20 20-20s20 8.956 20 20v0.322c0 11.044-8.956 20-20 20z" />
<glyph unicode="&#xe910;" glyph-name="insurance-2" d="M885.297 774.547c-137.054 0.51-263.613 45.022-366.394 120.134l1.77-1.233c-2.449 1.6-5.449 2.552-8.67 2.552-3.223 0-6.224-0.953-8.735-2.592l0.061 0.038-40.032-25.836c-91.947-58.395-203.948-93.063-324.046-93.063-0.192 0-0.384 0-0.576 0h0.029c-8.796-0.051-15.906-7.193-15.906-15.996 0-0.001 0-0.003 0-0.004v0-389.008c0-116.602 76.156-224.68 198.766-282.062l183.656-85.968c1.987-0.952 4.319-1.508 6.781-1.508s4.794 0.556 6.878 1.549l-0.097-0.041 183.656 85.968c122.609 57.383 198.766 165.461 198.766 282.062v389.008c0 0.001 0 0.003 0 0.004 0 8.803-7.111 15.945-15.902 15.996h-0.005zM869.203 369.539c0-104.047-69.094-201.024-180.328-253.078l-176.875-82.797-176.875 82.797c-111.234 52.055-180.328 149.031-180.328 253.078v373.281c134.212 3.521 257.557 47.237 359.205 119.486l-2.002-1.351c99.648-70.893 222.991-114.608 356.35-118.115l0.854-0.018zM503.328 790.047c-76.261-55.81-171.823-89.439-275.221-89.826h-0.093c-8.796-0.053-15.905-7.195-15.905-15.998 0-0.001 0-0.003 0-0.004v0-295.899c0-90.188 58.781-173.727 153.406-218.024l139.703-65.391c1.987-0.952 4.319-1.508 6.781-1.508s4.794 0.556 6.878 1.549l-0.097-0.041 139.703 65.391c94.625 44.297 153.406 127.836 153.406 218.024v295.899c0 0.001 0 0.003 0 0.004 0 8.803-7.111 15.945-15.901 15.996h-0.005c-0.125 0-0.274 0-0.422 0-90.596 0-175.086 26.143-246.337 71.296l1.885-1.116-30.438 19.648c-2.45 1.602-5.45 2.555-8.672 2.555s-6.222-0.953-8.733-2.592l0.061 0.038zM779.89 668.555v-280.235c0-77.633-51.719-150.070-134.969-189.039l-132.922-62.218-132.922 62.219c-83.25 38.969-134.969 111.407-134.969 189.039v280.235c100.646 3.335 193.010 36.159 269.457 90.048l-1.567-1.047c74.882-52.839 167.245-85.662 267.080-88.979l0.81-0.021zM496 661.063v-34.055c-46.919-7.902-82.219-48.225-82.219-96.793s35.3-88.891 81.642-96.713l0.577-0.080v-131.673c-29.004 7.383-50.129 33.228-50.219 64.022v0.010c0 8.837-7.163 16-16 16s-16-7.163-16-16v0c0.089-48.535 35.343-88.809 81.638-96.707l0.581-0.082v-34.055c0.134-8.735 7.246-15.764 16-15.764s15.866 7.030 16 15.752v34.068c46.609 8.241 81.556 48.435 81.556 96.793s-34.949 88.553-80.966 96.706l-0.592 0.087 0.002 131.673c29.004-7.383 50.129-33.228 50.219-64.022v-0.010c0.175-8.703 7.272-15.691 16-15.691s15.825 6.988 16 15.675v0.016c-0.089 48.534-35.343 88.808-81.638 96.706l-0.581 0.082v34.055c-0.134 8.735-7.246 15.764-16 15.764s-15.866-7.030-16-15.752v-0.013zM445.781 530.219c0.090 30.804 21.214 56.649 49.761 63.933l0.458 0.099v-128.072c-29.006 7.385-50.131 33.233-50.219 64.030v0.010zM578.219 365.781c-0.090-30.804-21.214-56.649-49.761-63.933l-0.458-0.099v128.072c29.006-7.385 50.131-33.233 50.219-64.030v-0.010z" />
<glyph unicode="&#xe911;" glyph-name="umbrella" d="M926.117 563.141c-2.543 5.675-8.143 9.557-14.649 9.557-8.839 0-16.005-7.166-16.005-16.005 0-2.135 0.418-4.173 1.177-6.035l-0.039 0.107c20.826-48.090 32.94-104.093 32.94-162.925 0-4.633-0.075-9.249-0.224-13.846l0.017 0.67c-32.967 78.726-104.792 121.281-171.474 138.394 19.752 66.628 16.006 161.084 11.587 214.712 35.5-32.587 66.381-69.337 92.117-109.686l1.317-2.208c2.892-4.444 7.835-7.341 13.455-7.341 8.837 0 16.001 7.164 16.001 16.001 0 3.033-0.844 5.869-2.31 8.286l0.040-0.071c-49.551 75.808-112.058 138.814-184.981 187.428l-2.369 1.486 23.070 51.836c0.811 1.852 1.284 4.010 1.284 6.279 0 8.836-7.163 15.999-15.999 15.999-6.398 0-11.918-3.755-14.478-9.181l-0.041-0.098-21.867-49.132c-148.986 55.835-364.027 92.858-608.874-121.143-2.058-2.674-3.298-6.070-3.298-9.755 0-8.627 6.795-15.667 15.325-16.061l0.035-0.001c44.865-3.355 81.443-35.194 91.883-77.345l0.147-0.703c2.296-6.735 8.568-11.494 15.951-11.494 0.485 0 0.965 0.021 1.439 0.061l-0.062-0.004c4.284 1.376 108.375 9.024 159.855-102.107 2.774-4.592 7.738-7.616 13.409-7.616 1.020 0 2.017 0.098 2.983 0.285l-0.098-0.016c7.257 0.911 15.654 1.431 24.173 1.431 39.26 0 75.942-11.044 107.106-30.194l-0.89 0.509-164.92-368.371c-10.788-23.169-33.874-38.942-60.644-38.942-36.832 0-66.691 29.858-66.691 66.691 0 9.678 2.062 18.875 5.77 27.176l-0.169-0.423 10.936 24.452c0.872 1.912 1.38 4.147 1.38 6.5 0 8.838-7.165 16.003-16.003 16.003-6.461 0-12.027-3.829-14.555-9.341l-0.041-0.1-10.93-24.453c-5.422-11.836-8.584-25.676-8.584-40.255 0-54.501 44.182-98.684 98.684-98.684 39.879 0 74.232 23.654 89.796 57.698l0.252 0.616 162.169 362.224c19.184-17.202 35.917-36.529 50.011-57.76l0.689-1.104c2.637-2.041 5.939-3.342 9.534-3.545l0.045-0.002c11.711 2.127 25.188 3.344 38.95 3.344 70.282 0 133.154-31.724 175.078-81.635l0.287-0.351c3.085-3.393 7.516-5.514 12.443-5.514 2.188 0 4.278 0.418 6.195 1.179l-0.114-0.040c3.031 1.312 74.906 31.187 105.922-18 2.941-4.383 7.878-7.228 13.478-7.228 6.97 0 12.91 4.407 15.187 10.586l0.036 0.112c8.979 32.522 14.14 69.866 14.14 108.415 0 61.773-13.251 120.451-37.065 173.347l1.075-2.669zM548.541 842.135c-20.691-6.667-37.861-13.605-54.435-21.585l2.55 1.107c-5.428-2.637-9.103-8.108-9.103-14.438 0-8.837 7.164-16.002 16.002-16.002 2.483 0 4.835 0.566 6.932 1.575l-0.096-0.042c30.559 14.709 66.033 26.197 103.228 32.68l2.455 0.354c68.982-22.655 73.28-33.929 118.166-67.48 3.219-27.67 14.62-140.69-2.792-219.499-101.188 142.697-260.56 165.15-324.635 168.469 14.024 21.065 30.941 38.901 50.434 53.484l0.558 0.399c3.876 2.952 6.353 7.569 6.353 12.766 0 8.837-7.164 16.002-16.002 16.002-3.641 0-6.998-1.216-9.688-3.265l0.039 0.029c-25.171-18.851-46.094-41.82-62.134-68.096l-0.602-1.061c-13.36 11.601-28.594 21.582-45.075 29.352l-1.206 0.511c-28.214 12.228-61.073 19.34-95.592 19.34-22.053 0-43.427-2.903-63.763-8.347l1.719 0.392c81.545 56.605 182.62 90.43 291.595 90.43 30.055 0 59.509-2.573 88.154-7.51l-3.064 0.437zM124.715 711.187c38.134 15.687 99.343 33.297 159.060 18.736-37.592-20.223-69.369-46.248-95.385-77.268l-0.406-0.498c-14.173 26.134-35.992 46.587-62.433 58.687l-0.836 0.343zM212.891 632.326c31.171 41.798 91.26 72.944 110.919 82.381 17.742-10.041 33.008-21.802 46.41-35.406l0.025-0.026c2.781-2.236 6.355-3.589 10.244-3.589 0.045 0 0.090 0 0.136 0.001h-0.007c1.275 0.015 2.781 0.023 4.289 0.023 28.076 0 55.472-2.91 81.903-8.444l-2.586 0.453c-40.279-36.532-74.686-78.529-102.307-125.029l-1.369-2.49c-31.429 51.245-84.909 86.329-146.896 92.069l-0.76 0.057zM533.711 474.131l37.164 83.010c0.823 1.863 1.301 4.036 1.301 6.32 0 8.835-7.162 15.997-15.997 15.997-6.388 0-11.902-3.745-14.466-9.159l-0.041-0.097-34.736-77.587c-33.835 20.104-74.523 32.135-117.99 32.52l-0.11 0.001c30.854 51.985 68.866 96.089 113.33 132.63l0.865 0.689c54.763-15.39 102.348-40.695 143.019-74.107l-0.676 0.539c-14.87-60.537-36.903-113.799-65.681-162.609l1.52 2.788c-13.872 18.596-29.508 34.728-46.976 48.66l-0.525 0.404zM613.802 416.668c23.628 41.261 43.504 88.994 57.162 139.287l0.998 4.312c19.162-19.683 36.066-41.726 50.194-65.606l0.883-1.613c2.763-3.94 6.893-6.758 11.688-7.774l0.125-0.022c27.615-4.528 52.396-13.219 74.944-25.496l-1.233 0.614c1.443-11.395 2.267-24.581 2.267-37.958 0-28.154-3.648-55.456-10.498-81.46l0.498 2.223c-46.322 45.502-109.881 73.59-179.999 73.59-2.471 0-4.935-0.035-7.389-0.104l0.361 0.008zM832.431 337.434c6.657 24.915 10.481 53.521 10.481 83.019 0 6.231-0.171 12.423-0.507 18.57l0.037-0.855c33.488-26.793 57.664-63.982 67.678-106.629l0.258-1.305c-14.705 6.558-31.865 10.377-49.916 10.377-9.94 0-19.609-1.158-28.88-3.346l0.849 0.169zM753.312 288.437l-114.242 29.766c-1.21 0.327-2.598 0.516-4.031 0.516s-2.822-0.188-4.143-0.541l0.112 0.025-114.242-29.766c-5.513-1.47-9.789-5.67-11.339-11.028l-0.028-0.113c-6.052-22.986-9.536-49.379-9.555-76.582v-0.012c0.137-8.733 7.249-15.76 16.001-15.76 8.709 0 15.793 6.957 15.998 15.616v0.019c0.132 21.073 2.421 41.537 6.657 61.277l-0.353-1.965 100.891 26.297 100.946-26.297c8.148-37.547 29.93-181.25-100.945-227.016-49.778 15.84-87.548 55.931-99.829 106.032l-0.21 1.015c-1.867 6.919-8.087 11.927-15.477 11.927-8.839 0-16.005-7.166-16.005-16.005 0-1.45 0.193-2.855 0.554-4.19l-0.026 0.112c15.975-63.331 63.678-112.663 124.803-130.676l1.283-0.324c1.465-0.487 3.151-0.767 4.902-0.767s3.438 0.281 5.016 0.8l-0.113-0.032c183.086 58.906 125.36 274.312 124.758 276.484-1.57 5.492-5.854 9.711-11.271 11.162l-0.112 0.026zM625.742 116.797c0.006 0 0.013 0 0.020 0 4.293 0 8.19 1.697 11.055 4.458l70.879 67.949c2.892 2.895 4.681 6.893 4.681 11.309 0 8.837-7.163 16-16 16-4.179 0-7.984-1.602-10.834-4.226l0.011 0.010-59.843-57.374-25.43 24.234c-2.839 2.616-6.646 4.22-10.827 4.22-8.837 0-16-7.163-16-16 0-4.449 1.816-8.475 4.748-11.375l0.001-0.001 36.5-34.781c2.855-2.737 6.738-4.422 11.014-4.422 0.009 0 0.017 0 0.026 0h-0.001z" />
<glyph unicode="&#xe912;" glyph-name="protection" d="M400 448h-64c-8.837 0-16-7.163-16-16v0-112c0-8.837 7.163-16 16-16v0h64c8.837 0 16 7.163 16 16v0 112c0 8.837-7.163 16-16 16v0zM384 336h-32v80h32zM624 304h64c8.837 0 16 7.163 16 16v0 112c0 8.837-7.163 16-16 16v0h-64c-8.837 0-16-7.163-16-16v0-112c0-8.837 7.163-16 16-16v0zM640 416h32v-80h-32zM737.254 622.784c17.394 8.036 31.093 21.606 39.089 38.413l0.207 0.483 106.896-55.586c9.947-5.278 21.746-8.377 34.27-8.377 41.026 0 74.284 33.258 74.284 74.283v0c0 5.984-3.285 11.2-8.15 13.945l-0.080 0.041-432 240c-2.24 1.265-4.919 2.011-7.772 2.011-1.432 0-2.82-0.188-4.14-0.54l0.112 0.025-347.97-90.772v11.29c0 8.837-7.163 16-16 16v0h-128c-8.837 0-16-7.163-16-16v0-224c0-8.837 7.163-16 16-16v0h128c8.837 0 16 7.163 16 16v0 16h96c1.567 0 3.082 0.225 4.513 0.644l-0.113-0.028 116.294 33.226-226.694-181.348c-3.671-2.957-6-7.452-6-12.49 0-4.416 1.789-8.415 4.682-11.31l48-48c2.896-2.897 6.896-4.688 11.316-4.688 3.671 0 7.054 1.237 9.754 3.316l-0.038-0.028 6.282 4.8v-175.51c-3.147-4.136-5.998-8.818-8.346-13.784l-0.204-0.48-106.892 55.586c-9.947 5.278-21.746 8.377-34.27 8.377-41.026 0-74.284-33.258-74.284-74.283v0c0-5.984 3.285-11.2 8.15-13.945l0.080-0.041 432-240c2.24-1.267 4.918-2.014 7.771-2.014 1.435 0 2.827 0.189 4.15 0.544l-0.112-0.025 347.96 90.772v-11.29c0-8.837 7.163-16 16-16v0h128c8.837 0 16 7.163 16 16v0 224c0 8.837-7.163 16-16 16v0h-128c-8.837 0-16-7.163-16-16v0-16h-64v168.094l6.282-4.8c2.662-2.052 6.045-3.288 9.716-3.288 4.419 0 8.42 1.792 11.316 4.688l48 48c2.893 2.895 4.682 6.893 4.682 11.31 0 5.039-2.329 9.533-5.97 12.466l-0.031 0.024-156.51 125.2c5.579-1.404 11.984-2.21 18.577-2.21 12.042 0 23.456 2.688 33.675 7.497l-0.484-0.205zM160 640h-96v192h96zM864 256h96v-192h-96zM832 224v-131.638l-349.834-91.262-417.24 231.8c4.257 19.221 21.155 33.384 41.361 33.384 7.131 0 13.849-1.764 19.743-4.879l-0.23 0.111 314.818-163.716c2.143-1.137 4.684-1.804 7.382-1.804 8.839 0 16.004 7.165 16.004 16.004 0 6.141-3.459 11.475-8.535 14.158l-0.087 0.042-179.502 93.338c4.841 10.973 13.338 19.596 23.917 24.477l0.297 0.123c5.836 2.796 12.686 4.429 19.917 4.429 7.834 0 15.22-1.916 21.715-5.306l-0.26 0.123 163.378-81.688c2.085-1.065 4.548-1.69 7.156-1.69 1.566 0 3.079 0.225 4.509 0.644l-0.113-0.028 221.846 63.378zM513.288 495.986c-0.214 0-0.432 0.014-0.648 0.014h-0.64q-0.318 0-0.636-0.012c-35.129-0.758-63.321-29.394-63.364-64.624v-205.476l-92.222 46.112c-10.407 5.353-22.709 8.491-35.744 8.491-11.593 0-22.605-2.482-32.536-6.943l0.503 0.202v174.814l224 171.294 224-171.294v-192.564c-1.567 0-3.082-0.225-4.513-0.644l0.113 0.028-155.6-44.458v220.434c0 0.070 0 0.152 0 0.234 0 34.977-27.877 63.442-62.625 64.39l-0.088 0.002zM544 431.36v-229.578l-30.412-8.688-33.588 16.794v221.472c0.020 17.907 14.441 32.439 32.303 32.64h0.019c17.535-0.168 31.685-14.422 31.685-31.981 0-0.232-0.002-0.463-0.007-0.694l0.001 0.034zM808.046 478.674l-25.446-25.456-260.882 199.49c-2.663 2.052-6.046 3.289-9.718 3.289s-7.055-1.237-9.755-3.317l0.037 0.028-260.882-199.49-25.454 25.456 272.428 217.926 22.038 6.296 46.25-23.126zM682.534 652.622l-163.378 81.688c-2.085 1.065-4.548 1.69-7.156 1.69-1.566 0-3.079-0.225-4.509-0.644l0.113 0.028-221.846-63.384h-93.758v131.638l349.834 91.262 417.24-231.8c-4.257-19.221-21.155-33.384-41.361-33.384-7.131 0-13.849 1.764-19.743 4.879l0.23-0.111-314.818 163.716c-2.143 1.137-4.684 1.804-7.382 1.804-8.839 0-16.004-7.165-16.004-16.004 0-6.141 3.459-11.475 8.535-14.158l0.087-0.042 179.502-93.34c-4.841-10.973-13.338-19.596-23.917-24.477l-0.297-0.123c-5.834-2.793-12.681-4.425-19.909-4.425-7.837 0-15.226 1.918-21.723 5.31l0.26-0.123z" />
<glyph unicode="&#xe913;" glyph-name="protection-1" d="M767.872 239.808c-3.328 0-6.72 1.056-9.6 3.232-7.072 5.312-8.48 15.328-3.168 22.4 39.84 52.96 60.896 116.096 60.896 182.56 0 20.864-2.144 41.76-6.368 62.080-1.792 8.672 3.776 17.12 12.416 18.912 8.608 1.792 17.12-3.776 18.912-12.416 4.672-22.464 7.040-45.536 7.040-68.576 0-73.44-23.296-143.264-67.328-201.824-3.168-4.192-7.968-6.368-12.8-6.368zM198.912 365.312c-7.392 0-14.048 5.184-15.648 12.704-4.8 22.944-7.264 46.496-7.264 69.984 0 73.12 23.072 142.656 66.752 201.024 5.28 7.104 15.328 8.576 22.4 3.232 7.072-5.312 8.544-15.328 3.232-22.4-39.52-52.8-60.384-115.68-60.384-181.856 0-21.28 2.208-42.624 6.592-63.392 1.824-8.64-3.712-17.12-12.352-18.944-1.12-0.256-2.24-0.352-3.328-0.352zM560 288h-96c-8.832 0-16 7.168-16 16v80h-80c-8.832 0-16 7.168-16 16v96c0 8.832 7.168 16 16 16h80v80c0 8.832 7.168 16 16 16h96c8.832 0 16-7.168 16-16v-80h80c8.832 0 16-7.168 16-16v-96c0-8.832-7.168-16-16-16h-80v-80c0-8.832-7.168-16-16-16zM480 320h64v80c0 8.832 7.168 16 16 16h80v64h-80c-8.832 0-16 7.168-16 16v80h-64v-80c0-8.832-7.168-16-16-16h-80v-64h80c8.832 0 16-7.168 16-16zM580.512 0h-167.712c-31.264 0-61.792 6.976-90.752 20.736l-112.096 54.464c-28.736 13.792-59.36 20.8-90.88 20.8h-71.072c-8.832 0-16 7.168-16 16s7.168 16 16 16h71.072c36.352 0 71.616-8.064 104.8-24l112.064-54.432c24.512-11.616 50.4-17.568 76.864-17.568h164.512l139.744 57.664c0 1.344 1.888 13.728-4.256 24.256-9.376 16.128-31.040 16.64-47.456 14.24-23.84-3.68-43.552-10.304-60.928-16.16l-6.592-2.208c-8.416-2.72-17.44 1.728-20.224 10.144-2.784 8.384 1.76 17.44 10.144 20.224l6.464 2.144c18.624 6.272 39.712 13.376 66.4 17.472 65.984 9.6 82.464-31.616 86.016-44.448 5.856-21.152 0.992-47.616-17.28-55.264l-142.752-58.912c-1.92-0.736-4-1.152-6.080-1.152zM372.32 227.936c-6.016 0-11.808 3.424-14.528 9.248-31.36 67.488-112.832 77.152-173.408 52.032-1.952-0.8-4.032-1.216-6.144-1.216h-130.24c-8.832 0-16 7.168-16 16s7.168 16 16 16h127.136c86.624 34.4 177.152 4.864 211.712-69.344 3.712-8 0.256-17.536-7.776-21.28-2.208-0.96-4.48-1.44-6.752-1.44zM523.968 76.064c-2.080 0-4.16 0.416-6.112 1.216l-183.232 76.064c-8.16 3.392-12.032 12.736-8.64 20.928 3.392 8.16 12.768 12 20.928 8.64l167.136-69.376c7.008 32.992-11.040 58.656-53.92 76.416l-94.176 39.104c-8.16 3.392-12.032 12.768-8.64 20.928s12.768 12.032 20.928 8.64l94.144-39.104c65.952-27.328 90.144-76 66.368-133.504-1.632-3.936-4.736-7.072-8.672-8.672-1.952-0.864-4.032-1.28-6.112-1.28zM344.672 734.752c-50.336 0-64.096 34.368-67.296 45.888-5.856 21.152-0.992 47.616 17.28 55.264l142.752 58.912c1.92 0.768 4 1.184 6.080 1.184h167.68c31.264 0 61.792-6.976 90.752-20.736l112.096-54.464c28.768-13.792 59.392-20.8 90.912-20.8h71.072c8.832 0 16-7.168 16-16s-7.168-16-16-16h-71.072c-36.352 0-71.616 8.064-104.8 24l-112.064 54.4c-24.512 11.648-50.4 17.6-76.864 17.6h-164.512l-139.776-57.664c0-1.344-1.888-13.728 4.256-24.256 9.408-16.128 31.008-16.64 47.456-14.24 23.84 3.68 43.552 10.304 60.928 16.16l6.592 2.208c8.416 2.752 17.44-1.728 20.224-10.144 2.784-8.384-1.76-17.44-10.144-20.224l-6.464-2.144c-18.624-6.272-39.712-13.376-66.4-17.472-6.72-1.024-12.96-1.472-18.688-1.472zM776.288 561.76c-60.48 0-114.304 30.208-139.136 83.584-3.712 8-0.256 17.536 7.776 21.28 8.032 3.712 17.536 0.224 21.28-7.776 31.328-67.456 112.768-77.088 173.408-52.032 1.952 0.768 4.032 1.184 6.144 1.184h130.24c8.832 0 16-7.168 16-16s-7.168-16-16-16h-127.136c-24.32-9.632-48.96-14.24-72.576-14.24zM651.904 636.16c-2.048 0-4.128 0.384-6.144 1.216l-94.144 39.104c-65.952 27.328-90.144 76-66.368 133.504 1.632 3.936 4.736 7.072 8.672 8.672s8.32 1.632 12.256 0l183.232-76.064c8.16-3.392 12.032-12.736 8.64-20.928s-12.704-12-20.928-8.64l-167.136 69.376c-7.008-32.992 11.040-58.656 53.92-76.416l94.176-39.104c8.16-3.392 12.032-12.768 8.64-20.928-2.592-6.080-8.544-9.792-14.816-9.792zM720.48 190.88c-4.096 0-8.192 1.568-11.328 4.672-6.24 6.24-6.24 16.384 0 22.624 6.272 6.24 17.504 7.36 23.744 1.12s7.36-15.264 1.12-21.504l-2.24-2.24c-3.104-3.104-7.2-4.672-11.296-4.672zM304.48 670.88c-4.128 0-8.256 1.6-11.392 4.768-6.208 6.304-6.144 16.416 0.16 22.624l2.272 2.24c6.272 6.208 16.416 6.144 22.624-0.16s6.144-16.416-0.16-22.624l-2.272-2.24c-3.104-3.072-7.168-4.608-11.232-4.608z" />
<glyph unicode="&#xe914;" glyph-name="family" d="M503.38 381.266c2.812-0.844 5.716-1.266 8.62-1.266s5.808 0.422 8.62 1.266c64.47 19.34 119.786 58.108 159.964 112.108 40.178 54.002 61.416 118.124 61.416 185.432v171.194c0 16.568-13.432 30-30 30-37.91 0-71.992 21.064-88.944 54.968l-4.222 8.446c-5.082 10.166-15.47 16.586-26.834 16.586h-160c-11.364 0-21.752-6.42-26.834-16.584l-4.222-8.444c-16.952-33.908-51.034-54.972-88.944-54.972-16.568 0-30-13.432-30-30v-171.194c0-67.308 21.238-131.43 61.416-185.432 40.178-54 95.494-92.768 159.964-112.108zM342 822.794c45.402 8.57 84.874 36.4 108.25 77.206h123.5c23.376-40.804 62.848-68.636 108.25-77.206v-143.99c0-108.512-67.942-202.77-170-237.32-102.058 34.55-170 128.808-170 237.32zM483.716 583.432c7.678 0 15.356 2.928 21.212 8.788l113.136 113.136c11.716 11.716 11.716 30.71 0 42.426-11.714 11.716-30.71 11.716-42.426 0l-91.924-91.922-35.356 35.354c-11.714 11.716-30.71 11.716-42.426 0s-11.716-30.71 0-42.426l56.568-56.568c5.86-5.86 13.538-8.788 21.216-8.788zM906.324 254.582c23.274 23.504 37.676 55.806 37.676 91.418 0 71.682-58.318 130-130 130s-130-58.318-130-130c0-35.55 14.356-67.8 37.558-91.294-47.936-23.442-85.616-64.614-104.418-115.268-6.904 5.452-14.234 10.382-21.94 14.728 16.676 19.288 26.8 44.394 26.8 71.834 0 60.654-49.346 110-110 110s-110-49.346-110-110c0-27.44 10.124-52.546 26.8-71.834-7.706-4.344-15.036-9.276-21.94-14.728-18.802 50.654-56.484 91.826-104.418 115.268 23.202 23.494 37.558 55.744 37.558 91.294 0 71.682-58.318 130-130 130s-130-58.318-130-130c0-35.612 14.402-67.914 37.676-91.418-69.632-34.228-117.676-105.896-117.676-188.582v-100c0-16.568 13.432-30 30-30h964c16.568 0 30 13.432 30 30v100c0 82.686-48.044 154.354-117.676 188.582zM744 346c0 38.598 31.402 70 70 70s70-31.402 70-70-31.402-70-70-70-70 31.402-70 70zM462 226c0 27.57 22.43 50 50 50s50-22.43 50-50-22.43-50-50-50-50 22.43-50 50zM140 346c0 38.598 31.402 70 70 70s70-31.402 70-70-31.402-70-70-70-70 31.402-70 70zM60 66c0 82.71 67.29 150 150 150 77.796 0 141.948-58.872 149.288-135.392-11.056-22.54-17.288-47.856-17.288-74.608v-10h-282zM622-4h-220v10c0 60.654 49.346 110 110 110s110-49.346 110-110zM964-4h-282v10c0 26.752-6.232 52.068-17.288 74.608 7.34 76.52 71.492 135.392 149.288 135.392 82.71 0 150-67.29 150-150z" />
<glyph unicode="&#xe915;" glyph-name="premium-quality" d="M512-16c-22.4 0-43.4 8.8-59.2 24.6l-71.6 71.6c-9.8 9.8-22.8 15.2-36.6 15.2h-101.4c-46.2 0-83.8 37.6-83.8 83.8v101.4c0 13.8-5.4 26.8-15.2 36.6l-71.6 71.6c-32.6 32.6-32.6 85.8 0 118.4l71.6 71.6c9.8 9.8 15.2 22.8 15.2 36.6v101.4c0 46.2 37.6 83.8 83.8 83.8h101.4c13.8 0 26.8 5.4 36.6 15.2l71.6 71.6c15.8 15.8 36.8 24.6 59.2 24.6s43.4-8.8 59.2-24.6l71.6-71.6c9.8-9.8 22.8-15.2 36.6-15.2h101.4c46.2 0 83.8-37.6 83.8-83.8v-101.4c0-13.8 5.4-26.8 15.2-36.6l71.6-71.6c32.6-32.6 32.6-85.8 0-118.4l-71.6-71.6c-9.8-9.8-15.2-22.8-15.2-36.6v-101.4c0-46.2-37.6-83.8-83.8-83.8h-101.4c-13.8 0-26.8-5.4-36.6-15.2l-71.6-71.6c-15.8-15.8-36.8-24.6-59.2-24.6zM243.2 768.6c-28.6 0-51.8-23.2-51.8-51.8v-101.4c0-22.4-8.8-43.4-24.6-59.2l-71.6-71.6c-20.2-20.2-20.2-53 0-73.2l71.6-71.6c15.8-15.8 24.6-36.8 24.6-59.2v-101.4c0-28.6 23.2-51.8 51.8-51.8h101.4c22.4 0 43.4-8.8 59.2-24.6l71.6-71.6c9.8-9.8 22.8-15.2 36.6-15.2s26.8 5.4 36.6 15.2l71.6 71.6c15.8 15.8 36.8 24.6 59.2 24.6h101.4c28.6 0 51.8 23.2 51.8 51.8v101.4c0 22.4 8.8 43.4 24.6 59.2l71.6 71.6c20.2 20.2 20.2 53 0 73.2l-71.6 71.6c-15.8 15.8-24.6 36.8-24.6 59.2v101.4c0 28.6-23.2 51.8-51.8 51.8h-101.4c-22.4 0-43.4 8.8-59.2 24.6l-71.6 71.6c-9.8 9.8-22.8 15.2-36.6 15.2s-26.8-5.4-36.6-15.2l-71.6-71.6c-15.8-15.8-36.8-24.6-59.2-24.6zM512 155.8c-161.2 0-292.2 131.2-292.2 292.2s131 292.2 292.2 292.2 292.2-131 292.2-292.2-131-292.2-292.2-292.2zM512 708.2c-143.6 0-260.2-116.8-260.2-260.2s116.6-260.2 260.2-260.2 260.2 116.8 260.2 260.2-116.6 260.2-260.2 260.2zM624 288h-224c-7.2 0-13.4 4.8-15.4 11.6l-64 225.4c-1.8 6.4 0.6 13.4 6 17.4s12.8 4.2 18.2 0.4l82.2-54.8 71.2 114c3 4.6 8 7.6 13.6 7.6s10.6-2.8 13.6-7.6l71.2-114 82.2 54.8c5.6 3.8 12.8 3.6 18.2-0.4s7.8-10.8 6-17.4l-64-225.4c-1.6-6.8-7.8-11.6-15-11.6zM412 320h200l48.8 172-59.8-40c-3.6-2.4-8-3.2-12.2-2.4-4.2 1-8 3.4-10.2 7.2l-66.6 106.4-66.4-106.2c-2.2-3.6-6-6.2-10.2-7.2s-8.6 0-12.2 2.4l-59.8 40z" />
<glyph unicode="&#xe916;" glyph-name="insurance-3" d="M823.793 852.166c-6.56 5.163-16.064 4.031-21.225-2.531s-4.029-16.064 2.531-21.225c89.243-70.227 149.003-167.652 171.397-276.053-24.909 25.022-59.366 40.528-97.379 40.528-44.663 0-84.413-21.412-109.545-54.498-3.174 46.434-10.78 101.962-29.038 158.736-31.606 98.282-87.022 174.849-165.115 228.393 61.16-8.224 120.299-28.279 173.748-59.199 7.225-4.18 16.471-1.711 20.653 5.516 4.18 7.225 1.711 16.471-5.516 20.653-76.353 44.169-163.599 67.514-252.302 67.514-134.779 0-261.49-52.486-356.797-147.791-95.305-95.307-147.791-222.019-147.791-356.797 0-8.347 6.767-15.115 15.115-15.115s15.115 6.767 15.115 15.115c0 59.133 48.117 107.242 107.264 107.242 59.135 0 107.244-48.109 107.244-107.242 0-8.347 6.767-15.115 15.115-15.115s15.115 6.767 15.115 15.115c0 59.133 48.119 107.242 107.264 107.242 31.834 0 60.457-13.958 80.116-36.056v-471.29c0-17.61-14.317-31.936-31.936-31.936-17.598 0-31.914 14.327-31.914 31.936v13.369c0 54.624-84.485 55.662-84.485 0.715v-16.981c0-64.189 52.222-116.411 116.411-116.411s116.409 52.222 116.409 116.411v474.18c19.663 22.104 48.294 36.062 80.138 36.062 59.133 0 107.242-48.109 107.242-107.242 0-8.347 6.767-15.115 15.115-15.115s15.115 6.767 15.115 15.115c0 59.133 48.119 107.242 107.266 107.242 59.133 0 107.242-48.109 107.242-107.242 0-8.347 6.767-15.115 15.115-15.115s15.115 6.767 15.115 15.115c0 155.726-70.273 300.335-192.797 396.755zM499.988 446.266c2.761-3.621 7.108-5.967 12.013-5.967s9.252 2.348 12.013 5.967v-312.928h-24.026zM389.643 592.882c-41.719 0-79.155-18.68-104.392-48.107 3.069 38.75 9.421 83.312 22.601 128.725 2.328 8.017-2.285 16.402-10.302 18.728-8.017 2.328-16.402-2.285-18.728-10.302-14.899-51.336-21.473-101.276-24.375-143.557-25.127 33.095-64.876 54.514-109.541 54.514-37.962 0-72.379-15.459-97.282-40.417 40.691 194.937 201.41 346.34 401.045 373.091-63.042-43.246-111.458-101.619-144.349-174.2-3.444-7.604-0.075-16.56 7.529-20.006 2.023-0.917 4.143-1.35 6.229-1.35 5.752 0 11.247 3.301 13.777 8.879 35.739 78.87 91.198 139.664 165.032 181.040v-378.536c-24.845 32.575-66.692 51.499-107.244 51.499zM524.014 52.409c0-47.521-38.661-86.182-86.182-86.182s-86.18 38.661-86.18 86.182v16.981c0 15.818 24.026 15.447 24.026-0.715v-13.369c0-34.278 27.878-62.166 62.166-62.166 34.266 0 62.144 27.888 62.144 62.166v47.801h24.026zM634.38 592.882c-40.532 0-82.425-18.924-107.266-51.495v378.554c164.097-91.831 202.654-258.983 211.714-375.255-25.231 29.48-62.694 48.196-104.449 48.196zM195.092 163.845c8.347 0 15.115 6.767 15.115 15.115v12.42c22.219 4.581 41.94 23.611 40.753 47.44-1.167 23.406-20.84 36.41-40.753 43.947v30.173c6.965-2.7 11.646-6.374 11.894-6.574 6.388-5.302 15.87-4.458 21.221 1.906 5.371 6.39 4.544 15.925-1.846 21.296-0.774 0.651-13.18 10.883-31.271 14.881v12.733c0 8.347-6.767 15.115-15.115 15.115s-15.115-6.767-15.115-15.115v-13.291c-18.325-4.946-32.656-20.157-33.549-39.526-1.066-23.079 14.702-34.304 33.549-42.12v-38.301c-5.613 2.348-10.613 5.768-14.498 10.056-5.605 6.185-15.163 6.657-21.35 1.050-6.185-5.607-6.657-15.163-1.050-21.35 9.488-10.471 22.585-17.93 36.898-21.4v-13.345c0.002-8.343 6.769-15.111 15.117-15.111zM220.628 235.124c-0.945-5.302-5.834-9.849-10.421-12.088 0 8.988 0 17.974 0 26.963 5.103-2.773 11.632-8.097 10.421-14.875zM179.895 295.135c-5.111 4.037-4.067 11.32 0.083 15.415 0-2.17-1.034-14.998-0.083-15.415zM314.466 190.683c-6.479 5.262-16.001 4.276-21.261-2.201-24.129-29.703-59.89-46.739-98.112-46.739-69.659 0-126.331 56.672-126.331 126.331s56.672 126.331 126.331 126.331 126.331-56.672 126.331-126.331c0-6.614-0.514-13.255-1.53-19.736-1.292-8.247 4.347-15.979 12.594-17.271 8.245-1.288 15.979 4.347 17.271 12.594 1.258 8.025 1.894 16.239 1.894 24.413 0 86.327-70.233 156.56-156.56 156.56s-156.56-70.233-156.56-156.56 70.233-156.56 156.56-156.56c47.367 0 91.68 21.106 121.574 57.907 5.264 6.479 4.276 15.997-2.201 21.261zM863.853 405.613h-124.077c-33.222 0-60.249-27.027-60.249-60.249v-154.585c0-33.222 27.029-60.249 60.249-60.249h124.077c33.222 0 60.249 27.029 60.249 60.249v154.585c0 33.222-27.027 60.249-60.249 60.249zM893.873 190.781c0-16.554-13.468-30.020-30.020-30.020h-124.077c-16.554 0-30.020 13.468-30.020 30.020v154.585c0 16.554 13.468 30.020 30.020 30.020h124.077c16.554 0 30.020-13.466 30.020-30.020zM758.407 298.176h58.389c8.347 0 15.115 6.767 15.115 15.115s-6.767 15.115-15.115 15.115h-58.389c-8.347 0-15.115-6.767-15.115-15.115s6.767-15.115 15.115-15.115zM844.002 266.943h-85.598c-8.347 0-15.115-6.767-15.115-15.115s6.767-15.115 15.115-15.115h85.598c8.347 0 15.115 6.767 15.115 15.115s-6.767 15.115-15.115 15.115z" />
<glyph unicode="&#xe917;" glyph-name="pdf-file" d="M301.64 301.19c0 17.006-11.8 27.147-32.62 27.147-8.502 0-14.26-0.839-17.271-1.642v-54.562c3.566-0.803 7.95-1.070 13.992-1.070 22.192 0 35.9 11.212 35.9 30.127zM430.526 327.766c-9.324 0-15.349-0.805-18.913-1.64v-120.839c3.566-0.837 9.324-0.837 14.529-0.837 37.824-0.268 62.493 20.553 62.493 64.67 0.268 38.363-22.211 58.646-58.109 58.646zM669.99 960h-411.28c-60.084 0-108.986-48.936-108.986-108.986v-403.012h-10.645c-24.25 0-43.917-19.648-43.917-43.919v-266.341c0-24.269 19.665-43.915 43.917-43.915h10.645v-48.838c0-60.116 48.902-108.986 108.986-108.986h561.174c60.046 0 108.954 48.872 108.954 108.986v657.071l-258.848 257.941zM210.375 356.018c12.871 2.175 30.962 3.814 56.45 3.814 25.758 0 44.117-4.917 56.452-14.793 11.783-9.307 19.735-24.669 19.735-42.747 0-18.074-6.025-33.44-16.989-43.849-14.26-13.423-35.347-19.448-60.016-19.448-5.49 0-10.411 0.272-14.26 0.805v-66.044h-41.373v182.262zM819.884 2.747h-561.174c-23.265 0-42.21 18.945-42.21 42.242v48.838h523.129c24.255 0 43.919 19.646 43.919 43.915v266.341c0 24.272-19.665 43.919-43.919 43.919h-523.129v403.012c0 23.231 18.947 42.176 42.21 42.176l386.31 0.404v-142.794c0-41.708 33.842-75.582 75.582-75.582l139.882 0.401 1.574-630.628c0-23.299-18.911-42.244-42.174-42.244zM369.69 174.593v181.425c15.345 2.442 35.345 3.814 56.452 3.814 35.078 0 57.824-6.293 75.648-19.714 19.181-14.26 31.229-36.989 31.229-69.622 0-35.347-12.871-59.751-30.696-74.811-19.448-16.167-49.053-23.834-85.22-23.834-21.659 0-37.004 1.372-47.413 2.742zM668.788 282.007v-33.973h-66.328v-74.278h-41.925v184.704h112.905v-34.241h-70.98v-42.212h66.328z" />
<glyph unicode="&#xe918;" glyph-name="close" d="M137.344 777.344c-5.798 5.798-9.384 13.808-9.384 22.656 0 17.695 14.345 32.040 32.040 32.040 8.848 0 16.858-3.586 22.656-9.384v0l329.344-329.408 329.344 329.408c5.798 5.798 13.808 9.384 22.656 9.384 17.695 0 32.040-14.345 32.040-32.040 0-8.848-3.586-16.858-9.384-22.656v0l-329.408-329.344 329.408-329.344c5.798-5.798 9.384-13.808 9.384-22.656 0-17.695-14.345-32.040-32.040-32.040-8.848 0-16.858 3.586-22.656 9.384v0l-329.344 329.408-329.344-329.408c-5.798-5.798-13.808-9.384-22.656-9.384-17.695 0-32.040 14.345-32.040 32.040 0 8.848 3.586 16.858 9.384 22.656v0l329.408 329.344z" />
<glyph unicode="&#xe919;" glyph-name="plus" d="M544 832v-352h352v-64h-352v-352h-64v352h-352v64h352v352z" />
<glyph unicode="&#xe91a;" glyph-name="phone-ringing" d="M333.922 267.508c83.541-83.409 175.035-158.901 273.232-225.224l6.557-4.175c34.928-23.605 77.98-37.682 124.321-37.682 61.446 0 117.112 24.75 157.572 64.824l-0.018-0.017 32.227 32.234c19.762 19.94 31.972 47.391 31.972 77.695s-12.211 57.756-31.982 77.704l-79.647 79.648c-20.134 19.619-47.676 31.719-78.044 31.719-34.612 0-65.553-15.718-86.073-40.406l-0.148-0.183c-7.269-7.346-17.352-11.894-28.498-11.894-7.97 0-15.397 2.326-21.639 6.336l0.159-0.096c-102.279 65.31-186.596 149.662-249.924 248.726l-1.943 3.25c-3.841 6.019-6.122 13.357-6.122 21.228 0 11.152 4.579 21.234 11.959 28.469l0.007 0.006c24.901 20.642 40.644 51.581 40.644 86.197 0 30.387-12.131 57.941-31.815 78.082l-79.633 79.643c-19.899 19.855-47.365 32.133-77.699 32.133s-57.801-12.278-77.701-32.135l-32.24-32.247c-40.319-40.239-65.262-95.87-65.262-157.328 0-45.39 13.606-87.603 36.962-122.782l-0.512 0.82c71.481-106.608 148.268-199.674 233.263-284.521l0.026-0.026zM152.070 808.719c23.61 23.621 50.638 57.457 87.322 55.013 0.044 0 0.096 0 0.148 0 21.451 0 40.87-8.7 54.921-22.763l79.657-79.665c13.881-14.367 22.434-33.958 22.434-55.547 0-25.77-12.187-48.694-31.112-63.322l-0.185-0.137c-13.2-13.012-21.377-31.089-21.377-51.075 0-14.22 4.139-27.473 11.278-38.62l-0.172 0.287c67.853-106.363 155.508-194.053 258.464-259.927l3.372-2.018c10.926-7.059 24.276-11.256 38.607-11.256 19.983 0 38.060 8.159 51.082 21.327l0.007 0.007c15.265 18.746 38.099 30.822 63.773 31.536l0.118 0.003c0.11 0.001 0.241 0.001 0.372 0.001 21.381 0 40.739-8.664 54.753-22.673l79.656-79.656c14.091-14.018 22.812-33.422 22.812-54.864 0-0.072 0-0.145 0-0.217v0.011c2.535-36.631-31.845-64.117-55.041-87.304-34.638-34.279-82.3-55.457-134.907-55.457-39.73 0-76.638 12.078-107.254 32.764l0.679-0.432c-201.054 135.595-368.888 303.701-500.063 498.538l-4.124 6.502c-19.511 29.378-31.131 65.464-31.131 104.264 0 52.619 21.371 100.247 55.907 134.676l0.005 0.005zM517.453 850.312c213.427 4.457 401.532-183.667 397.083-397.080 0.149-8.724 7.256-15.739 16.001-15.739 8.747 0 15.855 7.017 16.001 15.729v0.014c4.794 230.595-198.419 433.85-429.027 429.073-8.748-0.116-15.794-7.235-15.794-15.999 0-8.743 7.013-15.849 15.721-15.998h0.014zM501.484 603.453c0-8.836 7.164-16 16-16v0c73.966-0.368 133.828-60.23 134.194-134.161v-0.035c0-8.837 7.164-16 16.001-16s16.001 7.164 16.001 16.001c0 0 0 0 0 0.001v0c-0.012 91.783-74.413 166.184-166.195 166.195h-0.001c-8.836 0-16-7.164-16-16v0zM783.109 453.242c0.134-8.735 7.246-15.764 16-15.764s15.867 7.030 16 15.752v0.013c3.303 159.99-137.645 300.944-297.643 297.637-8.702-0.176-15.688-7.271-15.688-15.999s6.988-15.825 15.675-15.998h0.016c146.425-0.704 264.936-119.216 265.639-265.573v-0.067z" />
<glyph unicode="&#xe91b;" glyph-name="chat" d="M911.36 864h-798.72c-44.48 0-80.64-36.16-80.64-80.64v-724.48c0-23.040 27.2-35.2 44.48-20.16l188.8 165.12c14.72 13.12 33.6 20.16 53.12 20.16h592.96c44.48 0 80.64 35.84 80.64 80.32v479.040c0 44.48-36.16 80.64-80.64 80.64zM576 384h-288c-17.6 0-32 14.4-32 32s14.4 32 32 32h288c17.6 0 32-14.4 32-32s-14.4-32-32-32zM736 512h-448c-17.6 0-32 14.4-32 32s14.4 32 32 32h448c17.6 0 32-14.4 32-32s-14.4-32-32-32zM736 640h-448c-17.6 0-32 14.4-32 32s14.4 32 32 32h448c17.6 0 32-14.4 32-32s-14.4-32-32-32z" />
<glyph unicode="&#xe91c;" glyph-name="quote" d="M411.296 653.248h16v135.008h-16c-179.355-0.255-324.678-145.6-324.896-324.939v-355.541h371.488v371.52h-235.904c8.65 97.742 90.076 173.828 189.299 173.952h0.013zM425.888 447.264v-307.52h-307.488v323.552c0.189 156.093 122.279 283.61 276.176 292.476l0.784 0.036v-71.008c-115.45-8.723-205.838-104.471-205.984-221.362v-16.014zM701.792 479.296c8.634 97.756 90.066 173.859 189.299 173.984h16.013v134.976h-16c-179.39-0.2-324.76-145.57-324.96-324.941v-355.539h371.456v371.52zM905.6 139.744h-307.52v323.552c0.188 156.083 122.26 283.593 276.142 292.476l0.786 0.036v-71.008c-115.45-8.723-205.838-104.471-205.984-221.362v-16.014h236.576z" />
<glyph unicode="&#xe91d;" glyph-name="quote-2" d="M852.96 907.199h-681.92c-76.64 0-139.040-62.398-139.040-139.039v-482.559c0-76.641 62.4-139.041 139.040-139.041h72.479v-141.76c0-6.24 3.681-11.84 9.28-14.4 2.080-1.119 4.48-1.6 6.72-1.6 3.681 0 7.36 1.279 10.24 3.68l186.080 154.080h397.12c76.64 0 139.040 62.4 139.040 139.041v482.559c0 76.641-62.4 139.039-139.040 139.039zM960 285.602c0-59.041-48-107.041-107.040-107.041h-402.88c-3.68 0-7.36-1.279-10.24-3.682l-164.32-136v123.682c0 8.799-7.039 16-16 16h-88.479c-59.040 0-107.040 48-107.040 107.041v482.559c0 59.039 48 107.039 107.040 107.039h681.92c59.040 0 107.040-48 107.040-107.039zM468.64 716.961h-247.68c-8.8 0-16-7.201-16-16v-216.32c0-8.801 7.2-16 16-16h118.72l-72.479-72.48c-3.040-3.039-4.8-7.039-4.8-11.359 0-4.16 1.76-8.32 4.8-11.199l45.12-45.281c3.199-3.039 7.199-4.641 11.359-4.641s8.16 1.602 11.36 4.641l144.96 145.121c3.040 2.879 4.64 7.039 4.64 11.199v216.32c0 8.799-7.040 16-16 16zM803.040 716.961h-247.68c-8.96 0-16-7.201-16-16v-216.32c0-8.801 7.040-16 16-16h118.56l-72.479-72.48c-3.040-3.039-4.641-7.039-4.641-11.359 0-4.16 1.601-8.32 4.641-11.199l45.119-45.281c3.2-3.039 7.2-4.641 11.36-4.641s8.16 1.602 11.36 4.641l144.96 145.121c3.040 2.879 4.8 7.039 4.8 11.199v216.32c0 8.799-7.2 16-16 16z" />
<glyph unicode="&#xe91e;" glyph-name="arrow-up-right" d="M896 800c0 17.673-14.327 32-32 32v0h-384c-17.673 0-32-14.327-32-32s14.327-32 32-32v0h306.752l-649.408-649.344c-5.798-5.798-9.384-13.808-9.384-22.656 0-17.695 14.345-32.040 32.040-32.040 8.848 0 16.858 3.586 22.656 9.384v0l649.344 649.408v-306.752c0-17.673 14.327-32 32-32s32 14.327 32 32v0z" />
<glyph unicode="&#xe91f;" glyph-name="up-left-arrow" d="M768 746.667h-554.667v-554.667h170.667v263.317l341.333-341.333 120.678 120.678-341.333 341.338h263.322z" />
<glyph unicode="&#xe920;" glyph-name="up-left-arrow-2" d="M790.613 169.387c-5.78-5.803-13.777-9.394-22.613-9.394s-16.833 3.591-22.612 9.393l-500.054 500.012v-349.397c0-17.673-14.327-32-32-32s-32 14.327-32 32v0 426.667c0.072 17.644 14.356 31.928 31.993 32h426.674c17.673 0 32-14.327 32-32s-14.327-32-32-32v0h-349.397l500.011-500.053c5.793-5.785 9.376-13.781 9.376-22.613s-3.583-16.829-9.376-22.613v0z" />
<glyph unicode="&#xe921;" glyph-name="download" d="M765.123 493.248c-5.181 11.456-16.573 18.752-29.117 18.752h-128v416c0 17.664-14.336 32-32 32h-128.001c-17.664 0-32-14.336-32-32v-416h-128c-12.544 0-23.936-7.36-29.12-18.752-5.248-11.456-3.2-24.832 5.056-34.304l224-256.003c6.080-6.973 14.848-10.941 24.065-10.941s17.981 4.029 24.064 10.941l224 256.003c8.32 9.408 10.24 22.848 5.053 34.304zM864 256v-192h-704v192h-128v-256c0-35.389 28.672-64 64-64h832c35.389 0 64 28.611 64 64v256h-128z" />
<glyph unicode="&#xe922;" glyph-name="play" d="M967.334 682.345c-35.856 69.541-88.146 130.947-151.209 177.583-9.256 6.842-22.3 4.887-29.146-4.366s-4.887-22.3 4.366-29.146c57.955-42.857 106-99.28 138.949-163.174 34.522-66.95 52.026-139.366 52.026-215.245 0-259.335-210.987-470.322-470.322-470.322s-470.322 210.987-470.322 470.325 210.987 470.322 470.322 470.322c11.506 0 20.838 9.332 20.838 20.838s-9.332 20.838-20.838 20.838c-282.316 0-511.998-229.682-511.998-511.998s229.682-511.998 511.998-511.998 511.998 229.682 511.998 511.998c0 81.422-19.591 162.455-56.663 234.343zM380.988 685.738c-6.515-3.706-10.541-10.624-10.541-18.115v-457.308c0-11.51 9.332-20.838 20.838-20.838s20.838 9.329 20.838 20.838v420.651l308.52-183.664-226.873-146.17c-9.672-6.234-12.465-19.129-6.231-28.802 6.238-9.676 19.129-12.468 28.805-6.231l255.147 164.389c6.064 3.907 9.676 10.673 9.547 17.886s-3.977 13.847-10.176 17.539l-368.92 219.617c-6.446 3.831-14.441 3.914-20.956 0.208z" />
<glyph unicode="&#xe923;" glyph-name="autonomous-car" d="M61.149-26.182h901.702c10.875 0 19.692 8.817 19.692 19.692s-8.817 19.692-19.692 19.692h-29.172c2.041 5.712 3.355 11.77 3.355 18.173 0 90.273 0 140.877 0 252.25 0 47.933-26.671 89.727-65.93 111.404h55.392c10.875 0 19.692 8.817 19.692 19.692v41.74c0 10.875-8.817 19.692-19.692 19.692s-19.692-8.817-19.692-19.692v-22.048h-64.463l-39.806 88.904c-27.577 61.606-90.788 101.413-161.038 101.413h-239.558c-70.25 0-133.462-39.808-161.038-101.413l-39.806-88.904h-64.463v22.048c0 10.875-8.817 19.692-19.692 19.692s-19.692-8.817-19.692-19.692v-41.74c0-10.875 8.817-19.692 19.692-19.692h55.392c-39.26-21.677-65.93-63.471-65.93-111.404-0.004-24.921 0.014 91.781-0.038-252.25 0-6.403 1.314-12.462 3.355-18.173h-48.566c-10.875 0-19.692-8.817-19.692-19.692s8.817-19.692 19.692-19.692zM782.505 108.203h115.144v-76.827c0-8.289-6.75-15.029-15.038-15.029h-85.067c-8.433 0-15.038 6.606-15.038 15.029zM652.85 371.434l-13.605-57.76c-7-21.788-25-34.288-49.404-34.288h-141.067c-24.394 0-42.394 12.5-48.981 32.798l-14.008 59.25zM276.841 507.222c20.923 46.731 71.192 78.125 125.096 78.125h239.558c53.904 0 104.173-31.394 125.096-78.125l43.067-96.192h-575.885zM233.582 371.434h111.75l16.548-69.798c12.212-38.019 45.5-61.635 86.894-61.635h141.067c41.394 0 74.692 23.615 87.317 63.125l16.145 68.308h116.547c48.413 0 87.798-39.394 87.798-87.808v-135.981c1.983-0.005-216.32-0.050-751.865 0v135.981c0 48.413 39.385 87.808 87.798 87.808zM145.745 108.203h115.144v-76.827c0-8.423-6.606-15.029-15.029-15.029h-85.077c-8.288 0-15.038 6.74-15.038 15.029zM300.274 31.376v76.827h442.846v-76.827c0-6.403 1.314-12.462 3.355-18.173h-449.555c2.041 5.712 3.355 11.77 3.355 18.173zM256.274 197.895c34.788 0 63.096 28.308 63.096 63.096s-28.308 63.096-63.096 63.096-63.096-28.308-63.096-63.096 28.308-63.096 63.096-63.096zM256.274 284.703c13.077 0 23.712-10.635 23.712-23.712s-10.635-23.712-23.712-23.712-23.712 10.635-23.712 23.712 10.635 23.712 23.712 23.712zM787.12 197.895c34.788 0 63.096 28.308 63.096 63.096s-28.308 63.096-63.096 63.096-63.096-28.308-63.096-63.096 28.308-63.096 63.096-63.096zM787.12 284.703c13.077 0 23.712-10.635 23.712-23.712s-10.635-23.712-23.712-23.712-23.712 10.635-23.712 23.712 10.635 23.712 23.712 23.712zM368.659 818.28c82.806 84.082 219.949 87.421 306.317 2.385 7.75-7.635 20.231-7.548 27.846 0.212 7.635 7.75 7.538 20.221-0.212 27.846-100.587 99.029-262.99 97.779-362.010-2.808-7.635-7.75-7.538-20.221 0.212-27.846 7.76-7.643 20.24-7.528 27.846 0.212zM647.303 753.357c7.625 7.75 7.529 20.221-0.221 27.856-69.721 68.606-182.317 67.75-250.942-1.962-7.635-7.75-7.538-20.221 0.212-27.846 7.76-7.643 20.24-7.528 27.846 0.212 53.413 54.25 141 54.933 195.25 1.519 7.75-7.606 20.231-7.538 27.856 0.221zM451.678 713.241c-7.635-7.75-7.538-20.221 0.212-27.846 7.76-7.643 20.24-7.528 27.846 0.212 23.029 23.385 60.779 23.673 84.173 0.654 7.74-7.635 20.221-7.538 27.846 0.212 7.635 7.75 7.538 20.221-0.212 27.846-38.856 38.25-101.587 37.779-139.865-1.077z" />
<glyph unicode="&#xe924;" glyph-name="bank-building" d="M977.028 29.313h-930.491c-25.708 0-46.537-20.828-46.537-46.558 0-25.687 20.828-46.515 46.537-46.515h930.469c25.708 0 46.537 20.828 46.537 46.515-0.022 25.73-20.85 46.558-46.515 46.558zM104.685 150.295c-25.708 0-46.537-20.828-46.537-46.537s20.828-46.558 46.537-46.558h814.172c25.708 0 46.537 20.85 46.537 46.558s-20.828 46.537-46.537 46.537h-11.612v418.742h11.612c12.876 0 23.246 10.414 23.246 23.246s-10.414 23.246-23.246 23.246h-814.172c-12.854 0-23.246-10.414-23.246-23.246s10.414-23.246 23.246-23.246h11.634v-418.72h-11.634zM814.172 569.036v-418.72h-139.566v418.72h139.566zM581.532 569.036v-418.72h-139.566v418.72h139.566zM209.349 569.036h139.566v-418.72h-139.566v418.72zM46.537 657.36h930.469c0.153 0 0.327 0 0.458 0 25.73 0 46.537 20.828 46.537 46.537 0 20.436-13.159 37.756-31.438 44.031l-461.662 207.737c-12.135 5.447-26.013 5.447-38.17 0l-465.278-209.349c-20.022-9.020-31.024-30.763-26.406-52.201 4.597-21.438 23.551-36.754 45.491-36.754z" />
<glyph unicode="&#xe925;" glyph-name="growth" d="M80 224h112c8.837 0 16-7.163 16-16v-160c0-8.837-7.163-16-16-16h-112c-8.837 0-16 7.163-16 16v160c0 8.837 7.163 16 16 16zM336 304h112c8.837 0 16-7.163 16-16v-240c0-8.837-7.163-16-16-16h-112c-8.837 0-16 7.163-16 16v240c0 8.837 7.163 16 16 16zM592 400h112c8.837 0 16-7.163 16-16v-336c0-8.837-7.163-16-16-16h-112c-8.837 0-16 7.163-16 16v336c0 8.837 7.163 16 16 16zM832 560h112c8.837 0 16-7.163 16-16v-496c0-8.837-7.163-16-16-16h-112c-8.837 0-16 7.163-16 16v496c0 8.837 7.163 16 16 16zM961.76 872.8l-193.76-8.8c-8.466-0.461-15.156-7.438-15.156-15.978 0-4.373 1.754-8.336 4.598-11.224l40.958-40.958c-79.865-79.131-166.002-152.273-257.477-218.494l-6.363-4.386c-171.040-124.96-470.56-188.96-473.92-188.96-8.33-0.644-14.845-7.561-14.845-16 0-8.861 7.184-16.045 16.045-16.045 0.422 0 0.841 0.016 1.255 0.048l-0.055-0.003c144-8.8 353.76 22.56 504.16 97.76 128.027 63.038 236.207 147.334 324.343 249.42l1.097 1.3 49.44-49.44c2.901-2.932 6.926-4.748 11.375-4.748 8.593 0 15.604 6.774 15.984 15.274l0.001 0.034 9.12 194.56c0.009 0.197 0.014 0.428 0.014 0.661 0 8.837-7.163 16-16 16-0.286 0-0.571-0.008-0.853-0.022l0.040 0.002z" />
<glyph unicode="&#xe926;" glyph-name="trophy" d="M993.996 891.276h-104.926c0.524 12.858 0.8 25.77 0.8 38.724 0 16.568-13.432 30-30 30h-695.738c-16.568 0-30-13.432-30-30 0-12.954 0.274-25.868 0.8-38.724h-104.928c-16.568 0-30-13.432-30-30v-64.482c0-176.714 127.684-324.156 295.638-354.944 14.386-15.72 29.5-29.894 45.26-42.372 51.77-40.99 81.462-101.418 81.462-165.788v-117.69h-114.004c-16.568 0-30-13.432-30-30v-90h-30c-16.568 0-30-13.432-30-30s13.432-30 30-30h527.286c16.568 0 30 13.432 30 30s-13.432 30-30 30h-30v90c0 16.568-13.432 30-30 30h-114.006v117.69c0 64.372 29.692 124.798 81.462 165.79 15.758 12.478 30.872 26.652 45.258 42.37 167.954 30.788 295.638 178.23 295.638 354.944v64.482c-0.002 16.568-13.432 30-30.002 30zM60.004 796.794v34.482h79.306c8.038-76.154 25.342-149.156 51.214-214.95 13.18-33.518 28.384-64.688 45.328-93.164-103.666 47.552-175.848 152.316-175.848 273.632zM963.996 796.794c0-121.318-72.182-226.082-175.848-273.634 16.946 28.476 32.15 59.646 45.33 93.164 25.87 65.794 43.174 138.796 51.212 214.95h79.304v-34.48z" />
<glyph unicode="&#xe927;" glyph-name="wifi-signal" d="M478.4 522.4l-128.8-478.4h324l-128.8 478.4c-21.6-6.4-44.8-6.4-66.4 0zM828.8 943.2c-11.2 11.2-28.8 11.2-39.2 0s-10.4-28.8 0-39.2c73.6-73.6 114.4-172 114.4-276.8s-40.8-203.2-114.4-276.8c-10.4-11.2-10.4-28.8 0-39.2 4.8-5.6 12-8 19.2-8s13.6 3.2 20 8c84 84 130.4 196.8 130.4 316s-46.4 232-130.4 316zM120 628c0 104.8 40.8 203.2 114.4 276.8 11.2 11.2 11.2 28.8 0 39.2-11.2 11.2-28.8 11.2-39.2 0-84-84-130.4-196.8-130.4-316 0-120 46.4-232 131.2-316.8 4.8-5.6 12-8 19.2-8s14.4 3.2 19.2 8.8c11.2 11.2 11.2 28.8 0 39.2-73.6 73.6-114.4 172-114.4 276.8zM752 868c-11.2 11.2-28.8 11.2-39.2 0s-10.4-28.8 0-39.2c53.6-53.6 83.2-124.8 83.2-200.8s-29.6-147.2-83.2-200.8c-10.4-11.2-10.4-28.8 0-39.2 4.8-5.6 12-8 19.2-8s14.4 3.2 20 9.6c64 63.2 99.2 148.8 99.2 239.2s-35.2 175.2-99.2 239.2zM312 425.6c-53.6 53.6-83.2 124.8-83.2 200.8s29.6 147.2 83.2 200.8c10.4 11.2 10.4 28.8 0 39.2-11.2 11.2-28.8 11.2-39.2 0-64-63.2-99.2-148.8-99.2-239.2s35.2-175.2 99.2-239.2c4.8-5.6 12-8 19.2-8s14.4 3.2 20 6.4c10.4 11.2 10.4 28.8 0 39.2zM636 464.8c4.8-5.6 12-8 19.2-8s14.4 2.4 20 8.8c89.6 89.6 89.6 236 0 325.6-11.2 11.2-28.8 11.2-39.2 0s-10.4-28.8 0-39.2c68-68.8 68-180 0-248-10.4-11.2-10.4-28.8 0-39.2zM349.6 464.8c4.8-5.6 12-8 19.2-8s14.4 2.4 19.2 8c10.4 11.2 10.4 28.8 0 39.2-68 68-68 179.2 0.8 247.2 10.4 11.2 10.4 28.8 0 39.2-11.2 11.2-28.8 11.2-39.2 0-89.6-89.6-89.6-236 0-325.6zM606.4 628c0-52.136-42.264-94.4-94.4-94.4s-94.4 42.264-94.4 94.4c0 52.136 42.264 94.4 94.4 94.4s94.4-42.264 94.4-94.4zM680 28h-335.2c-21.6 0-39.2-17.6-39.2-39.2v-44.8h412.8v44.8c0 21.6-17.6 39.2-38.4 39.2z" />
<glyph unicode="&#xe928;" glyph-name="quote-3" d="M947.839 428.131v-275.184c0-13.923 1.287-28.548-0.468-42.354 0.468 3.159 0.819 6.201 1.287 9.36-0.585-3.627-1.521-7.137-2.925-10.53l3.51 8.424c-1.053-2.34-2.106-4.68-3.51-6.786-2.106-3.393-4.212-3.159 1.872 2.223-0.936-0.819-1.638-1.872-2.574-2.808-0.234-0.234-2.691-2.691-2.808-2.574-0.234 0.234 8.424 5.616 2.808 2.34-2.457-1.404-4.797-2.808-7.371-3.978l8.424 3.51c-3.393-1.404-6.903-2.34-10.53-2.925 3.159 0.468 6.201 0.819 9.36 1.287-11.817-1.521-24.219-0.468-36.036-0.468h-245.349c-14.040 0-28.782-1.287-42.822 0.468 3.159-0.468 6.201-0.819 9.36-1.287-3.627 0.585-7.137 1.521-10.53 2.925l8.424-3.51c-2.34 1.053-4.68 2.106-6.786 3.51-3.393 2.106-3.159 4.212 2.223-1.872-0.819 0.936-1.872 1.638-2.808 2.574-0.234 0.234-2.691 2.691-2.574 2.808 0.234 0.234 5.616-8.424 2.34-2.808-1.404 2.457-2.808 4.797-3.978 7.371l3.51-8.424c-1.404 3.393-2.34 6.903-2.925 10.53 0.468-3.159 0.819-6.201 1.287-9.36-0.702 5.733-0.468 11.583-0.468 17.316v379.431c0 18.252-0.585 36.621 0.351 54.873 0.351 7.605 1.17 15.093 2.106 22.581-0.468-3.159-0.819-6.201-1.287-9.36 3.276 23.985 9.711 47.385 19.071 69.732l-3.51-8.424c5.382 12.519 11.583 24.804 18.603 36.387 3.627 5.85 7.371 11.7 11.466 17.316 0.936 1.287 1.755 2.457 2.691 3.744 0.117 0.234 1.404 2.223 1.872 2.457 0.585 0.234-5.265-6.669-3.159-4.095 2.223 2.808 4.446 5.616 6.786 8.307 8.775 10.296 18.252 20.007 28.431 28.899 2.457 2.223 5.031 4.329 7.605 6.435 1.17 0.936 2.34 1.872 3.627 2.925 5.499 4.446-6.903-5.148-1.053-0.819 5.382 3.978 10.764 7.722 16.38 11.349 13.221 8.424 27.144 15.795 41.652 21.879l-8.424-3.51c22.347 9.36 45.747 15.678 69.732 19.071-3.159-0.468-6.201-0.819-9.36-1.287 12.402 1.638 24.804 2.457 37.323 2.457l-35.1 35.1v-161.46l35.1 35.1c-57.681-0.468-113.373-34.632-136.305-88.218-9.009-20.943-13.455-42.354-13.455-65.286v-71.136c0-18.954 16.029-35.1 35.1-35.1h172.341c9.36 0 19.071 0.702 28.314-0.468-3.159 0.468-6.201 0.819-9.36 1.287 3.627-0.585 7.137-1.521 10.53-2.925l-8.424 3.51c2.34-1.053 4.68-2.106 6.786-3.51 3.393-2.106 3.159-4.212-2.223 1.872 0.819-0.936 1.872-1.638 2.808-2.574 0.234-0.234 2.691-2.691 2.574-2.808-0.234-0.234-5.616 8.424-2.34 2.808 1.404-2.457 2.808-4.797 3.978-7.371l-3.51 8.424c1.404-3.393 2.34-6.903 2.925-10.53-0.468 3.159-0.819 6.201-1.287 9.36 0.468-1.872 0.702-4.095 0.702-6.201 0.351-18.369 15.912-35.919 35.1-35.1 18.72 0.819 35.451 15.444 35.1 35.1-0.819 43.992-36.036 79.092-80.028 79.56-11.115 0.117-22.113 0-33.228 0h-160.524l35.1-35.1v42.12c0 15.912-0.936 32.175 1.053 47.97-0.468-3.159-0.819-6.201-1.287-9.36 1.404 9.828 3.978 19.305 7.605 28.548l-3.51-8.424c2.808 6.669 6.201 13.104 10.179 19.188 0.936 1.521 1.989 2.925 3.042 4.446 3.861 5.616-5.499-6.552-1.053-1.404 2.34 2.691 4.68 5.382 7.254 7.956s5.265 4.914 7.956 7.254c4.68 4.095-6.903-4.797-1.404-1.053 1.521 1.053 2.925 2.106 4.446 3.042 6.084 3.978 12.519 7.371 19.188 10.179l-8.424-3.51c9.243 3.744 18.72 6.318 28.548 7.605-3.159-0.468-6.201-0.819-9.36-1.287 5.031 0.585 10.179 0.936 15.21 1.053 18.954 0.117 35.1 15.912 35.1 35.1v161.46c0 18.954-16.029 35.1-35.1 35.1-50.31-0.117-99.801-12.402-144.495-35.568-43.29-22.464-79.794-55.575-108.459-94.653-27.144-36.855-45.864-81.315-53.352-126.477-3.627-22.347-4.914-44.46-4.914-67.041v-397.8c0-15.561-1.053-31.824 4.563-46.566 12.168-31.707 40.716-52.767 74.997-53.235h263.133c15.561 0 31.122-0.117 46.8 0 22.347 0.117 45.279 8.892 60.021 26.091 13.572 15.795 20.709 34.632 20.709 55.458 0.117 46.917 0 93.834 0 140.751v168.363c0 18.369-16.146 35.919-35.1 35.1-18.837-0.585-34.866-15.21-34.866-34.866zM406.129 428.131v-275.184c0-13.923 1.287-28.548-0.468-42.354 0.468 3.159 0.819 6.201 1.287 9.36-0.585-3.627-1.521-7.137-2.925-10.53l3.51 8.424c-1.053-2.34-2.106-4.68-3.51-6.786-2.106-3.393-4.212-3.159 1.872 2.223-0.936-0.819-1.638-1.872-2.574-2.808-0.234-0.234-2.691-2.691-2.808-2.574-0.234 0.234 8.424 5.616 2.808 2.34-2.457-1.404-4.797-2.808-7.371-3.978l8.424 3.51c-3.393-1.404-6.903-2.34-10.53-2.925 3.159 0.468 6.201 0.819 9.36 1.287-11.817-1.521-24.219-0.468-36.036-0.468h-245.349c-14.040 0-28.782-1.287-42.822 0.468 3.159-0.468 6.201-0.819 9.36-1.287-3.627 0.585-7.137 1.521-10.53 2.925l8.424-3.51c-2.34 1.053-4.68 2.106-6.786 3.51-3.393 2.106-3.159 4.212 2.223-1.872-0.819 0.936-1.872 1.638-2.808 2.574-0.234 0.234-2.691 2.691-2.574 2.808 0.234 0.234 5.616-8.424 2.34-2.808-1.404 2.457-2.808 4.797-3.978 7.371l3.51-8.424c-1.404 3.393-2.34 6.903-2.925 10.53 0.468-3.159 0.819-6.201 1.287-9.36-0.702 5.733-0.468 11.583-0.468 17.316v379.431c0 18.252-0.585 36.621 0.351 54.873 0.351 7.605 1.17 15.093 2.106 22.581-0.468-3.159-0.819-6.201-1.287-9.36 3.276 23.985 9.711 47.385 19.071 69.732l-3.51-8.424c5.382 12.519 11.583 24.804 18.603 36.387 3.627 5.85 7.371 11.7 11.466 17.316 0.936 1.287 1.755 2.457 2.691 3.744 0.117 0.234 1.404 2.223 1.872 2.457 0.585 0.234-5.265-6.669-3.159-4.095 2.223 2.808 4.446 5.616 6.786 8.307 8.775 10.296 18.252 20.007 28.431 28.899 2.457 2.223 5.031 4.329 7.605 6.435 1.17 0.936 2.34 1.872 3.627 2.925 5.499 4.446-6.903-5.148-1.053-0.819 5.382 3.978 10.764 7.722 16.38 11.349 13.221 8.424 27.144 15.795 41.652 21.879l-8.424-3.51c22.347 9.36 45.747 15.678 69.732 19.071-3.159-0.468-6.201-0.819-9.36-1.287 12.402 1.638 24.804 2.457 37.323 2.457l-35.1 35.1v-161.46l35.1 35.1c-57.681-0.468-113.373-34.632-136.305-88.218-9.009-20.943-13.455-42.354-13.455-65.286v-71.136c0-18.954 16.029-35.1 35.1-35.1h172.341c9.36 0 19.071 0.702 28.314-0.468-3.159 0.468-6.201 0.819-9.36 1.287 3.627-0.585 7.137-1.521 10.53-2.925l-8.424 3.51c2.34-1.053 4.68-2.106 6.786-3.51 3.393-2.106 3.159-4.212-2.223 1.872 0.819-0.936 1.872-1.638 2.808-2.574 0.234-0.234 2.691-2.691 2.574-2.808-0.234-0.234-5.616 8.424-2.34 2.808 1.404-2.457 2.808-4.797 3.978-7.371l-3.51 8.424c1.404-3.393 2.34-6.903 2.925-10.53-0.468 3.159-0.819 6.201-1.287 9.36 0.468-1.872 0.702-4.095 0.702-6.201 0.351-18.369 15.912-35.919 35.1-35.1 18.72 0.819 35.451 15.444 35.1 35.1-0.819 43.992-36.036 79.092-80.028 79.56-11.115 0.117-22.113 0-33.228 0h-160.524l35.1-35.1v42.12c0 15.912-0.936 32.175 1.053 47.97-0.468-3.159-0.819-6.201-1.287-9.36 1.404 9.828 3.978 19.305 7.605 28.548l-3.51-8.424c2.808 6.669 6.201 13.104 10.179 19.188 0.936 1.521 1.989 2.925 3.042 4.446 3.861 5.616-5.499-6.552-1.053-1.404 2.34 2.691 4.68 5.382 7.254 7.956s5.265 4.914 7.956 7.254c4.68 4.095-6.903-4.797-1.404-1.053 1.521 1.053 2.925 2.106 4.446 3.042 6.084 3.978 12.519 7.371 19.188 10.179l-8.424-3.51c9.243 3.744 18.72 6.318 28.548 7.605-3.159-0.468-6.201-0.819-9.36-1.287 5.031 0.585 10.179 0.936 15.21 1.053 18.954 0.117 35.1 15.912 35.1 35.1v161.46c0 18.954-16.029 35.1-35.1 35.1-50.31-0.117-99.801-12.402-144.495-35.568-43.29-22.464-79.794-55.575-108.459-94.653-27.144-36.855-45.864-81.315-53.352-126.477-3.627-22.347-4.914-44.46-4.914-67.041v-397.8c0-15.561-1.053-31.824 4.563-46.566 12.168-31.707 40.716-52.767 74.997-53.235h263.133c15.561 0 31.122-0.117 46.8 0 22.347 0.117 45.279 8.892 60.021 26.091 13.572 15.795 20.709 34.632 20.709 55.458 0.117 46.917 0 93.834 0 140.751v168.363c0 18.369-16.146 35.919-35.1 35.1-18.837-0.585-34.866-15.21-34.866-34.866z" />
<glyph unicode="&#xe929;" glyph-name="apple" d="M709.061 960h7.284c5.846-72.215-21.718-126.173-55.218-165.248-32.87-38.805-77.88-76.441-150.679-70.731-4.856 71.18 22.753 121.137 56.207 160.122 31.026 36.332 87.908 68.662 142.406 75.857zM929.437 208.356v-2.023c-20.459-61.962-49.642-115.067-85.255-164.349-32.51-44.741-72.35-104.95-143.485-104.95-61.468 0-102.297 39.525-165.293 40.604-66.639 1.079-103.286-33.050-164.214-41.638h-20.774c-44.741 6.475-80.848 41.908-107.153 73.833-77.566 94.338-137.505 216.194-148.656 372.135v45.82c4.721 111.604 58.95 202.345 131.030 246.321 38.041 23.382 90.336 43.302 148.566 34.399 24.956-3.867 50.451-12.41 72.799-20.864 21.179-8.139 47.663-22.573 72.754-21.808 16.997 0.495 33.904 9.353 51.036 15.603 50.182 18.121 99.374 38.895 164.214 29.138 77.925-11.781 133.233-46.404 167.407-99.823-65.919-41.953-118.035-105.174-109.131-213.137 7.914-98.070 64.93-155.446 136.156-189.26z" />
<glyph unicode="&#xe92a;" glyph-name="cloud-computing" d="M804.166 554.957c-35.962 173.034-205.386 284.151-378.419 248.192-147.88-30.734-254.136-160.684-254.882-311.721 0-7.21 0.298-14.592 0.938-22.4-105.448-11.162-181.884-105.694-170.722-211.144 10.346-97.74 92.832-171.886 191.118-171.79h597.333c129.602 0.11 234.578 105.262 234.468 234.864-0.104 123.768-96.314 226.176-219.834 234z" />
<glyph unicode="&#xe92b;" glyph-name="coins" d="M752 658c-78.37 0-272 10.972-272 90v-120c0-85.8 227-90 272-90s272 4.2 272 90v120c0-79.028-193.63-90-272-90zM752 898c-45.088 0-272-4.336-272-90s226.912-90 272-90 272 4.336 272 90c0 85.664-226.912 90-272 90zM752 478c-78.37 0-272 10.972-272 90v-45.64c46.586-38.53 82.17-89.708 102.106-148.074 65.806-14.934 145.42-16.286 169.894-16.286 45 0 272 4.2 272 90v120c0-79.028-193.63-90-272-90zM752 298c-22.706 0-92.982 1.048-155.142 13.078 1.856-14.136 3.142-28.444 3.142-43.078 0-26.052-3.35-51.288-9.086-75.616 63.772-13.136 137.7-14.384 161.086-14.384 45 0 272 4.2 272 90v120c0-79.028-193.63-90-272-90zM752 118c-25.74 0-111.864 1.476-179.426 18.666-15.358-35.244-36.804-67.164-62.838-94.75 62.472-41.202 207.35-43.916 242.264-43.916 45 0 272 4.2 272 90v120c0-79.028-193.63-90-272-90zM270 538c-148.886 0-270-121.114-270-270s121.114-270 270-270 270 121.114 270 270-121.114 270-270 270zM300.792 123.42c-0.26-0.096-0.532-0.052-0.792-0.142v-35.278c0-16.582-13.418-30-30-30s-30 13.418-30 30v35.482c-19.758 6.676-38.69 19.344-54.874 38.638-10.664 12.686-9.024 31.612 3.692 42.246 12.686 10.634 31.67 8.964 42.246-3.692 15.878-18.868 33.926-26.484 49.19-20.888 11.806 4.308 19.746 15.646 19.746 28.214 0 16.552-13.448 30-30 30-49.628 0-90 40.372-90 90 0 35.372 19.996 69.84 60 84.17v35.83c0 16.582 13.418 30 30 30s30-13.418 30-30v-35.882c15.542-5.252 30.696-13.598 44.208-26.696 11.894-11.514 12.188-30.498 0.644-42.422-11.484-11.894-30.528-12.158-42.422-0.644-14.59 14.122-30.704 18.984-44.092 13.3-11.13-4.716-18.338-15.556-18.338-27.656 0-16.552 13.448-30 30-30 49.628 0 90-40.372 90-90 0-37.706-23.79-71.69-59.208-84.58z" />
<glyph unicode="&#xe92c;" glyph-name="back-2" d="M638.085 801.925c-8.674-8.684-14.038-20.676-14.038-33.92s5.364-25.236 14.038-33.921l158.015-158.079-158.080-158.080c-8.327-8.621-13.459-20.376-13.459-33.33 0-26.51 21.49-48 48-48 12.97 0 24.738 5.144 33.376 13.503l191.987 191.987c8.674 8.684 14.038 20.676 14.038 33.92s-5.364 25.236-14.038 33.921l-191.999 191.999c-8.687 8.693-20.692 14.070-33.952 14.070s-25.265-5.377-33.952-14.069v0zM912.005 576.005c0 26.51-21.49 48-48 48v0h-544c-150.221 0-272-121.779-272-272s121.779-272 272-272v0h352c26.51 0 48 21.49 48 48s-21.49 48-48 48v0h-352c-97.202 0-176 78.798-176 176s78.798 176 176 176v0h544c26.51 0 48 21.49 48 48v0z" />
<glyph unicode="&#xe92d;" glyph-name="search-2" d="M426.667 810.667c-153.045 0-277.333-124.288-277.333-277.333s124.288-277.333 277.333-277.333 277.333 124.288 277.333 277.333-124.288 277.333-277.333 277.333zM426.667 768c129.536 0 234.667-105.131 234.667-234.667s-105.131-234.667-234.667-234.667-234.667 105.131-234.667 234.667 105.131 234.667 234.667 234.667zM868.437 121.771l-245.717 245.675c-8.32 8.32-21.845 8.32-30.165 0s-8.32-21.845 0-30.165l245.675-245.717c8.363-8.32 21.845-8.32 30.208 0 8.32 8.363 8.32 21.845 0 30.208z" />
<glyph unicode="&#xe92e;" glyph-name="user-2" d="M651.31 425.13c81.299 47.413 135.963 135.684 135.963 236.088 0 150.605-122.576 273.182-273.182 273.182s-273.182-122.576-273.182-273.182c0-99.985 53.967-187.699 134.429-235.391-184.91-57.872-319.479-231.068-319.479-435.083 0-16.037 13.248-29.145 29.424-29.145h853.431c16.316 0 29.424 13.108 29.424 29.145 0 203.178-133.314 375.259-316.83 434.385z" />
<glyph unicode="&#xe92f;" glyph-name="envelope" d="M1004.6 578.4c7.8 6.2 19.4 0.4 19.4-9.4v-409c0-53-43-96-96-96h-832c-53 0-96 43-96 96v408.8c0 10 11.4 15.6 19.4 9.4 44.8-34.8 104.2-79 308.2-227.2 42.2-30.8 113.4-95.6 184.4-95.2 71.4-0.6 144 65.6 184.6 95.2 204 148.2 263.2 192.6 308 227.4zM512 320c46.4-0.8 113.2 58.4 146.8 82.8 265.4 192.6 285.6 209.4 346.8 257.4 11.6 9 18.4 23 18.4 37.8v38c0 53-43 96-96 96h-832c-53 0-96-43-96-96v-38c0-14.8 6.8-28.6 18.4-37.8 61.2-47.8 81.4-64.8 346.8-257.4 33.6-24.4 100.4-83.6 146.8-82.8z" />
<glyph unicode="&#xe930;" glyph-name="location" horiz-adv-x="768" d="M344.6-43.4c-290.6 421.4-344.6 464.6-344.6 619.4 0 212 172 384 384 384s384-172 384-384c0-154.8-54-198-344.6-619.4-19-27.6-59.8-27.6-79 0zM384 416c88.4 0 160 71.6 160 160s-71.6 160-160 160-160-71.6-160-160 71.6-160 160-160z" />
<glyph unicode="&#xe931;" glyph-name="phone-call-2" d="M778.514 282.604c-33.454 33.028-75.219 33.028-108.46 0-25.357-25.144-50.714-50.288-75.645-75.858-6.819-7.032-12.572-8.523-20.882-3.836-16.408 8.95-33.88 16.194-49.649 25.996-73.514 46.239-135.096 105.69-189.645 172.599-27.062 33.241-51.14 68.826-67.974 108.886-3.409 8.097-2.77 13.424 3.836 20.030 25.357 24.505 50.075 49.649 75.006 74.793 34.733 34.946 34.733 75.858-0.213 111.017-19.817 20.030-39.634 39.634-59.451 59.664-20.456 20.456-40.699 41.125-61.368 61.368-33.454 32.602-75.219 32.602-108.46-0.213-25.57-25.144-50.075-50.927-76.071-75.645-24.079-22.8-36.224-50.714-38.781-83.316-4.049-53.058 8.95-103.133 27.275-151.929 37.503-101.002 94.61-190.711 163.862-272.962 93.544-111.23 205.201-199.234 335.822-262.733 58.811-28.553 119.754-50.501 186.023-54.124 45.6-2.557 85.234 8.95 116.984 44.535 21.735 24.292 46.239 46.452 69.253 69.679 34.094 34.52 34.307 76.284 0.426 110.378-40.486 40.699-81.185 81.185-121.884 121.671zM737.814 452.432l78.628 13.424c-12.359 72.236-46.452 137.653-98.232 189.645-54.763 54.763-124.015 89.283-200.3 99.937l-11.080-79.054c59.024-8.31 112.722-34.946 155.126-77.35 40.060-40.060 66.269-90.774 75.858-146.602zM860.764 794.22c-90.774 90.774-205.627 148.094-332.412 165.78l-11.080-79.054c109.526-15.342 208.823-64.991 287.238-143.193 74.367-74.367 123.163-168.337 140.849-271.683l78.628 13.424c-20.669 119.754-77.137 228.427-163.223 314.726z" />
<glyph unicode="&#xe932;" glyph-name="back-3" d="M586.294 674.568l-215.204 188-215.204-188c-17.41-15.192-43.848-13.42-59.054 3.99-15.192 17.41-13.406 43.834 3.99 59.054l242.742 212.050c15.764 13.784 39.3 13.784 55.064 0l242.744-212.052c8.793-7.707 14.314-18.961 14.314-31.504 0-0.013 0-0.027 0-0.040v0.002c0-0.010 0-0.022 0-0.035 0-10.548-3.918-20.18-10.378-27.522l0.040 0.046c-15.206-17.412-41.644-19.196-59.054-3.99zM329.238 240.14v678.008c0 23.116 18.734 41.852 41.852 41.852 23.116 0 41.852-18.736 41.852-41.852v-678.008c0-121.552 98.882-220.436 220.422-220.436s220.422 98.884 220.422 220.436v622.204c0 23.116 18.736 41.852 41.852 41.852s41.852-18.736 41.852-41.852v-622.204c0-167.688-136.438-304.14-304.126-304.14s-304.126 136.438-304.126 304.14z" />
<glyph unicode="&#xe933;" glyph-name="tick" d="M1009.004 809.008c-19.994 19.996-52.41 19.996-72.408 0l-613.408-613.414-235.784 235.784c-19.994 19.996-52.41 19.994-72.408 0-19.996-19.994-19.996-52.41 0-72.406l271.988-271.984c19.988-19.994 52.428-19.98 72.408 0l649.612 649.612c19.996 19.994 19.994 52.412 0 72.408z" />
<glyph unicode="&#xe934;" glyph-name="upper-left-arrow" d="M609.646 866.61l-144.432-144.432 527.952-527.952c22.304-22.304 22.304-58.48 0-80.784l-146.608-146.608c-22.304-22.304-58.48-22.304-80.784 0l-527.952 527.952-144.432-144.432c-17.408-17.408-47.328-5.984-48.688 18.496l-30.464 516.528c-2.176 34.272 26.112 62.56 60.384 60.384l516.528-30.464c24.48-1.36 35.904-31.28 18.496-48.688z" />
<glyph unicode="&#xe935;" glyph-name="arrow-right" horiz-adv-x="896" d="M381 826.2l44.4 44.4c18.8 18.8 49.2 18.8 67.8 0l388.8-388.6c18.8-18.8 18.8-49.2 0-67.8l-388.8-388.8c-18.8-18.8-49.2-18.8-67.8 0l-44.4 44.4c-19 19-18.6 50 0.8 68.6l241 229.6h-574.8c-26.6 0-48 21.4-48 48v64c0 26.6 21.4 48 48 48h574.8l-241 229.6c-19.6 18.6-20 49.6-0.8 68.6z" />
<glyph unicode="&#xe936;" glyph-name="question" d="M512 640c-53.019 0-96-42.981-96-96v0-10.24c0-17.673-14.327-32-32-32s-32 14.327-32 32v0 10.24c0 88.366 71.634 160 160 160s160-71.634 160-160v0-8.8c0-91.424-70.4-166.4-160-173.664v-73.536c0-17.673-14.327-32-32-32s-32 14.327-32 32v0 93.536c0 24 19.456 43.424 43.424 43.424h6.304c0.010 0 0.021 0 0.032 0 60.884 0 110.24 49.356 110.24 110.24v0 8.8c0 53.019-42.981 96-96 96v0zM480 160c17.673 0 32 14.327 32 32s-14.327 32-32 32v0c-17.673 0-32-14.327-32-32s14.327-32 32-32v0zM6.912-12.128l0.064 0.064 0.224 0.32 0.96 1.184 3.68 4.8c16.016 20.646 32.916 44.501 48.824 69.059l2.504 4.125c13.344 21.152 24.96 42.016 31.552 58.88 3.264 8.352 4.736 14.272 5.12 17.888-62.359 83.599-99.841 188.943-99.841 303.041 0 0.269 0 0.539 0.001 0.808v-0.041c0 282.784 229.216 512 512 512s512-229.216 512-512-229.216-512-512-512c-78.4 0-152.736 17.632-219.2 49.184-1.104 0.059-2.396 0.093-3.696 0.093s-2.592-0.034-3.876-0.1l0.18 0.007c-7.808-0.288-18.432-1.376-31.36-3.2-25.792-3.648-58.112-9.824-90.112-16.544-65.005-13.273-105.897-22.906-146.515-33.227l25.011 5.387-2.016-0.48-0.64-0.16c-2.331-0.608-5.008-0.957-7.766-0.957-11.227 0-21.104 5.782-26.815 14.53l-0.075 0.123zM512 896c-247.424 0-448-200.576-448-448 0-100.928 33.312-193.92 89.6-268.8 10.304-13.76 11.072-29.664 9.952-41.056-1.152-11.84-4.864-24-9.248-35.2-8.832-22.496-22.944-47.36-36.992-69.664-3.104-4.928-6.24-9.76-9.376-14.528 13.632 3.072 28.16 6.24 42.88 9.312 21.411 5.116 53.359 11.152 85.641 16.178l8.599 1.102c10.655 1.708 23.7 3.067 36.919 3.767l0.969 0.041c1.741 0.084 3.782 0.132 5.833 0.132 3.657 0 7.279-0.153 10.859-0.452l-0.468 0.032c4.544-0.416 11.744-1.376 18.72-4.736 56.55-27.843 123.097-44.128 193.449-44.128 0.233 0 0.466 0 0.7 0.001h-0.036c247.424 0 448 200.576 448 448s-200.576 448-448 448z" />
<glyph unicode="&#xe937;" glyph-name="eye" d="M484.25 789.504h55.091c3.277-0.717 6.554-1.843 9.933-2.048 39.834-3.072 78.438-12.083 115.712-25.805 132.198-48.947 240.128-131.789 329.114-239.923 40.448-49.152 39.526-99.123-0.614-148.787-55.194-68.403-120.73-125.235-194.56-172.544-60.826-38.912-125.645-68.915-196.608-84.070-20.787-4.403-41.984-6.963-62.976-10.342h-55.091c-3.277 0.717-6.656 1.843-10.035 2.048-34.304 2.867-67.891 9.933-100.454 20.992-140.39 47.616-253.133 134.144-346.624 247.398-15.053 18.227-24.781 39.424-26.829 63.386-2.765 34.304 12.186 62.157 33.178 87.552 56.218 67.891 122.266 124.826 196.915 171.622 62.157 39.014 128.307 68.608 200.806 82.432 17.613 3.379 35.328 5.427 53.043 8.090zM298.394 447.693c0-117.043 95.744-213.094 212.787-213.299 117.35-0.307 213.914 96.154 213.914 213.504 0 117.043-95.949 212.992-212.992 213.197-117.76 0.205-213.709-95.642-213.709-213.402zM551.936 568.525c-42.496-35.533-51.814-73.523-26.829-109.67 25.19-36.454 63.078-40.653 113.766-12.698 5.222-43.622-31.437-98.099-79.155-117.35-53.862-21.709-116.122-4.198-150.528 42.189-35.021 47.206-34.202 111.206 2.048 156.262 34.406 42.803 96.154 60.928 140.698 41.267z" />
</font>
</defs>
</svg>
