<?xml version="1.0" standalone="no"?>
<!DOCTYPE svg PUBLIC "-//W3C//DTD SVG 1.1//EN" "http://www.w3.org/Graphics/SVG/1.1/DTD/svg11.dtd" >
<svg xmlns="http://www.w3.org/2000/svg">
<metadata>Generated by IcoMoon</metadata>
<defs>
<font id="icomoon" horiz-adv-x="1024">
<font-face units-per-em="1024" ascent="960" descent="-64" />
<missing-glyph horiz-adv-x="1024" />
<glyph unicode="&#x20;" horiz-adv-x="512" d="" />
<glyph unicode="&#xe900;" glyph-name="controlxpert_svgrepocom-4" d="M877.512 594.775c3.261-84.803-1.632-169.606-22.833-252.779-40.771-150.036-136.989-252.779-278.871-314.751-75.019-32.617-75.019-32.617-148.407 0-171.237 75.019-267.457 205.486-295.181 389.77-11.416 84.803-11.416 169.606-8.154 256.040 1.631 60.34 32.617 92.957 92.958 99.48 66.864 6.523 130.466 21.201 185.915 58.71 19.57 13.047 37.51 29.355 55.447 44.033 29.355 24.462 57.079 26.093 84.803 0 58.711-53.818 125.576-86.434 203.856-97.85 14.677-1.631 29.353-3.262 44.032-4.892 45.664-4.892 81.542-37.508 84.803-84.804 4.893-30.985 1.632-61.972 1.632-92.957zM504.051 839.4c-35.878-24.462-66.865-48.925-102.743-70.126-55.447-32.617-117.419-44.033-181.022-48.926-32.617-3.261-44.033-14.677-44.033-48.925-3.262-81.542-3.262-164.713 8.154-246.254 22.832-164.715 109.267-283.766 262.564-348.999 66.865-27.724 42.403-27.724 107.636 0 110.897 47.293 192.439 123.944 234.839 239.732 22.833 60.343 32.617 122.312 34.248 185.916 1.629 58.709 1.629 117.419 0 177.76 0 24.462-14.679 37.51-39.141 40.771-8.154 1.632-14.677 1.632-22.831 3.261-81.542 6.525-154.929 32.618-218.533 83.174-13.045 9.785-26.092 21.201-39.139 32.617zM724.213 448c0-122.312-101.113-221.794-223.426-221.794s-221.792 101.111-221.792 223.426c0 120.681 101.111 220.162 221.792 221.792 122.312-1.629 223.426-102.743 223.426-223.423zM672.024 448c0 92.957-76.649 169.606-167.976 169.606-92.957 1.632-171.237-76.649-171.237-169.606s76.651-169.608 167.976-169.608c92.959-1.629 169.608 76.651 171.237 169.608zM460.016 412.122c32.617 32.617 61.972 61.972 91.327 91.325 4.893 4.893 8.154 8.154 13.047 11.418 13.045 11.415 27.724 11.415 39.139 0 9.786-11.418 9.786-24.462-1.632-37.51-16.308-16.308-32.617-32.617-48.925-48.925-22.831-22.833-44.032-45.664-66.863-66.865-16.308-16.308-27.724-16.308-44.032 0-13.047 13.047-27.726 26.094-40.773 40.771-11.415 13.047-13.045 27.724-1.629 39.141 9.784 9.784 26.092 9.784 39.139-1.632 4.893-3.261 8.154-8.154 13.047-13.047 0-3.261 3.261-8.154 8.154-14.677z" />
<glyph unicode="&#xe901;" glyph-name="controlxpert_svgrepocom-1" d="M823.653 467.286c-3.171-99.9-45.173-181.672-128.783-242.615-9.51-6.943-12.679-13.886-13.076-25.457-0.397-35.099 1.585-70.971-3.566-105.686-13.076-86.014-91.535-145.028-180.293-138.47-85.195 5.786-153.746 76.756-156.123 161.229-0.792 28.156 0.792 56.7-0.792 84.857-0.397 8.101-5.945 18.128-12.284 22.757-95.892 72.901-141.065 168.944-124.027 286.587 17.039 119.186 87.572 201.728 203.674 243.385 191.784 69.044 401.797-65.957 413.288-264.214 0.792-6.943 1.189-13.884 1.982-22.371zM481.688 203.458c0 8.099 0 15.042 0 21.985 0 40.501 0.397 81-0.792 121.499 0 4.244-7.53 9.258-12.284 11.957-32.492 17.744-51.116 43.972-53.098 80.229-1.189 22.373 14.265 36.259 35.663 32.4 18.624-3.471 22.587-17.357 24.964-32.784 5.151-28.544 36.456-41.659 57.852-23.53 7.133 6.171 11.888 16.587 13.87 26.229 5.548 22.371 16.245 32.786 35.663 30.085 18.624-2.313 26.549-15.813 24.567-38.956-2.774-27.387-14.265-52.458-38.437-63.643-27.738-13.115-29.323-32.015-27.341-55.543 0.792-8.486 0-16.585 0-25.072 0-28.158 0-55.929 0-84.085 28.134 0 53.493 0 82.024 0-11.888 35.485 10.302 50.141 34.474 67.886 82.022 59.785 116.101 141.171 99.061 239.914-19.416 111.857-110.949 190.157-230.618 200.956-102.629 9.258-209.22-56.7-248.448-153.514-41.607-102.985-8.719-220.628 83.213-285.429 24.964-17.743 45.965-33.556 40.814-67.114 0-0.772 1.585-1.929 2.377-3.471 24.567 0 49.531 0 76.476 0zM621.564 142.515c-74.099 0-145.821 0-218.73 0-3.963-47.444 9.114-86.786 50.719-112.629 38.437-23.914 78.853-23.914 117.687 0 41.211 26.229 53.89 65.571 50.324 112.629zM481.293 887.329c0.395 10.8 0 20.829 1.585 30.086 2.772 15.043 12.679 23.914 28.529 24.3s27.738-8.1 29.323-23.143c1.98-20.829 1.584-42.429 0-63.257-1.189-14.657-12.681-21.986-27.738-22.371-15.85-0.386-26.549 7.329-29.323 22.757-2.377 10.8-1.982 21.986-2.377 31.628zM428.987 851.457c0.397-21.986-7.528-31.629-21.396-35.486-13.87-4.243-27.343 0.386-33.285 13.5-8.719 18.514-16.247 37.8-22.19 57.086-4.359 13.886 2.774 27.771 16.245 30.857 10.699 2.314 29.72-0.386 34.474-7.329 12.681-20.057 19.416-43.2 26.152-58.629zM677.040 894.273c-11.094-25.843-18.227-48.6-30.907-68.271-4.359-6.943-23.38-11.186-32.097-8.1-8.717 3.471-19.813 18.9-18.227 27 4.359 21.986 12.679 44.357 24.172 63.643 3.963 6.943 22.585 11.571 32.095 8.871 9.907-1.929 17.039-14.657 24.964-23.143z" />
<glyph unicode="&#xe902;" glyph-name="controlxpert_svgrepocom-2" d="M141.49 237.144c4.556 20.517 9.113 41.031 15.947 63.826 9.113 31.914 6.835 38.753-18.225 59.268-13.669 6.839-25.060 18.236-36.451 29.634-38.729 38.753-38.729 79.784 0 118.535 11.391 11.397 22.782 20.517 36.451 29.634 27.338 20.517 29.616 27.354 20.504 61.548-4.556 18.235-11.391 38.751-13.669 59.266-4.556 41.033 20.504 70.665 66.068 77.504 18.225 2.28 38.729 2.28 56.955 4.56 20.502 0 34.172 6.837 41.006 27.354 4.557 18.236 11.392 36.472 20.504 54.708 22.782 47.87 63.79 59.267 109.352 34.193 11.392-6.839 25.061-13.677 36.453-22.795 34.172-22.795 38.727-22.795 72.901 0 11.39 6.839 20.504 13.677 31.894 20.516 50.119 27.354 91.127 15.956 116.187-38.752 6.833-15.956 13.669-34.193 18.225-50.15 6.833-18.236 18.225-25.073 36.451-25.073s36.451 0 54.676-2.28c56.955-6.839 82.015-43.312 70.623-100.299-4.557-15.956-9.112-34.192-13.669-50.15-6.835-18.235-2.278-31.912 13.669-43.31 11.392-9.119 22.782-15.956 34.172-27.354 54.676-47.87 54.676-91.182 0-139.052-9.112-9.117-20.504-15.956-31.894-25.075-18.225-11.397-20.504-27.354-15.947-47.868 6.833-22.797 13.669-43.312 15.947-66.107 4.557-45.59-20.504-75.224-66.068-79.784-20.502-2.278-38.727-2.278-59.231-4.559-18.225 0-31.896-6.839-38.729-27.354-6.835-18.236-13.67-38.753-22.782-54.709-22.782-47.87-63.79-59.268-109.352-34.192-11.392 6.839-22.782 13.678-34.172 22.795-36.451 25.075-38.729 25.075-72.901 0-9.114-6.839-18.227-11.397-27.339-18.236-54.676-31.914-97.962-18.236-123.021 41.031-6.835 15.956-11.392 29.634-18.225 45.59-6.835 18.236-18.227 25.075-36.453 25.075-20.502 0-41.006 0-59.231 4.559-43.286 4.56-68.346 34.194-70.624 77.504zM808.997 663.415c-22.782 2.278-41.008 2.278-61.511 4.559-54.676 2.28-79.737 20.515-97.962 70.665-4.555 9.117-6.833 18.236-9.112 27.354-4.557 9.119-9.114 20.516-13.669 31.914-15.949-11.397-31.896-18.236-45.564-29.633-45.564-34.192-88.848-34.192-134.413 0-13.669 11.397-29.616 18.236-45.563 29.633-9.114-20.516-15.949-41.031-22.782-59.267-18.225-47.87-52.398-70.665-100.24-72.945-20.504 0-41.008-2.278-61.511-2.278 0-6.839 0-9.119 2.278-13.678 4.557-20.515 11.392-41.031 15.947-61.548 9.114-38.751-2.277-68.385-31.894-93.46-18.225-15.956-36.451-29.634-56.954-47.868 20.504-18.236 41.007-31.914 59.233-47.87 27.339-22.795 41.008-52.429 31.894-91.182-6.833-25.075-11.39-50.149-18.225-77.504 25.061-2.278 45.564-2.278 68.347-4.559 41.006-2.28 70.623-20.515 86.57-59.268 4.557-13.678 9.112-25.075 13.669-38.751 4.557-9.119 9.114-20.517 13.67-31.914 13.669 9.119 25.059 15.956 36.451 22.795 63.788 43.312 91.127 43.312 152.636 0 11.392-6.839 22.782-15.956 36.453-22.795 9.112 25.075 18.225 45.59 27.337 68.387 15.947 41.031 45.564 59.266 88.848 61.546 11.392 0 22.782 0 31.896 2.28 11.39 0 22.78 2.278 34.172 4.559-6.835 22.795-11.392 43.312-15.947 63.826-13.67 43.312-2.278 79.784 34.172 107.138 9.112 6.839 18.225 13.678 27.337 20.515 9.114 6.839 15.949 13.678 25.061 22.797-20.504 15.956-38.729 31.912-56.955 47.868-29.616 25.075-41.008 54.709-31.894 91.182 4.555 25.075 11.39 50.149 18.225 77.504zM469.55 405.828c9.114 11.399 15.947 20.517 25.061 29.634 43.284 43.312 84.292 86.623 127.578 127.654 15.947 15.956 38.729 18.236 52.398 2.278 15.947-15.956 15.947-36.471-2.278-54.707-59.233-59.268-118.464-120.816-179.975-180.083-15.947-15.956-38.729-15.956-54.676 0-29.617 29.634-59.233 59.268-88.85 88.901-15.947 15.956-15.947 36.473-2.277 52.429 13.669 15.958 36.451 15.958 52.398 0 25.059-20.515 45.563-41.031 70.623-66.107z" />
<glyph unicode="&#xe903;" glyph-name="controlxpert_svgrepocom-3" d="M560.7 59.303c14.131 0 28.26 0 40.036 0 18.839 0 30.615-11.774 30.615-28.26 0-16.484-11.776-25.905-30.615-25.905-96.557 0-190.76 0-287.317 0-18.842 0-30.615 11.776-30.615 25.905 0 16.486 11.774 28.26 30.615 28.26 14.129 0 25.905 0 40.036 0 0 21.197 0 40.036 0 61.233-7.066 0-14.131 0-21.197 0-58.876 0-120.107 0-178.983 0-49.456 0-80.072 30.615-80.072 80.072 0 141.303 0 282.606 0 423.909 4.71 54.165 35.326 82.425 84.782 82.425 138.947 0 277.895 0 416.845 0 11.774 0 23.55 4.71 32.971 11.776 80.070 65.942 160.142 131.883 242.57 197.825 35.326 28.261 75.362 28.261 105.977 0 28.26-28.261 28.26-68.297 0-105.978-35.326-42.391-68.296-84.782-103.622-127.173-4.71-7.066-9.421-18.839-9.421-28.26 0-150.724 0-299.093 0-449.816 0-54.165-28.26-84.781-84.783-84.781-58.876 0-117.751 0-174.274 0-7.063 0-14.129 0-21.195 0-2.355-21.197-2.355-40.036-2.355-61.233zM532.44 652.778c-2.355 0-4.71 0-7.066 0-122.464 0-244.925 0-367.388 0-18.84 0-23.551-7.066-23.551-28.26 0-113.043 0-226.086 0-336.774 0-4.71 0-9.421 0-14.131 216.665 0 433.331 0 649.996 0 0 108.333 0 216.665 0 327.353-47.102-47.1-73.007-120.106-155.434-117.751 0-7.066 0-9.421 0-14.131-2.355-63.586-40.036-105.977-101.267-117.753-16.486-2.355-32.971 0-49.457-2.355-25.905 0-49.455-4.708-70.652-18.839-11.774-9.421-25.905-9.421-35.326 2.355-11.774 11.774-9.421 23.55-2.355 37.681 7.066 14.129 14.131 28.26 16.486 42.391 2.355 21.195 2.355 42.389 4.71 63.586 2.355 54.165 35.326 96.557 87.136 108.333 14.131 4.71 30.615 4.71 42.391 7.066 2.355 21.195 7.066 40.036 11.776 61.231zM134.435 217.092c-4.71-35.326 0-40.036 35.326-40.036 193.113 0 388.584 0 581.699 0 32.971 0 37.681 7.066 32.971 40.036-216.665 0-433.33 0-649.996 0zM751.46 648.067c54.165 65.941 105.977 131.883 160.142 195.47 7.066 9.42 14.131 18.84 2.355 30.616s-21.195 7.065-32.971-2.355c-44.747-37.681-91.846-75.362-136.593-113.042-21.197-16.486-40.036-32.971-58.876-47.102 23.55-21.195 44.744-40.036 65.941-63.586zM442.947 405.497c21.197 0 44.747 0 65.941 0 25.907 0 47.102 11.774 58.878 35.326 11.774 23.55 7.066 54.165-11.776 73.007-18.839 18.839-47.102 25.905-70.652 16.484-28.26-9.419-40.036-30.615-40.036-58.876-2.355-23.55-2.355-44.747-2.355-65.941zM640.772 673.972c-14.131-11.774-30.615-23.55-47.102-37.681-23.55-21.195-23.55-58.876-2.355-82.425 23.55-23.552 58.876-23.552 82.428 0 14.129 14.129 28.26 32.971 40.036 47.1-25.907 25.907-49.457 49.457-73.007 73.007zM414.687 120.536c0-21.197 0-40.036 0-61.233 30.615 0 58.876 0 89.493 0 0 21.197 0 40.036 0 61.233-30.618 0-58.878 0-89.493 0z" />
<glyph unicode="&#xe904;" glyph-name="controlxpert_svgrepocom-6" d="M338.744 710.091c0 13.441 0 23.521 3.361 33.601 3.359 30.241 26.88 57.122 60.483 57.122 50.401 3.36 100.804 0 147.846 3.36 16.8 0 30.241 0 47.042 0 47.042 0 73.922-26.881 77.283-73.924 0-6.718 0-10.080 0-20.159 6.721 0 13.441 0 20.159 0 60.483 0 124.325 0 184.808 0 26.882 0 33.603-6.721 33.603-33.601 0-168.007 0-336.014 0-504.022 0-50.401-26.882-80.642-77.283-80.642-218.41 0-436.818 0-655.226 0-50.402 0-77.283 30.241-77.283 80.642 0 168.007 0 336.014 0 504.022 0 26.88 6.72 33.601 33.601 33.601 60.482 0 124.324 0 184.807 0 3.361 0 10.082 0 16.8 0zM171.888 528.642c-3.36 0-3.36-3.359-3.36-3.359 0-117.604 0-238.57 0-356.174 0-20.162-11.23-26.88 8.931-26.88 218.409 0 436.817 0 655.225 0 23.521 0 8.931 6.718 8.931 30.239 0 117.606 0 231.849 0 349.456 0 3.359 21.31 6.718 21.31 13.439-13.441-40.321-23.521-73.922-36.962-107.524-10.080-30.239-30.241-47.042-60.481-47.042-16.803 0-36.962 0-53.762 0-26.882 0-53.762 0-84.004 0 0-6.721 0-13.439 0-20.159 0-20.162-10.082-26.882-30.241-30.241-60.483 0-117.604 0-178.087 0-20.162 0-26.882 6.721-30.241 30.241 0 6.721 0 10.080 0 20.159-6.721 0-13.441 0-16.8 0-36.962 0-70.563 0-107.524 0-43.682 0-63.843 16.8-77.283 57.124-23.433 57.255-15.651 90.722-15.651 90.722zM160.658 659.688c0-3.359 0-3.359 0-3.359 23.521-70.563 43.858-137.766 67.379-208.328 3.36-13.441 23.345-23.521 36.786-23.521 20.159 0 33.601 0 53.762 0 23.521 0 43.68 0 67.201 0 0 10.080 0 16.8 0 23.521 0 16.8 10.082 23.521 23.523 23.521 63.842 0 124.325 0 188.167 0 13.441 0 23.521-10.080 23.521-23.521 0-6.721 0-13.441 0-23.521 40.321 0 84.004 0 124.325 0 23.521 0 26.88 3.359 36.962 26.88 16.8 53.762 36.96 110.886 53.762 164.648 3.359 13.439 10.080 30.241 13.439 47.042-228.488-3.361-460.337-3.361-688.826-3.361zM385.785 710.091c80.644 0 157.928 0 235.211 0 0 6.721 0 16.8 0 23.521 0 13.44-6.721 23.521-23.521 23.521-63.842 0-127.686 0-191.528 0-13.441 0-23.521-10.080-23.521-23.521 3.359-6.721 3.359-13.441 3.359-23.521zM573.954 377.437c0 16.8 0 30.241 0 43.683-47.042 0-94.083 0-141.125 0 0-16.803 0-30.241 0-43.683 50.401 0 97.443 0 141.125 0z" />
<glyph unicode="&#xe905;" glyph-name="controlxpert_svgrepocom-7" d="M500.87 717.777c148.607 0 269.777-121.17 269.777-269.777 0-146.321-121.17-269.777-269.777-269.777s-269.777 123.457-269.777 269.777c0 148.607 121.17 269.777 269.777 269.777zM281.391 450.286c0-123.459 96.022-221.767 217.193-221.767 123.459 0 221.767 96.022 221.767 217.195 0 123.457-96.022 221.765-217.195 221.765-123.457 2.286-221.765-96.022-221.765-217.193zM768.361 779.506c0 9.145-2.286 18.29-2.286 25.149 0 16.004 4.572 27.435 22.862 29.721 16.006 2.286 25.15-6.859 27.437-22.862 4.572-32.008 6.859-61.729 9.145-93.736 2.286-13.717-4.572-25.148-20.576-27.434-32.009-4.572-64.016-6.859-98.311-11.431-13.717-2.288-22.862 6.859-25.148 20.576s4.572 22.862 20.576 27.434c11.433 2.286 25.15 2.286 38.867 4.572-6.859 6.859-9.145 9.145-13.717 13.718-214.909 166.896-537.27 45.725-592.14-217.193-13.717-66.302-11.431-132.604 11.431-198.905 6.859-20.576 2.286-34.293-13.718-38.865-13.718-4.572-27.435 2.286-34.294 22.862-82.305 242.343 77.733 509.834 331.506 550.987 118.886 18.29 226.34-6.859 324.648-77.733 2.286-2.286 4.572-4.573 9.145-6.859 0 0 0 0 4.572 0zM233.379 118.78c0-9.145 2.286-18.29 2.286-27.434 0-16.006-6.859-25.15-22.863-27.437-13.717 0-25.149 6.859-25.149 20.576-4.572 32.009-6.859 64.016-11.431 96.024-2.286 13.717 4.572 25.148 20.576 27.434 34.294 4.572 66.301 9.145 100.596 11.431 13.717 0 22.862-6.859 22.862-20.576 2.286-13.717-4.572-22.864-18.29-25.15-11.431-2.286-25.15-4.572-41.154-6.859 6.859-4.572 9.145-9.145 13.717-13.717 226.34-173.755 557.846-34.293 594.425 244.629 6.861 57.157 2.288 114.312-16.003 169.183-2.286 6.859-6.859 13.717-4.572 18.29 4.572 9.145 11.431 20.578 20.576 22.864 13.719 4.572 22.864-6.859 27.437-18.292 16.003-48.010 25.148-98.308 25.148-148.605-4.572-185.188-125.743-345.224-304.070-395.522-132.604-38.865-253.774-16.003-365.802 64.016-4.572 2.286-9.145 6.859-13.717 9.145 0 0-2.286 0-4.572 0zM503.158 610.324c11.431 0 22.862-9.145 20.576-22.864 0-16.003 6.859-22.862 18.29-32.007 9.147-4.572 18.292-16.003 25.15-27.434s6.859-25.15-6.859-34.295c-13.719-9.145-27.437-4.572-34.295 9.145-6.859 13.719-20.576 18.292-34.293 13.719-6.859-2.286-16.003-11.433-18.29-18.292-2.286-4.572 6.859-16.003 13.717-20.576 9.145-6.859 22.862-6.859 32.007-11.431 29.723-11.431 52.585-29.72 54.871-64.016 2.286-32.007-13.717-54.869-41.154-70.874-4.572-2.286-9.145-13.717-11.431-18.29 0-16.003-6.859-29.72-25.148-29.72s-25.148 11.431-22.862 29.72c0 11.431-4.572 16.003-13.719 22.862-11.431 6.861-22.862 18.292-29.72 29.723-9.145 11.431-6.859 25.148 6.859 34.293s22.862 4.572 34.295-6.859c6.859-6.859 16.003-13.717 25.148-16.003 13.717-2.286 25.148 2.286 29.72 18.29s-6.859 20.576-18.29 25.148c-11.431 4.572-25.148 6.861-36.579 11.433-27.437 11.431-45.726 29.72-45.726 61.727-2.286 29.723 13.717 52.585 38.867 66.302 11.431 4.572 11.431 13.717 11.431 22.862 2.286 18.292 9.145 27.437 27.434 27.437z" />
<glyph unicode="&#xe906;" glyph-name="controlxpert_svgrepocom" d="M73.143 208.475c0 6.431 0 12.86 0 17.684 0 51.441 0 102.883 0 154.322 0 70.733 32.328 114.136 101.834 138.249-50.109 40.188-72.739 91.63-64.657 154.322 6.466 41.797 27.479 75.555 59.807 101.275 63.041 49.834 155.177 43.404 211.751-14.468 33.944-35.366 48.492-77.162 45.259-125.387-3.233-48.227-27.478-85.2-64.656-115.743 67.889-22.506 100.219-69.124 103.451-136.64 29.094 9.644 51.725 38.579 51.725 67.516 0 17.682 0 33.757 0 51.441 0 41.796 32.327 70.731 74.355 65.907 58.191-6.429 100.219-53.049 101.835-110.919 0-19.29 0-38.581 0-57.871 11.313-1.607 22.629-3.215 33.944-4.824 51.725-11.251 90.52-56.263 90.52-107.705 0-54.656 0-109.312 0-163.968 0-61.087-50.108-110.919-111.534-110.919-67.889 0-135.779 0-203.668 0-11.315 0-22.63 4.822-32.327 12.86-24.247 17.682-50.11 24.112-80.821 22.504-30.713-1.607-59.809 0-93.753 0 0 54.656 0 109.314 0 163.97-77.588-1.607-148.71-1.609-223.066-1.609zM642.121 345.117c-1.616 3.215-1.616 4.822-1.616 6.429 0 33.759 0 69.124 0 102.883 0 32.15-21.012 56.263-51.725 61.087-16.165 3.215-21.014-1.609-21.014-17.684 0-25.721 0-51.441 0-77.162 0-4.822 0-11.251-3.233-16.075-25.861-30.543-46.875-64.302-87.287-75.553-8.080-3.216-11.313-8.038-11.313-17.684 0-72.338 0-143.071 0-215.409 0-4.822 0-11.253 3.233-12.86 16.163-8.038 32.327-20.899 48.492-20.899 61.424-3.215 121.231-1.607 182.654-1.607 40.411 0 66.275 25.721 66.275 65.909 0 49.834 0 99.668 0 151.109 0 40.188-25.863 65.909-66.275 65.909-22.629 1.607-40.41 1.607-58.191 1.607zM292.976 366.014c40.41 0 77.588 0 116.381 0 8.082 64.302-27.478 104.49-90.518 104.49-35.562 0-72.739 0-108.301 0-51.725 0-84.053-33.757-85.67-85.199 0-33.759 0-69.124 0-102.883 0-8.038 0-16.075 0-22.506 56.575 0 111.533 0 168.107 0 0 35.366 0 69.125 0 106.097zM375.413 647.334c0 59.478-46.875 107.705-105.068 107.705-59.807 0-108.299-46.619-108.299-106.097 0-59.48 48.492-107.705 106.683-107.705s106.684 48.225 106.684 106.097zM347.933 314.573c0-73.946 0-144.677 0-217.017 22.63 0 42.028 0 63.040 0 0 72.34 0 144.678 0 217.017-22.629 0-42.026 0-63.040 0zM836.092 700.383c16.165 4.822 24.247-1.607 32.327-16.075 16.165-28.937 40.411-51.441 69.506-67.516 9.699-4.824 12.932-11.253 12.932-22.506 1.616-20.899-3.233-35.366-24.245-46.619-27.48-14.468-46.877-38.581-61.425-65.909-4.848-9.644-11.313-12.86-21.012-12.86-8.082 1.609-14.548-1.607-22.63 0-4.849 1.609-11.315 4.824-14.548 8.038-19.396 33.759-45.259 59.48-79.205 78.769-4.849 1.607-8.082 9.646-8.082 14.468-1.616 8.038-1.616 17.682 0 25.721 1.616 4.822 3.233 12.86 8.082 14.468 33.946 19.291 59.809 46.619 80.821 80.377 4.849 6.431 17.781 8.038 27.48 11.253-1.616 1.607 0 0 0-1.607zM832.859 541.237c14.548 14.468 32.327 32.15 46.875 45.010-14.548 14.468-32.327 32.152-45.259 45.012-14.548-12.86-32.329-30.544-46.875-43.405 16.163-16.075 32.327-33.757 45.259-46.618zM603.326 656.978c-17.779-4.822-25.861 3.216-33.944 17.684-16.165 28.935-40.411 49.832-67.889 65.909-9.699 4.822-11.315 11.251-12.932 20.897-1.616 22.506 4.849 33.759 24.247 48.226 24.245 16.075 42.026 40.188 61.424 64.301 8.082 9.645 12.932 14.468 24.247 12.86 11.313-1.607 25.861 8.038 33.944-8.038 19.397-33.758 45.259-61.086 79.205-80.377 3.233-1.607 6.466-8.038 8.082-12.86 1.616-6.43 0-14.468 0-20.899 1.616-12.86-3.233-19.29-14.548-25.721-27.48-14.468-51.725-36.972-66.273-64.3-9.699-14.468-17.781-22.506-35.562-17.684zM648.587 771.114c-14.548 14.468-30.713 32.15-43.644 46.618-14.546-14.468-32.327-32.151-45.259-45.011 14.548-14.468 30.713-32.15 45.259-45.010 11.315 12.86 29.096 28.935 43.644 43.403z" />
<glyph unicode="&#xe907;" glyph-name="currency-revenue-solid_svgrepocom" d="M859.182 742.846v-120.382c0-9.254-3.676-18.127-10.22-24.673-6.543-6.543-15.419-10.22-24.673-10.22h-122.125c-5.059-0.056-10.068 0.986-14.682 3.057-4.616 2.071-8.724 5.123-12.045 8.94-3.318 3.817-5.768 8.31-7.178 13.166-1.411 4.859-1.748 9.964-0.988 14.966 1.641 8.463 6.213 16.079 12.915 21.504s15.101 8.312 23.724 8.154h40.125c-40.643 45.261-93.553 77.744-152.307 93.502-58.752 15.758-120.817 14.114-178.652-4.734-57.838-18.847-108.954-54.087-147.141-101.435-38.189-47.35-61.803-104.771-67.974-165.286-0.868-8.637-4.924-16.64-11.376-22.446-6.452-5.809-14.837-9.001-23.517-8.957-4.891-0.026-9.733 0.98-14.211 2.947-4.478 1.969-8.492 4.856-11.783 8.474-3.29 3.62-5.783 7.89-7.316 12.536-1.533 4.644-2.073 9.559-1.584 14.426 7.328 73.257 35.57 142.858 81.358 200.509 45.788 57.65 107.19 100.916 176.884 124.638 69.696 23.722 144.742 26.899 216.195 9.153 71.45-17.746 136.289-55.667 186.785-109.24v33.148c-0.056 5.058 0.986 10.068 3.057 14.683s5.123 8.724 8.94 12.043c3.817 3.319 8.31 5.769 13.166 7.179 4.859 1.41 9.964 1.747 14.966 0.988 8.463-1.641 16.079-6.214 21.504-12.916s8.312-15.101 8.154-23.722zM161.356 153.155v120.379c0 9.254 3.676 18.13 10.22 24.673 6.544 6.546 15.419 10.222 24.673 10.222h122.125c5.059 0.056 10.068-0.988 14.682-3.059 4.616-2.071 8.724-5.12 12.045-8.937 3.318-3.817 5.768-8.31 7.178-13.166 1.411-4.859 1.748-9.966 0.988-14.966-1.641-8.463-6.213-16.079-12.915-21.504s-15.101-8.312-23.721-8.156h-40.128c40.643-45.258 93.553-77.742 152.307-93.499 58.752-15.759 120.817-14.113 178.652 4.733 57.838 18.847 108.954 54.085 147.141 101.435 38.19 47.35 61.804 104.771 67.976 165.286 0.868 8.637 4.923 16.64 11.374 22.446 6.454 5.806 14.838 9.001 23.519 8.957 4.89 0.023 9.733-0.98 14.211-2.947 4.477-1.969 8.492-4.856 11.784-8.474 3.29-3.62 5.78-7.89 7.314-12.536 1.533-4.644 2.074-9.559 1.585-14.426-7.329-73.257-35.571-142.858-81.359-200.509s-107.19-100.915-176.883-124.639c-69.696-23.721-144.742-26.898-216.192-9.152-71.452 17.746-136.292 55.665-186.788 109.24v-33.149c0.057-5.059-0.986-10.068-3.057-14.682-2.071-4.616-5.121-8.724-8.938-12.045-3.817-3.318-8.31-5.768-13.168-7.178s-9.964-1.746-14.965-0.988c-8.464 1.641-16.079 6.216-21.504 12.915-5.425 6.702-8.313 15.101-8.155 23.724zM522.476 482.893c-61.064 12.211-61.064 22.679-61.064 31.404 0 8.722 3.489 10.468 8.724 15.7 9.626 5.174 20.493 7.59 31.404 6.979 20.273 0.177 40.197-5.258 57.574-15.7 3.53-2.883 7.649-4.961 12.065-6.093s9.024-1.285 13.507-0.456c4.483 0.829 8.73 2.627 12.449 5.263 3.717 2.637 6.817 6.052 9.083 10.007 2.99 3.569 5.197 7.726 6.474 12.201 1.277 4.477 1.595 9.172 0.937 13.783-0.658 4.608-2.278 9.024-4.759 12.966-2.478 3.94-5.76 7.311-9.631 9.9-16.589 10.24-34.924 17.339-54.083 20.936v40.128c0 9.254-3.676 18.13-10.222 24.673-6.543 6.543-15.419 10.22-24.671 10.22-9.254 0-18.13-3.676-24.673-10.22s-10.222-15.419-10.222-24.673v-38.382c-52.339-8.724-87.232-43.617-87.232-90.721 0-47.107 57.574-85.489 113.403-95.956s57.574-22.682 57.574-31.404c0-8.724-19.192-24.425-43.617-24.425-25.687-0.507-50.826 7.465-71.532 22.679-3.876 2.578-8.23 4.355-12.803 5.225-4.575 0.868-9.275 0.814-13.829-0.161-4.552-0.975-8.863-2.852-12.677-5.519-3.817-2.668-7.060-6.072-9.541-10.012-2.749-3.272-4.805-7.071-6.036-11.164-1.229-4.093-1.613-8.397-1.121-12.644 0.489-4.247 1.841-8.348 3.973-12.055 2.13-3.704 4.995-6.938 8.42-9.498 22.449-15.754 48.041-26.468 75.018-31.404v-38.382c0-9.254 3.679-18.13 10.222-24.673s15.419-10.22 24.673-10.22c9.252 0 18.127 3.676 24.671 10.22 6.546 6.543 10.222 15.419 10.222 24.673v38.382c19.139 2.824 37.192 10.647 52.339 22.682 10.936 8.028 19.804 18.545 25.871 30.679s9.16 25.539 9.021 39.107c0 64.55-59.318 85.489-109.914 95.956z" />
<glyph unicode="&#xe908;" glyph-name="date_svgrepocom" d="M1024-12.8v921.6c0 13.579-5.393 26.602-14.996 36.204s-22.625 14.996-36.204 14.996h-768c-13.579 0-26.602-5.394-36.204-14.996s-14.996-22.625-14.996-36.204v-204.8h-102.4c-13.579 0-26.602-5.394-36.204-14.996s-14.996-22.625-14.996-36.204c0-13.579 5.394-26.602 14.996-36.204s22.625-14.996 36.204-14.996h102.4v-307.2h-102.4c-13.579 0-26.602-5.393-36.204-14.996s-14.996-22.625-14.996-36.204c0-13.579 5.394-26.601 14.996-36.204s22.625-14.996 36.204-14.996h102.4v-204.8c0-13.579 5.394-26.601 14.996-36.204s22.625-14.996 36.204-14.996h768c13.579 0 26.601 5.393 36.204 14.996s14.996 22.625 14.996 36.204zM256 38.4v819.2h153.6v-819.2h-153.6zM512 38.4v819.2h409.6v-819.2h-409.6z" />
<glyph unicode="&#xe909;" glyph-name="email_svgrepocom" d="M899.878 789.333h-775.757c-10.287 0-20.153-4.087-27.427-11.361s-11.361-17.14-11.361-27.427v-620.604c0-10.291 4.087-20.156 11.361-27.43s17.14-11.358 27.427-11.358h775.757c10.287 0 20.151 4.083 27.426 11.358s11.362 17.139 11.362 27.43v620.604c0 10.287-4.087 20.153-11.362 27.427s-17.139 11.361-27.426 11.361zM861.090 168.725h-698.181v369.379l334.661-133.897c9.271-3.669 19.588-3.669 28.86 0l334.66 133.897v-369.379zM861.090 621.653l-349.090-139.635-349.091 139.635v90.104h698.181v-90.104z" />
<glyph unicode="&#xe90a;" glyph-name="email-1573_svgrepocom" d="M921.6 714.7l-409.6-359.782-409.6 360.294v14.388h819.2v-14.9zM102.4 166.4v412.416l409.6-360.192 409.6 359.782v-412.006h-819.2zM0 64h1024v768h-1024v-768z" />
<glyph unicode="&#xe90b;" glyph-name="Frame-1" d="M370.924 486.655l-1.472-1.338 1.055-1.686c45.185-72.297 103.031-130.138 177.109-177.114l1.698-1.079 1.348 1.496c8.097 8.999 15.746 17.546 23.392 26.093l0.007 0.007 0.033 0.038c7.635 8.533 15.267 17.063 23.347 26.041 10.547 11.424 20.773 16.789 30.908 16.996 10.152 0.207 20.818-4.749 32.268-15.308 23.469-23.469 46.928-46.728 70.315-69.915 46.58-46.18 92.877-92.079 138.39-138.79l0.021-0.021c10.538-10.538 15.498-20.766 15.498-30.71 0-9.942-4.96-20.17-15.498-30.708l-0.033-0.033c-44.97-46.771-89.938-91.738-136.706-136.709l-0.033-0.031c-8.456-8.459-23.995-13.7-36.109-13.7-59.001 0-116.238 14.303-168.131 39.355l-0.024 0.012c-233.432 109.532-403.945 283.65-499.092 524.198-12.596 33.597-17.503 69.334-22.518 105.855-1.386 10.090-2.779 20.242-4.346 30.422v0l-0.005 0.031c-0.797 4.779 0.384 11.050 3.011 17.62 2.596 6.489 6.494 12.995 10.813 18.191 44.953 46.749 89.908 91.704 134.882 136.678 9.567 9.567 19.79 14.15 29.81 14.15s20.243-4.583 29.81-14.15c23.344-23.344 46.879-46.681 70.477-70.079 47.383-46.981 95.018-94.214 141.86-142.258l0.021-0.021c10.504-10.502 15.031-20.709 14.827-30.434-0.21-9.749-5.187-19.546-14.827-29.184l-0.007 0.007-0.152-0.183c-16.098-19.677-32.204-35.788-51.948-53.736zM179.848 729.529l-1.684 1.684-1.696-1.696c-30.577-30.578-61.184-61.183-89.997-91.796-2.137-2.15-4.089-5.663-5.286-9.495-1.191-3.813-1.736-8.256-0.755-12.362 5.457-54.303 23.559-104.92 46.998-153.6l0.011-0.021c75.801-153.407 191.297-272.496 335.584-362.682 63.193-41.522 131.922-72.292 209.77-81.344l-0.002-0.017h0.279c1.188 0 2.589-0.093 4.179-0.202l0.243-0.017c1.653-0.112 3.472-0.229 5.251-0.229 1.772 0 3.608 0.114 5.296 0.512 1.674 0.393 3.365 1.103 4.684 2.41 34.216 32.416 66.634 64.833 97.254 97.254l1.588 1.684-165.421 165.421-1.674-1.953c-5.363-6.256-11.178-12.519-17.258-19.046l-0.657-0.71c-5.851-6.282-11.928-12.81-18.010-19.756-7.871-7.859-16.036-12.955-24.483-15.065-8.425-2.108-17.322-1.293-26.781 3.008l-0.048 0.019c-2.386 1.024-4.82 2.041-7.268 3.062-10.602 4.429-21.466 8.966-30.037 14.657-11.743 9.783-23.719 19.411-35.688 29.034-32.196 25.881-64.348 51.729-91.784 80.472-26.726 28.298-46.535 62.131-66.898 96.909-2.772 4.732-5.553 9.48-8.361 14.236-6.032 10.342-7.685 20.532-5.577 30.232 2.117 9.733 8.075 19.211 17.696 27.965 12.657 10.852 25.298 23.492 36.071 34.264l0.029 0.031 1.686 1.684-1.686 1.686c-27.898 27.898-55.346 54.896-82.787 81.887l-0.010 0.010c-27.446 26.995-54.884 53.984-82.77 81.871zM953.585 721.196l0.007-0.012c44.742-71.585 66.227-150.328 66.227-236.292 0-13.086-3.489-23.75-9.797-31.318-6.268-7.523-15.505-12.217-27.5-13.091-12.033 0.017-21.675 3.882-28.324 10.947-6.68 7.097-10.6 17.701-10.6 31.661l-0.002 0.045c-3.62 197.318-144.836 358.439-338.503 391.026-13.326 2.422-26.774 3.238-40.053 4.044-6.563 0.398-13.086 0.794-19.53 1.38v0l-0.057 0.004c-13.081 0.872-23.762 5.217-30.92 11.956-7.118 6.698-10.902 15.887-10.057 26.878v0.013c0.862 12.054 5.577 21.811 12.955 28.556 7.382 6.749 17.584 10.624 29.663 10.624h16.122c171.93-10.766 300.792-91.306 390.37-236.423zM857.871 526h-0.002l0.007-0.052c1.8-12.595 3.577-26.843 3.577-39.255 0-13.086-3.489-23.75-9.797-31.32-6.268-7.52-15.505-12.214-27.498-13.091-11.083 0.021-20.313 3.853-27 10.75-6.718 6.927-11.052 17.137-11.928 30.179-3.651 114.436-78.184 205.305-188.973 232.55l-0.21 0.052c-14.246 3.56-29.008 7.251-43.846 5.396-27.293-3.413-47.661 18.762-47.714 38.95 0.876 12.909 5.572 22.059 13.862 28.070 8.416 6.101 20.873 9.218 37.731 9.22 148.17-1.793 283.939-123.267 301.792-271.45zM625.054 481.463v0.019c-1.841 23.007-10.602 42.010-24.55 55.725-13.941 13.707-32.932 22.004-55.013 23.845v0l-0.038 0.002c-13.071 0.872-23.273 5.21-29.967 11.905-6.663 6.663-10.061 15.858-9.209 26.929h0.007v0.183c0 11.050 4.232 20.287 11.571 26.786 7.361 6.52 18.013 10.423 31.039 10.423 77.867 0 150.602-70.92 152.388-150.614-0.005-13.074-3.491-23.728-9.797-31.294-6.268-7.52-15.503-12.214-27.498-13.091-11.085 0.021-20.33 3.855-27.026 10.552-6.727 6.727-11.040 16.501-11.907 28.629z" />
<glyph unicode="&#xe90c;" glyph-name="Frame-2" d="M509.734-64c-16.503 0-33.006 0-52.259 0-57.76 0-93.517 33.574-96.268 95.126 0 19.585-2.749 33.573-22.003 47.562-27.505 16.787-35.757 47.564-35.757 78.34 0 30.775 0 58.753-2.749 89.53-5.501 44.765-27.505 81.137-57.76 117.508-154.027 181.859-99.017 456.044 112.769 562.361 203.534 100.721 453.827-25.18 497.834-251.804 22.004-117.508-2.749-221.027-79.763-310.557-41.257-50.36-63.26-109.115-60.511-176.262 0-16.786 0-30.775 0-47.562-2.749-30.776-16.502-53.158-44.008-67.148-13.752-5.596-16.502-16.787-13.752-27.978 0-13.989 0-27.978-2.749-41.967-11.003-39.169-44.008-64.349-82.514-64.349-22.004-2.798-41.258-2.798-60.511-2.798zM658.259 240.961c8.252 64.351 38.508 120.306 79.764 167.869 55.009 67.148 74.262 145.486 63.26 232.219-16.503 117.508-104.517 218.229-220.037 249.005s-236.54-13.989-305.303-111.912c-82.514-114.711-77.012-265.793 16.503-380.503 30.255-39.169 55.009-78.339 66.012-128.7 2.749-11.191 5.5-22.382 5.5-33.573 11.002 0 19.254 0 30.255 0 0 8.393 0 16.787 0 22.382 0 78.339 0 156.677 0 235.017 0 11.191 2.751 25.18 8.251 36.371 24.755 53.158 52.26 106.317 77.014 159.475 5.501 13.989 13.752 25.18 30.255 25.18s24.754-11.191 30.255-25.18c24.754-53.158 52.259-106.317 77.012-159.475 5.501-11.191 8.252-22.382 8.252-33.574 0-78.339 0-156.677 0-235.016 0-8.393 0-13.989 0-22.382 13.752 2.797 22.003 2.797 33.005 2.797zM567.494 240.961c0 72.744 0 145.487 0 215.432-38.508 0-77.014 0-115.52 0 0-69.944 0-142.688 0-215.432 38.506 0 77.012 0 115.52 0zM655.508 176.612c-99.016 0-195.283 0-294.3 0 0-11.191 0-19.584 0-30.776 0-16.786 11.003-27.978 27.505-27.978 79.764 0 156.777 0 236.541 0 16.502 0 27.505 11.192 27.505 27.978 2.749 11.192 2.749 19.585 2.749 30.776zM421.719 59.104c0-5.596 0-11.191 0-16.787 0-36.371 8.251-44.765 44.008-44.765 33.006 0 66.011 0 99.017 0 16.503 0 27.505 5.596 30.255 22.383 2.751 11.191 0 25.18 0 36.371-57.76 2.798-115.52 2.798-173.28 2.798zM556.492 520.744c-16.502 33.573-33.005 64.349-49.508 97.923-16.503-36.371-33.006-67.148-49.508-97.923 35.756-11.192 66.011-11.192 99.016 0zM64.16 537.53c-11.002 0-22.004 0-30.255 0-16.503 2.798-27.505 11.191-27.505 27.978s8.251 27.978 24.754 27.978c22.004 2.798 46.758 2.798 71.512 0 16.503 0 24.754-13.989 22.004-30.776 0-13.989-8.251-25.18-24.754-27.978-11.002 2.798-24.754 5.596-35.756 2.798 0 2.798 0 2.798 0 0zM952.559 540.328c-11.002 0-22.003 0-33.005 0-16.503 2.798-24.755 11.191-24.755 27.978s8.252 27.978 24.755 30.776c22.003 2.798 46.757 2.798 71.512 0 16.503 0 24.754-13.989 24.754-30.776s-8.251-25.18-24.754-27.978c-16.503-2.798-27.505 0-38.508 0zM116.417 722.185c-5.501-5.595-11.002-16.786-19.253-22.382-8.252-2.798-22.004 0-30.255 5.596-16.503 11.191-30.255 27.978-44.008 44.764-11.002 11.192-11.002 25.181 0 39.169 11.002 11.192 24.754 16.787 35.756 5.596 19.253-16.787 35.756-33.573 52.259-53.158 2.75-2.798 2.75-11.191 5.501-19.585zM1002.074 775.345c0-22.382-52.26-81.137-71.512-78.339-8.252 0-22.004 8.393-24.755 16.787-2.749 8.393-2.749 25.18 0 30.775 13.752 19.585 30.255 33.574 46.758 50.36 5.501 5.596 22.004 5.596 30.255 2.798 11.002-5.595 16.503-16.786 19.254-22.382zM116.417 417.225c0-25.181-55.009-81.137-71.512-78.34-8.251 2.798-19.253 8.394-24.754 16.787-2.75 8.394-2.75 22.382 2.75 30.776 13.752 16.787 30.255 33.573 46.758 47.562 8.251 5.596 22.004 5.596 30.255 2.798 8.252-5.595 11.002-16.787 16.503-19.584zM1004.82 364.065c-5.5-5.595-11.002-19.584-19.252-22.382-8.252-2.798-24.755-2.798-30.255 2.798-16.503 13.989-33.006 30.776-49.509 47.562-11.002 11.191-8.251 25.18 2.751 36.372s24.754 13.989 35.756 5.595c19.254-16.787 35.757-33.573 52.26-53.158 5.5-2.798 5.5-8.393 8.251-16.787z" />
<glyph unicode="&#xe90d;" glyph-name="Frame" d="M796.833 534.633c98.947-39.613 150.679-112.443 147.395-208.079-1.644-49.62-21.35-92.838-54.607-130.452-5.747-6.802-10.263-17.206-10.263-26.010-0.822-64.824-0.41-129.249-0.41-194.076 0-36.014-22.991-49.618-55.017-32.412-25.866 13.604-51.32 27.61-76.365 42.816-11.085 6.802-20.119 7.204-31.613 0.402-25.044-15.206-50.501-28.813-76.365-42.819-32.435-17.605-55.839-4.401-55.839 31.212 0 34.015 0 68.027 0 104.842-8.21 0-15.601 0-22.579 0-135.488 0-270.975 0-406.461 0-51.731-0.399-80.471 27.21-80.471 77.23 0 242.094 0 484.188 0 725.884 0 48.819 28.74 76.83 79.239 76.83 188.040 0 376.080 0 564.529 0 50.089 0 78.828-28.011 78.828-76.43 0-108.842 0-217.284 0-326.128 0-7.204 0-14.804 0-22.81zM582.108 143.68c2.872 36.815 2.872 36.815-17.244 62.026-93.199 115.244-41.467 284.111 101.409 328.128 20.529 6.403 42.289 8.804 64.049 12.805 0.41 1.201 0.822 3.2 0.822 5.202 0 109.243 0 218.485 0.41 327.727 0 16.006-8.21 16.406-20.116 16.406-183.933-0.4-367.867-0.4-551.802 0-15.191 0-19.707-4.002-19.707-19.207 0.411-238.094 0.411-475.787 0-713.88 0-16.404 4.927-20.006 20.939-20.006 117.011 0.399 234.023 0.399 350.624 0.399 22.991 0.399 45.983 0.399 70.618 0.399zM729.5 191.7c80.883-0.801 148.626 63.224 149.448 141.655 0.819 78.83-64.461 145.257-144.932 146.458-82.112 1.201-150.267-63.224-150.676-142.856-0.41-78.833 65.69-144.458 146.161-145.257zM812.436 142.881c-54.607-20.408-108.39-20.009-161.764-0.399 0-40.417 0-78.431 0-118.449 18.476 10.406 36.129 18.409 51.73 28.813 20.119 13.604 38.595 12.805 58.711-0.399 16.013-10.406 33.667-18.409 51.732-28.413-0.41 41.219-0.41 78.833-0.41 118.848zM411.722 799.938c44.342 0 88.684 0 133.435 0 23.813 0 38.595-12.805 38.182-32.413 0-19.608-14.779-31.612-39.004-31.612-88.681 0-177.774 0-266.456 0-24.223 0-39.004 11.604-39.415 31.212-0.41 20.408 14.37 32.413 39.825 32.813 44.752 0 89.094 0 133.433 0zM411.722 607.862c-44.339 0-88.681 0-133.433 0-25.455 0-40.235 12.406-39.825 32.814 0.411 19.607 14.78 31.212 39.004 31.212 88.683 0 177.774 0 266.457 0 24.223 0 38.592-12.004 39.004-31.613 0.41-19.607-14.369-32.412-38.182-32.412-43.932 0-88.684 0-133.025 0zM353.833 479.813c-25.864 0-51.73 0-78.007 0-22.581 0.399-36.951 12.004-37.362 31.212-0.411 19.607 13.959 32.812 37.362 32.812 51.731 0.402 103.873 0.402 155.605 0 22.17 0 36.539-12.803 36.539-32.010 0-18.808-14.369-31.613-36.539-32.013-25.457-0.402-51.732 0-77.599 0zM705.687 330.555c14.781 22.008 28.741 42.417 42.698 62.423 13.96 20.408 33.667 26.012 50.089 15.206 17.244-11.203 19.297-29.612 4.928-50.419-18.885-28.411-38.182-56.422-57.889-84.434-15.191-22.008-30.794-25.208-53.786-10.803-14.369 8.804-28.739 18.007-42.698 27.61-17.654 12.406-21.76 30.013-11.494 44.818 10.673 15.606 29.56 19.208 48.445 8.005 6.159-3.602 11.497-7.204 19.707-12.406z" />
<glyph unicode="&#xe90e;" glyph-name="Frameee" d="M998.4 448c0-268.36-218.040-486.4-486.4-486.4-268.359 0-486.4 218.040-486.4 486.4 0 268.359 218.041 486.4 486.4 486.4 268.36 0 486.4-218.041 486.4-486.4zM943.89 477.353c-12.58 46.124-20.966 88.054-33.546 125.791-16.771 46.126-16.771 46.126-67.087 46.126-33.546 0-62.897 0-96.443 0 4.193-54.51 12.58-109.023 16.773-163.533 0-4.193 8.387-8.384 12.58-8.384 20.964 0 46.124 0 67.090 0 33.544 0 62.897 0 100.634 0zM84.303 477.353c54.51 0 109.021 0 163.531 0 4.193 0 8.386 8.384 8.386 12.577 4.193 29.353 4.193 58.703 8.387 88.056 4.193 25.157 8.387 46.124 12.58 71.283-46.125 0-88.056 0-129.987 0-12.579 0-16.772-4.193-20.966-16.773-25.158-46.124-37.738-96.44-41.931-155.144zM314.924 477.353c58.703 0 113.213 0 167.724 0 0 58.703 0 113.213 0 171.917-46.124 0-92.247 0-134.177 0-8.387 0-12.58-4.193-12.58-8.387-12.58-54.51-20.966-104.827-20.966-163.53zM541.353 477.353c58.703 0 113.213 0 171.917 0-4.193 41.93-8.387 83.86-16.773 125.791-8.387 46.126-8.387 46.126-54.51 46.126-33.546 0-67.090 0-100.634 0 0-58.703 0-113.213 0-171.917zM751.007 250.924c41.93 0 88.056 0 134.18 0 4.193 0 8.387 4.193 8.387 8.387 25.157 50.317 37.737 100.634 41.93 155.146l-4.193 4.191c-54.51 0-104.827 0-155.144 0-4.193 0-8.387-8.384-12.58-12.577-4.193-50.317-8.387-100.636-12.58-155.146zM272.993 250.924c-4.193 54.51-12.58 109.020-16.773 159.34 0 4.193-8.386 8.384-16.772 8.384-33.545 0-71.283 0-104.828 0-16.772 0-33.545 0-54.51 0 12.579-46.124 20.966-83.86 33.545-125.791 16.773-46.126 16.773-46.126 67.090-46.126 12.579 0 20.966 0 33.545 0 20.965 4.193 41.93 4.193 58.704 4.193zM482.647 250.924c0 58.703 0 113.213 0 167.724-54.51 0-113.213 0-167.724 0 0-54.51 8.387-109.020 20.966-159.337 0-4.193 8.387-8.387 8.387-8.387 46.124 0 92.247 0 138.371 0zM709.076 418.647c-58.703 0-113.213 0-167.724 0 0-54.51 0-113.213 0-167.724 46.124 0 92.247 0 138.371 0 4.193 0 8.387 4.193 8.387 8.387 12.58 50.317 20.966 104.827 20.966 159.337zM482.647 871.503c-50.317-16.772-121.6-109.021-125.791-163.531 41.93 0 83.86 0 125.791 0 0 50.317 0 96.441 0 146.759 0 4.193 0 8.386 0 16.772zM541.353 707.972c41.93 0 83.86 0 125.791 0-16.771 67.090-83.86 159.338-125.791 159.338 0-50.317 0-104.828 0-159.338zM482.647 192.22c-41.93 0-83.86 0-125.791 0 29.35-67.090 54.51-129.987 125.791-167.724 0 58.703 0 113.213 0 167.724zM541.353 192.22c0-54.51 0-109.020 0-167.724 71.281 33.544 100.634 100.634 125.791 167.724-41.93 0-83.86 0-125.791 0zM851.64 707.972c-50.317 67.090-113.213 113.214-184.497 142.566 20.966-41.931 41.933-88.055 62.897-134.179 0-4.193 4.193-8.386 8.387-8.386 33.546 0 71.283 0 113.213 0zM855.834 192.22c-41.93 0-79.667 0-117.407 0-4.193 0-8.387-4.193-12.58-8.387-20.964-46.124-41.93-88.054-62.894-134.177 75.474 25.157 138.371 75.474 192.881 142.564zM168.166 192.22c54.51-67.090 117.407-117.407 188.691-142.564-20.966 41.93-41.933 88.054-62.897 134.177 0 4.193-8.387 8.387-12.58 8.387-33.545 0-71.283 0-113.214 0zM356.856 850.538c-71.283-29.352-134.18-75.476-188.691-142.566 41.931 0 79.669 0 117.407 0 4.193 0 8.387 4.193 8.387 8.386 20.964 41.931 41.93 88.055 62.897 134.179z" />
<glyph unicode="&#xe910;" glyph-name="Group" d="M715.017 758.269c-115.254-19.013-189.806-130.976-169.435-254.463 20.371-123.488 126.934-205.574 242.187-186.561 12.35 2.037 28.815 4.754 40.435 11.201-44.053-66.16-108.208-112.986-190.532-126.566-24.698-4.073-38.252-24.431-33.888-50.893 4.366-26.461 23.741-41.386 48.438-37.311 205.811 33.951 341.358 237.521 304.981 458.034-20.369 123.486-126.932 205.573-242.187 186.56zM209.844 758.269c-115.255-19.013-189.806-130.976-169.435-254.463 20.371-123.488 126.933-205.574 242.188-186.561 12.348 2.037 28.813 4.754 40.433 11.201-44.052-66.16-108.208-112.986-190.532-126.566-24.697-4.073-38.252-24.431-33.887-50.893s23.74-41.386 48.437-37.311c205.811 33.951 341.359 237.521 304.983 458.034-20.371 123.486-126.934 205.573-242.187 186.56z" />
<glyph unicode="&#xe911;" glyph-name="headphone-alt_svgrepocom" d="M943.767 597.564c-57.647 214.257-232.689 362.436-431.767 362.436-198.475 0-374.182-148.42-431.767-362.436-44.996-4.939-80.233-42.886-80.233-89.329v-240.941c0-37.647 23.010-69.873 55.657-83.426 11.686-105.231 100.171-187.633 208.475-187.633h163.057c12.467-34.995 45.598-60.235 84.811-60.235h180.706c49.813 0 90.353 40.538 90.353 90.353s-40.54 90.353-90.353 90.353h-180.706c-39.213 0-72.343-25.239-84.811-60.235h-163.057c-72.765 0-133.542 51.802-147.517 120.469h64.090v60.235h60.235v301.178h-60.235v60.235h-36.503c54.995 178.357 201.909 301.177 367.797 301.177 166.37 0 312.802-122.699 367.797-301.177h-36.503v-60.235h-60.235v-301.178h60.235v-60.235h90.714c49.634 0 89.993 40.54 89.993 90.353v240.941c0 46.443-35.238 84.39-80.233 89.329zM512 56.471h180.706c16.565 0 30.118-13.493 30.118-30.118s-13.553-30.118-30.118-30.118h-180.706c-16.565 0-30.118 13.493-30.118 30.118s13.553 30.118 30.118 30.118zM120.471 237.175h-30.479c-16.384 0-29.756 13.493-29.756 30.118v240.941c0 16.625 13.372 30.118 29.756 30.118h30.479v-301.178zM963.765 267.294c0-16.625-13.374-30.118-29.758-30.118h-30.479v301.178h30.479c16.384 0 29.758-13.493 29.758-30.118v-240.941z" />
<glyph unicode="&#xe914;" glyph-name="judge_svgrepocom" d="M512 260.683h-384v-93.659h-32v-62.439h447.999v62.439h-31.999v93.659zM192 167.024v31.22h256v-31.22h-256zM448 604.098v31.22h32.001v62.439h-320.001v-62.439h32v-249.756h-32v-62.439h320.001v62.439h-32.001v31.22h479.999v187.317h-479.999zM384 385.561h-128v249.756h128v-249.756zM864.001 479.22h-416.001v62.439h416.001v-62.439z" />
<glyph unicode="&#xe916;" glyph-name="Path-184" d="M736 128c-8.486 0-16.627-3.371-22.628-9.372s-9.372-14.142-9.372-22.628v-96h-640v768h128v-32c0-8.486 3.371-16.627 9.373-22.628s14.141-9.372 22.627-9.372h320c8.486 0 16.627 3.371 22.628 9.372s9.372 14.142 9.372 22.628v32h128v-32c0-8.486 3.371-16.627 9.372-22.628s14.142-9.372 22.628-9.372c8.486 0 16.627 3.371 22.628 9.372s9.372 14.142 9.372 22.628v64c0 8.487-3.371 16.626-9.372 22.627s-14.142 9.373-22.628 9.373h-160v32c0 25.461-10.114 49.879-28.117 67.882s-42.421 28.118-67.883 28.118h-192c-25.461 0-49.879-10.114-67.883-28.118s-28.117-42.422-28.117-67.882v-32h-160c-8.487 0-16.626-3.371-22.627-9.373s-9.373-14.141-9.373-22.627v-832c0-8.486 3.371-16.627 9.373-22.628s14.141-9.372 22.627-9.372h704c8.486 0 16.627 3.371 22.628 9.372s9.372 14.142 9.372 22.628v128c0 8.486-3.371 16.627-9.372 22.628s-14.142 9.372-22.628 9.372zM256 864c0 8.487 3.371 16.626 9.372 22.627s14.142 9.373 22.628 9.373h192c8.486 0 16.627-3.371 22.628-9.373s9.372-14.141 9.372-22.627v-96h-256v96zM1014.656 566.656l-128 128c-2.972 2.98-6.505 5.344-10.391 6.957-3.887 1.615-8.055 2.445-12.265 2.445s-8.378-0.83-12.265-2.445c-3.887-1.613-7.42-3.977-10.391-6.957l-384-384c-2.97-2.978-5.323-6.511-6.927-10.398-1.602-3.887-2.426-8.053-2.417-12.258v-128c0-8.486 3.371-16.627 9.372-22.628s14.142-9.372 22.628-9.372h128c4.205-0.009 8.371 0.815 12.258 2.417 3.887 1.604 7.42 3.957 10.398 6.927l384 384c2.98 2.972 5.344 6.505 6.957 10.391 1.615 3.887 2.445 8.055 2.445 12.265s-0.83 8.378-2.445 12.265c-1.613 3.887-3.977 7.42-6.957 10.391zM512 192v82.752l352 352 82.752-82.752-352-352h-82.752zM384 160c0-8.486-3.371-16.627-9.372-22.628s-14.142-9.372-22.628-9.372h-128c-8.486 0-16.626 3.371-22.627 9.372s-9.373 14.142-9.373 22.628c0 8.486 3.371 16.627 9.373 22.628s14.141 9.372 22.627 9.372h128c8.486 0 16.627-3.371 22.628-9.372s9.372-14.142 9.372-22.628zM384 352c0-8.486-3.371-16.627-9.372-22.628s-14.142-9.372-22.628-9.372h-128c-8.486 0-16.626 3.371-22.627 9.372s-9.373 14.142-9.373 22.628c0 8.486 3.371 16.627 9.373 22.628s14.141 9.372 22.627 9.372h128c8.486 0 16.627-3.371 22.628-9.372s9.372-14.142 9.372-22.628zM544 512h-320c-8.486 0-16.626 3.371-22.627 9.372s-9.373 14.142-9.373 22.628c0 8.486 3.371 16.627 9.373 22.628s14.141 9.372 22.627 9.372h320c8.486 0 16.627-3.371 22.628-9.372s9.372-14.142 9.372-22.628c0-8.486-3.371-16.627-9.372-22.628s-14.142-9.372-22.628-9.372z" />
<glyph unicode="&#xe918;" glyph-name="play_svgrepocom" d="M978.231 500.886l-694.749 447.744c-41.216 22.199-88.43 19.895-88.43-59.795v-881.667c0-72.85 50.652-84.334 88.43-59.794l694.749 447.748c28.597 29.219 28.597 76.54 0 105.763z" />
<glyph unicode="&#xe91a;" glyph-name="send_svgrepocom" d="M969.314 868.167l-306.59-808.318c-12.48-32.93-43.072-39.488-67.938-14.592 0 0-193.152 193.152-210.752 210.752s-11.488 52.19 13.6 76.894l426.114 419.52c25.088 24.704 22.75 27.392-5.218 5.984l-479.712-367.486c-27.936-21.41-71.168-18.56-96.064 6.336l-133.504 133.504c-24.896 24.894-18.336 55.454 14.592 67.966l808.322 306.592c32.926 12.48 49.63-4.224 37.15-37.152zM278.626 316.134c-12.448 12.45-22.624 8.226-22.624-9.374v-146.752c0-17.6 12.352-24.576 27.424-15.522l76.832 46.114c15.104 9.054 17.248 26.654 4.8 39.104l-86.432 86.43z" />
<glyph unicode="&#xe91b;" glyph-name="share_svgrepocom" d="M588.928 732.445c0 78.547 63.966 142.222 142.869 142.222s142.869-63.675 142.869-142.222c0-78.547-63.966-142.223-142.869-142.223-39.842 0-75.849 16.244-101.734 42.377l-197.777-134.657c1.826-9.088 2.786-18.475 2.786-28.062 0-18.987-3.755-37.137-10.556-53.726l216.862-142.481c24.614 20.041 56.107 32.107 90.419 32.107 78.903 0 142.869-63.676 142.869-142.225 0-78.545-63.966-142.221-142.869-142.221s-142.869 63.676-142.869 142.221c0 20.574 4.403 40.158 12.318 57.839l-215.11 141.329c-25.093-21.807-57.961-35.063-93.935-35.063-78.904 0-142.868 63.676-142.868 142.221 0 78.548 63.965 142.223 142.868 142.223 45.373 0 85.762-21.052 111.913-53.817l191.678 130.507c-4.459 13.774-6.865 28.451-6.865 43.652z" />
<glyph unicode="&#xe91d;" glyph-name="tag_svgrepocom" d="M512 960l512-512-512-512-512 512v512h512zM448 832h-320v-320l384-384 320 320-384 384zM288 768c52.992 0 96-42.624 96-96 0-52.992-42.624-96-96-96-52.992 0-96 42.624-96 96 0 52.992 42.624 96 96 96z" />
<glyph unicode="&#xe920;" glyph-name="vectorrr" d="M448 405.333l58.667-32c-10.667-21.333-32-42.667-53.333-58.667s-48-21.333-74.667-21.333c-42.667 0-80 10.667-106.667 42.667-26.667 26.667-37.333 64-37.333 112s16 85.333 42.667 112c21.333 26.667 58.667 42.667 101.333 42.667 58.667 0 106.667-21.333 128-69.333l-64-37.333c-10.667 16-16 26.667-26.667 32s-21.333 5.333-26.667 5.333c-42.667 0-64-26.667-64-85.333 0-26.667 5.333-48 16-64s26.667-21.333 48-21.333c26.667 0 48 10.667 58.667 42.667zM1024 448c0-144-48-261.333-144-357.333-101.333-101.333-224-154.667-368-154.667-138.667 0-261.333 48-362.667 149.333s-149.333 218.667-149.333 362.667c0 138.667 48 261.333 149.333 362.667s218.667 149.333 362.667 149.333c144 0 266.667-48 362.667-149.333 101.333-96 149.333-218.667 149.333-362.667zM933.333 448c0 117.333-42.667 213.333-122.667 298.667-85.333 80-181.333 122.667-298.667 122.667s-213.333-42.667-293.333-122.667c-85.333-85.333-128-186.667-128-298.667s42.667-213.333 122.667-293.333c85.333-85.333 181.333-122.667 298.667-122.667 112 0 213.333 42.667 298.667 128 80 74.667 122.667 170.667 122.667 288zM672 362.667c-21.333 0-37.333 5.333-48 21.333s-16 37.333-16 64c0 58.667 21.333 85.333 64 85.333 10.667 0 21.333-5.333 26.667-10.667 10.667-5.333 21.333-16 26.667-32l64 32c-26.667 48-69.333 69.333-128 69.333-42.667 0-74.667-16-101.333-42.667s-42.667-64-42.667-112c0-48 10.667-85.333 37.333-112s64-42.667 106.667-42.667c26.667 0 53.333 5.333 74.667 21.333s42.667 32 53.333 58.667l-64 32c-5.333-21.333-26.667-32-53.333-32z" />
</font>
</defs>
</svg>
