<?xml version="1.0" standalone="no"?>
<!DOCTYPE svg PUBLIC "-//W3C//DTD SVG 1.1//EN" "http://www.w3.org/Graphics/SVG/1.1/DTD/svg11.dtd" >
<svg xmlns="http://www.w3.org/2000/svg">
<metadata>Generated by IcoMoon</metadata>
<defs>
<font id="icomoon" horiz-adv-x="1024">
<font-face units-per-em="1024" ascent="960" descent="-64" />
<missing-glyph horiz-adv-x="1024" />
<glyph unicode="&#x20;" horiz-adv-x="512" d="" />
<glyph unicode="&#xe900;" glyph-name="pills" d="M1007.529 650.997c-12.156 76.844-52.339 144.855-113.14 191.513-55.945 42.926-125.165 64.899-194.94 61.913-69.327-2.982-133.762-29.838-187.452-77.926-53.69 48.088-118.122 74.943-187.447 77.926-69.778 3.009-138.996-18.985-194.94-61.915-60.801-46.653-100.984-114.669-113.141-191.513-13.708-86.643 8.127-182.816 63.15-278.116 48.242-83.558 123.249-171.038 211.2-246.322 79.585-68.118 160.381-117.705 216.126-132.643 1.656-0.445 3.354-0.667 5.050-0.667 1.698 0 3.397 0.222 5.050 0.667 55.748 14.935 136.542 64.522 216.129 132.643 87.952 75.284 162.958 162.764 211.201 246.322 55.024 95.302 76.86 191.473 63.151 278.118zM910.578 392.394c-46.087-79.827-118.102-163.705-202.779-236.187-71.775-61.435-146.085-108.097-195.801-123.152-49.714 15.058-124.024 61.717-195.799 123.152-84.677 72.484-156.693 156.36-202.78 236.187-114.727 198.718-50.183 349.99 39.952 419.153 42.841 32.875 99.762 54.508 159.988 54.508 62.034 0 127.578-22.954 184.842-80.217 7.62-7.618 19.975-7.618 27.598 0 112.86 112.864 257.866 92.442 344.831 25.711 90.134-69.164 154.679-220.438 39.948-419.154zM791.617 811.643c-83.381 32.344-172.437 12.385-238.225-53.403l-41.395-41.395-41.395 41.395c-65.783 65.785-154.839 85.747-238.213 53.407-62.653-24.304-110.263-74.683-130.619-138.219-31.132-97.168 7.53-195.846 45.448-261.522 23.083-39.981 52.964-80.998 88.815-121.913 48.145-54.946 103.898-106.276 161.232-148.443 28.457-20.93 70.169-49.095 107.28-64.435 2.385-0.984 4.918-1.479 7.453-1.479s5.068 0.495 7.453 1.479c37.111 15.338 78.823 43.505 107.28 64.435 57.337 42.166 113.090 93.496 161.233 148.443 35.852 40.913 65.733 81.927 88.816 121.913 37.915 65.671 76.578 164.352 45.451 261.517-20.355 63.535-67.961 113.914-130.612 138.221zM842.982 431.419c-21.814-37.778-50.201-76.71-84.37-115.707-46.31-52.853-99.91-102.205-155.004-142.723-24.751-18.2-59.941-42.139-91.613-56.56-31.667 14.423-66.86 38.36-91.608 56.56-55.094 40.518-108.691 89.87-155.001 142.721-34.173 39.002-62.56 77.934-84.37 115.71-33.973 58.845-68.852 146.534-42.079 230.1 16.745 52.26 55.952 93.717 107.568 113.74 21.477 8.332 43.428 12.411 65.139 12.411 47.561 0 93.931-19.598 131.362-57.031l55.194-55.194c7.62-7.618 19.975-7.618 27.598 0l55.194 55.194c54.519 54.52 127.983 71.202 196.511 44.614 51.615-20.023 90.819-61.48 107.562-113.739 26.769-83.561-8.11-171.25-42.081-230.095zM490.958 614.407c0 0 0 0 0 0-12.865 12.862-30.016 19.946-48.295 19.946-18.282 0-35.433-7.083-48.295-19.946l-96.588-96.588c-26.629-26.631-26.629-69.962 0.002-96.588 12.86-12.862 30.011-19.946 48.293-19.946 18.285 0 35.433 7.083 48.295 19.946l96.591 96.588c26.626 26.631 26.626 69.959-0.002 96.588zM366.772 448.829c-5.49-5.49-12.84-8.514-20.697-8.514-7.855 0-15.205 3.025-20.695 8.514-11.414 11.414-11.414 29.981 0 41.395l34.496 34.496 41.395-41.392-34.499-34.499zM463.36 545.417l-34.496-34.496-41.395 41.392 34.496 34.496c5.49 5.49 12.84 8.514 20.697 8.514s15.205-3.025 20.697-8.512c11.414-11.414 11.414-29.983 0-41.395zM619.328 527.025c-28.67 0-55.621-11.164-75.891-31.437-15.917-15.917-26.252-36.055-29.928-57.886-50.638-8.592-89.32-52.768-89.32-105.814 0-59.18 48.148-107.325 107.328-107.325 53.043 0 97.223 38.682 105.812 89.315 21.834 3.679 41.972 14.011 57.888 29.928 20.273 20.273 31.434 47.224 31.434 75.893 0 28.667-11.164 55.621-31.434 75.891-20.27 20.273-47.221 31.434-75.888 31.434zM531.516 263.588c-30.882 0-57.044 20.605-65.461 48.785h65.461c10.777 0 19.513 8.739 19.513 19.513 0 10.777-8.736 19.513-19.513 19.513h-65.461c8.417 28.182 34.576 48.785 65.461 48.785 37.658 0 68.296-30.638 68.296-68.298 0-37.658-30.638-68.298-68.296-68.298zM667.618 371.405c-8.689-8.692-19.356-14.766-30.99-17.795-2.942 14.256-8.719 27.488-16.716 39.079l13.21 13.21c7.62 7.62 7.62 19.975 0 27.598-7.62 7.618-19.975 7.618-27.598 0l-13.21-13.21c-11.589 7.995-24.821 13.774-39.079 16.716 3.030 11.631 9.104 22.298 17.795 30.987 12.9 12.902 30.051 20.005 48.295 20.005 18.242 0 35.393-7.103 48.293-20.005 12.9-12.897 20.005-30.048 20.005-48.293 0.002-18.245-7.103-35.395-20.005-48.293z" />
<glyph unicode="&#xe901;" glyph-name="pills-2" d="M1005.018 743.938l-106.066 106.068c-12.242 12.242-28.564 18.982-45.962 18.982s-33.718-6.744-45.962-18.984c-20.012-20.014-24.22-49.94-12.623-74.124l-270.633-226.893h-160.456c1.943 53.271-17.582 103.943-55.091 141.455-48.707 48.704-121.254 66.914-189.328 47.518-6.656-1.896-11.86-7.098-13.754-13.754-17.6-61.778-4.232-127.237 34.788-175.219h-79.93c-33.084 0-60-26.916-60-59.999 0-145.976 69.692-283.576 186.956-370.207v-69.791c0-11.046 8.954-19.999 20-19.999h506.089c11.046 0 20.001 8.952 20.001 19.999v69.791c117.261 86.633 186.952 224.228 186.952 370.207 0 33.083-26.916 59.999-59.999 59.999h-4.897l75.791 90.403c24.184-11.596 54.108-7.388 74.122 12.626 12.242 12.242 18.985 28.564 18.985 45.962 0 17.396-6.743 33.72-18.982 45.96zM180.944 563.162c-35.846 35.848-50.708 88.258-40.058 139.052 50.798 10.652 103.208-4.212 139.053-40.058 29.875-29.874 45.261-70.468 43.338-113.169h-0.881l-108.925 108.929c-7.81 7.81-20.472 7.808-28.286 0-7.81-7.81-7.81-20.474 0-28.286l80.642-80.643h-68.464c-5.8 4.308-11.306 9.062-16.42 14.175zM693.043 68.989h-466.088v40h466.090v-40h-0.003zM706.593 148.989h-493.188c-44.15 32.079-81.042 72.020-109.288 117.146h711.762c-28.244-45.125-65.137-85.066-109.286-117.146zM879.997 488.988c0-64.169-14.751-126.566-42.002-182.853h-755.994c-27.25 56.287-42.002 118.684-42.002 182.853 0 11.028 8.972 20.001 20 20.001h799.999c11.028 0 19.999-8.975 19.999-20.001zM976.732 680.298c-9.746-9.748-25.605-9.75-35.354 0-3.965 3.966-9.413 6.094-15.020 5.838-5.604-0.246-10.844-2.834-14.449-7.13l-109.005-130.019h-216.876l247.987 207.909c4.298 3.604 6.886 8.846 7.132 14.45s-1.874 11.052-5.839 15.018c-9.748 9.748-9.746 25.608 0.003 35.356 4.685 4.686 10.964 7.268 17.677 7.268 6.71 0 12.992-2.582 17.674-7.268l106.068-106.068c4.685-4.686 7.268-10.964 7.268-17.676s-2.583-12.99-7.268-17.678zM409.027 613.297c16.028-4.567 32.328-6.792 48.445-6.792 44.836 0 88.228 17.217 120.136 49.123 40.612 40.612 57.418 99.822 45.225 156.946l22.277 22.276c7.808 7.81 7.808 20.474 0 28.286-7.811 7.812-20.475 7.81-28.288 0l-22.275-22.276c-57.124 12.194-116.334-4.616-156.946-45.228-43.377-43.378-59.599-107.974-42.332-168.58 1.897-6.656 7.101-11.86 13.757-13.755zM465.889 767.347c24.476 24.476 57.93 37.59 92.554 37.404l-64.98-64.98c-7.811-7.81-7.811-20.474 0-28.286 3.907-3.906 9.024-5.858 14.141-5.858s10.237 1.952 14.141 5.858l64.98 64.982c0.187-34.626-12.931-68.078-37.404-92.556-30.51-30.51-74.964-43.368-118.252-34.816-8.55 43.288 4.308 87.742 34.819 118.252z" />
<glyph unicode="&#xe902;" glyph-name="pills-3" d="M855.707 597.579l-123.222 79.907v75.875h13.662c10.774 0 19.511 8.737 19.511 19.512v117.073c0 32.277-26.259 58.536-58.535 58.536h-390.245c-32.277 0-58.536-26.259-58.536-58.536v-117.073c0-10.775 8.737-19.512 19.512-19.512h13.658v-75.885l-126.267-82.007c-0.184-0.12-0.365-0.242-0.542-0.367-14.656-10.235-23.417-26.926-23.434-44.671v-546.336c0-30.126 24.509-54.637 54.634-54.637h632.192c30.126 0 54.634 24.511 54.634 54.637v546.336c0 19.356-10.337 37.364-27.021 47.149zM297.365 889.945c0 10.759 8.753 19.512 19.512 19.512h390.245c10.759 0 19.511-8.753 19.511-19.512v-97.561h-48.782v39.024c0 10.774-8.736 19.512-19.511 19.512s-19.513-8.737-19.513-19.512v-39.024h-58.533v39.024c0 10.774-8.739 19.512-19.513 19.512s-19.511-8.737-19.511-19.512v-39.024h-58.538v39.024c0 10.774-8.736 19.512-19.511 19.512s-19.511-8.737-19.511-19.512v-39.024h-58.537v39.024c0 10.774-8.738 19.512-19.512 19.512s-19.512-8.737-19.512-19.512v-39.024h-48.782v97.561zM760.777-11.519h-497.558v481.802c0 12.413 10.101 22.513 22.515 22.513h452.53c12.415 0 22.513-10.1 22.513-22.513v-481.802zM843.704 4.094c0-8.609-7.003-15.612-15.61-15.612h-28.292v481.802c0 33.932-27.603 61.537-61.537 61.537h-452.53c-33.933 0-61.539-27.606-61.539-61.537v-481.802h-28.293c-8.607 0-15.61 7.003-15.61 15.612v546.316c0.006 4.915 2.443 9.583 6.537 12.543l134.825 87.567c5.54 3.599 8.884 9.758 8.884 16.364v86.477h362.925v-86.477c0-6.611 3.349-12.773 8.899-16.372l132.521-85.939c0.307-0.2 0.619-0.387 0.937-0.569 4.863-2.782 7.887-7.982 7.887-13.574v-546.336h-0.002zM706.51 279.125c-32.643 9.298-66.468 8.704-97.382-0.759 0.010 0.697 0.015 1.399 0.015 2.098 0 60.229-33.587 116.336-87.652 146.427-5.899 3.284-13.080 3.284-18.979 0-54.065-30.091-87.649-86.201-87.649-146.427 0-0.699 0.005-1.399 0.015-2.098-30.916 9.466-64.738 10.063-97.384 0.759-6.494-1.851-11.569-6.926-13.419-13.419-16.952-59.507-1.026-122.93 41.563-165.521 31.327-31.327 73.925-48.228 117.95-48.228 15.7 0 31.582 2.15 47.196 6.564 0.412 0.107 0.817 0.23 1.219 0.365 0.402-0.135 0.809-0.257 1.216-0.365 15.62-4.411 31.497-6.564 47.199-6.564 44.020 0 86.625 16.903 117.95 48.228 42.588 42.591 58.515 106.014 41.562 165.521-1.853 6.494-6.926 11.569-13.419 13.419zM453.887 280.464c0 42.476 22.009 82.37 58.113 106.528 36.105-24.156 58.116-64.052 58.116-106.528 0-7.011-0.589-14.016-1.753-20.905-9.803-6.266-18.991-13.617-27.373-21.996-3.322-3.324-6.484-6.773-9.476-10.337v53.238c0 10.774-8.739 19.513-19.513 19.513s-19.511-8.739-19.511-19.513v-53.236c-2.997 3.562-6.154 7.013-9.476 10.332-8.382 8.382-17.568 15.73-27.373 21.996-1.166 6.888-1.753 13.894-1.753 20.907zM373.232 127.78c-30.037 30.038-42.683 73.808-34.234 116.421 42.611 8.452 86.384-4.198 116.42-34.234 24.156-24.159 37.066-57.204 36.797-91.388l-64.092 64.092c-7.623 7.618-19.973 7.618-27.596 0-7.62-7.62-7.62-19.975 0-27.596l64.095-64.097c-34.179-0.272-67.232 12.64-91.39 36.802zM650.772 127.78c-24.161-24.159-57.209-37.069-91.388-36.797l64.095 64.092c7.618 7.62 7.618 19.975 0 27.598-7.623 7.618-19.973 7.618-27.598 0l-64.090-64.092c-0.272 34.182 12.638 67.227 36.794 91.388 30.038 30.036 73.813 42.683 116.421 34.234 8.449-42.616-4.198-86.388-34.234-116.424z" />
<glyph unicode="&#xe903;" glyph-name="pin" d="M466.824 18.824c-97.882 122.35-316.235 414.118-316.235 579.765 0 199.529 160 361.412 361.412 361.412 199.529 0 361.412-161.882 361.412-361.412 0-165.647-220.235-457.415-318.118-579.765-22.588-28.238-65.882-28.238-88.471 0zM512 478.118c65.882 0 120.471 52.706 120.471 120.471 0 65.882-54.588 120.471-120.471 120.471-67.765 0-120.471-54.588-120.471-120.471 0-67.765 52.706-120.471 120.471-120.471z" />
<glyph unicode="&#xe904;" glyph-name="pinterest" d="M517.333 895.733c175.467 0 336-121.333 336-306.133 0-173.6-89.6-367.733-287.467-367.733-48.534 0-106.4 24.269-130.666 67.2-41.066-168.003-39.2-194.135-132.534-322.934-9.333-3.734-7.466-3.734-13.066 3.734-3.734 35.465-7.467 69.065-7.467 104.53 0 113.869 52.267 280.003 78.4 390.136-14.933 29.867-18.667 63.467-18.667 95.2 0 149.333 175.466 171.733 175.466 48.534 0-72.8-50.4-141.867-50.4-212.8 0-46.666 41.067-80.267 87.734-80.267 128.8 0 168 184.8 168 283.733 0 132.533-93.334 205.333-222.134 205.333-147.466 0-261.333-106.4-261.333-255.733 0-72.8 44.8-110.133 44.8-126.934 0-14.933-11.201-65.333-29.867-65.333-44.8 0-117.6 74.667-117.6 205.333 0 207.2 188.533 334.134 380.8 334.134z" />
<glyph unicode="&#xe905;" glyph-name="plaster" d="M639.265 688.385c-11.3 11.298-26.367 17.524-42.421 17.524s-31.12-6.224-42.421-17.524l-282.811-282.808c-11.298-11.3-17.524-26.367-17.524-42.421s6.224-31.12 17.524-42.421l113.125-113.125c11.696-11.694 27.056-17.542 42.421-17.542 15.362 0 30.727 5.848 42.421 17.542l282.811 282.808c23.39 23.39 23.39 61.451 0 84.844l-113.125 113.122zM724.107 518.699l-282.808-282.808c-7.798-7.796-20.487-7.796-28.281 0l-113.125 113.125c-7.796 7.796-7.796 20.485 0 28.281l282.811 282.811c3.896 3.898 9.018 5.846 14.14 5.846 5.12 0 10.242-1.95 14.14-5.846l113.125-113.122c7.794-7.801 7.794-20.489-0.002-28.285zM448.364 327.81c-7.81 7.807-20.466 7.805-28.278-0.005-7.807-7.81-7.805-20.478 0.005-28.287 3.905-3.905 9.023-5.857 14.14-5.857s10.238 1.952 14.14 5.857c7.81 7.81 7.81 20.473 0 28.283l-0.007 0.009zM391.803 384.373c-7.81 7.81-20.466 7.805-28.278-0.007-7.807-7.807-7.803-20.478 0.005-28.285 3.907-3.907 9.023-5.857 14.14-5.857s10.238 1.95 14.14 5.857c7.81 7.807 7.81 20.471 0 28.283l-0.007 0.009zM519.721 397.824c-7.427 8.172-20.070 8.77-28.244 1.34-8.172-7.43-8.77-20.082-1.34-28.256 3.948-4.342 9.366-6.544 14.802-6.544 4.799 0 9.616 1.718 13.446 5.202 8.174 7.427 8.777 20.077 1.347 28.249l-0.011 0.009zM462.504 455.077c-7.81 7.807-20.466 7.805-28.278-0.007-7.807-7.81-7.805-20.478 0.005-28.287 3.905-3.905 9.023-5.857 14.14-5.857s10.238 1.952 14.14 5.857c7.81 7.81 7.81 20.473 0 28.283l-0.007 0.011zM589.767 469.213c-7.807 7.81-20.464 7.803-28.276-0.007-7.81-7.807-7.805-20.475 0.005-28.285 3.905-3.905 9.023-5.857 14.14-5.857s10.238 1.952 14.14 5.857c7.81 7.81 7.81 20.471 0 28.283l-0.009 0.009zM660.471 539.919c-7.81 7.81-20.466 7.803-28.276-0.007-7.812-7.81-7.805-20.478 0.005-28.285 3.905-3.907 9.023-5.857 14.14-5.857 5.115 0 10.235 1.95 14.14 5.857 7.807 7.807 7.807 20.471 0 28.281l-0.009 0.011zM532.528 526.425l-0.011 0.009c-8.169 7.43-20.812 6.824-28.244-1.349-7.427-8.172-6.82-20.826 1.352-28.253 3.832-3.482 8.645-5.2 13.446-5.2 5.439 0 10.857 2.205 14.802 6.544 7.43 8.172 6.829 20.819-1.345 28.249zM604.563 595.788c-7.427 8.172-20.073 8.768-28.244 1.34-8.172-7.43-8.77-20.082-1.34-28.256 3.948-4.342 9.366-6.544 14.802-6.544 4.799 0 9.616 1.718 13.446 5.202 8.174 7.427 8.775 20.077 1.347 28.249l-0.011 0.009zM834.235 448l155.316 155.313c45.934 45.934 45.934 120.677 0 166.613l-155.623 155.623c-45.937 45.934-120.677 45.934-166.612 0l-155.316-155.315-155.316 155.315c-45.937 45.934-120.677 45.932-166.612 0l-155.623-155.623c-45.934-45.935-45.934-120.678 0-166.613l155.315-155.313-155.315-155.316c-45.934-45.934-45.934-120.677 0-166.612l155.621-155.621c22.967-22.967 53.139-34.452 83.306-34.452 30.169 0 60.339 11.485 83.306 34.452l155.316 155.313 155.316-155.313c22.967-22.967 53.134-34.452 83.306-34.452 30.169 0 60.339 11.485 83.308 34.452l155.621 155.621c45.934 45.937 45.934 120.677 0 166.612l-155.313 155.316zM62.732 631.596c-14.622 14.623-22.673 34.163-22.673 55.023 0 20.862 8.051 40.405 22.673 55.026l155.623 155.623c14.623 14.622 34.161 22.673 55.025 22.673 20.862 0 40.402-8.051 55.023-22.673l155.316-155.315-265.674-265.673-155.313 155.316zM328.404-1.267c-30.34-30.342-79.708-30.342-110.048 0l-155.621 155.621c-30.34 30.34-30.34 79.708 0 110.048l632.862 632.865c15.171 15.172 35.094 22.755 55.025 22.755 19.925 0 39.856-7.587 55.025-22.755l155.623-155.623c14.62-14.622 22.674-34.162 22.674-55.026 0-20.86-8.053-40.402-22.674-55.023l-632.866-632.862zM961.267 154.353l-155.621-155.621c-30.34-30.342-79.708-30.342-110.050 0l-155.316 155.313 265.671 265.673 155.316-155.316c30.342-30.34 30.342-79.708 0-110.050z" />
<glyph unicode="&#xe906;" glyph-name="play" d="M885.7 548.027l-659.654 390.090c-13.629 8.232-29.208 12.677-45.129 12.876s-31.606-3.855-45.436-11.744c-13.83-7.889-25.304-19.327-33.237-33.132s-12.036-29.478-11.887-45.399v-779.779c0.004-15.86 4.206-31.437 12.178-45.152 7.972-13.71 19.43-25.064 33.212-32.919 13.781-7.849 29.394-11.915 45.254-11.776s31.401 4.469 45.046 12.553l659.654 389.796c13.463 7.944 24.618 19.261 32.37 32.835s11.83 28.933 11.83 44.564c0 15.63-4.078 30.991-11.83 44.564s-18.908 24.891-32.37 32.835v-0.213z" />
<glyph unicode="&#xe907;" glyph-name="plus" d="M987.429 448c0-41.143-34.289-75.429-73.143-75.429h-329.143v-329.139c0-38.861-34.286-70.861-73.143-70.861-41.143 0-73.143 32-73.143 70.861v329.139h-329.143c-41.143 0-73.143 34.286-73.143 75.429 0 38.857 32 70.857 73.143 70.857h329.143v329.143c0 41.143 32 75.429 73.143 75.429 38.857 0 73.143-34.286 73.143-75.429v-329.143h329.143c38.853 2.286 73.143-32 73.143-70.857z" />
<glyph unicode="&#xe908;" glyph-name="prev" d="M994.945 421.053c0-37.894-29.47-67.368-65.261-67.368h-646.316l221.053-223.157c27.368-25.266 27.368-69.476 0-94.736-12.632-12.633-29.474-18.949-46.316-18.949-18.947 0-35.789 6.316-48.421 18.949l-336.842 336.84c-27.368 25.263-27.368 69.474 0 94.737l336.842 336.842c25.263 27.368 69.474 27.368 94.737 0 27.368-25.264 27.368-69.474 0-94.737l-221.053-221.052h646.316c35.791 0 65.261-31.579 65.261-67.368z" />
<glyph unicode="&#xe909;" glyph-name="quaity-care" d="M756.85 559.598l17.576 17.576c23.393 23.393 23.393 61.456 0 84.846-11.332 11.332-26.396 17.574-42.423 17.574s-31.093-6.242-42.423-17.572l-17.576-17.579-17.576 17.579c-23.395 23.393-61.458 23.39-84.849 0-23.39-23.393-23.39-61.454 0-84.846l17.579-17.576-17.579-17.579c-23.393-23.39-23.393-61.454 0-84.846 23.395-23.39 61.456-23.393 84.849 0l17.576 17.576 17.576-17.579c11.696-11.696 27.061-17.545 42.423-17.545 15.365 0 30.727 5.848 42.423 17.545 11.332 11.332 17.572 26.399 17.572 42.423 0 16.027-6.242 31.093-17.572 42.423l-17.576 17.579zM714.42 545.457l31.721-31.719c3.775-3.775 5.855-8.795 5.855-14.138 0-5.341-2.080-10.363-5.855-14.138-7.794-7.796-20.482-7.796-28.278 0l-31.719 31.719c-3.75 3.75-8.836 5.86-14.14 5.86s-10.392-2.109-14.143-5.86l-31.719-31.717c-7.796-7.796-20.482-7.796-28.278 0s-7.796 20.482 0 28.278l31.719 31.719c3.75 3.75 5.857 8.838 5.857 14.143s-2.107 10.392-5.857 14.143l-31.717 31.717c-7.796 7.796-7.796 20.482 0 28.278 7.796 7.798 20.48 7.796 28.276 0l31.719-31.717c7.81-7.812 20.473-7.812 28.285 0l31.719 31.717c3.775 3.777 8.797 5.857 14.138 5.857s10.363-2.082 14.138-5.857c3.777-3.775 5.855-8.797 5.855-14.138s-2.080-10.361-5.855-14.138l-31.719-31.717c-7.812-7.819-7.812-20.48-0.002-28.292zM412.001 820c0 11.046-8.954 20-20 20h-20v100c0 11.046-8.954 20-20 20h-199.999c-11.046 0-20-8.954-20-20v-100h-20c-11.046 0-20-8.954-20-20v-100.001c0-11.046 8.954-20 20-20h20v-644c0-66.166 53.832-119.999 120-119.999s119.999 53.833 119.999 119.999v644h20c11.046 0 20 8.954 20 20v100.001zM172.002 920h159.999v-80h-159.999v80zM252-24c-44.112 0-80 35.888-80 79.999v507.781c27.486 4.933 47.782 0.835 70.782-3.814 16.938-3.422 35.17-7.107 57.090-7.107 9.886 0 20.522 0.749 32.127 2.608v-499.471c0.002-44.112-35.887-79.997-79.999-79.997zM332.001 596.091c-33.495-6.576-56.794-1.868-81.294 3.083-23.334 4.717-47.308 9.562-78.706 5.12v95.705h159.999v-103.909zM372.001 740h-239.999v60h239.999v-60zM672.001 819.597c-143.365 0-260-116.635-260-260 0-45.104 11.653-89.243 33.772-128.209-6.19-23.070-12.379-46.146-18.575-69.261-3.62-13.585 0.196-27.591 10.21-37.458 9.862-9.719 24.214-13.455 37.49-9.767 22.963 6.155 45.925 12.313 68.883 18.473 38.976-22.128 83.115-33.781 128.221-33.781 143.365 0 260 116.636 260 260s-116.636 260.002-260 260.002zM672.001 339.597c-40.653 0-80.361 11.175-114.836 32.322-3.177 1.948-6.799 2.951-10.458 2.951-1.734 0-3.475-0.225-5.181-0.68-25.029-6.715-50.051-13.428-75.082-20.136 6.711 25.042 13.424 50.062 20.139 75.084 1.422 5.304 0.603 10.957-2.269 15.64-21.14 34.468-32.313 74.172-32.313 114.822 0 121.31 98.691 220.001 219.998 220.001s220.001-98.691 220.001-220.001c0-121.308-98.691-220.003-219.998-220.003z" />
<glyph unicode="&#xe90a;" glyph-name="quaity-care-2" d="M771.998 960h-519.997c-33.084 0-60-26.916-60-60v-904.001c0-33.084 26.916-60 60-60h519.997c33.084 0 60.002 26.915 60.002 60v904.001c0 33.084-26.918 60-60.002 60zM232.001 840h143.425c8.254-23.282 30.498-40 56.574-40h159.999c26.073 0 48.317 16.718 56.57 40h143.428v-784.001h-559.997v784.001zM252.001 920h519.997c11.030 0 20-8.972 20-20v-20h-160.001c-11.043 0-20-8.954-20-20 0-11.028-8.97-20-19.998-20h-159.999c-11.027 0-20 8.972-20 20 0 11.046-8.954 20-20 20h-159.999v20c0 11.028 8.972 20 20 20zM771.998-24h-519.997c-11.028 0-20 8.973-20 20v20h559.997v-20c0-11.027-8.97-20-20-20zM731.998 760h-439.999c-11.046 0-20-8.954-20-20v-623.997c0-11.048 8.954-20 20-20h439.999c11.043 0 20 8.952 20 20v623.997c0 11.044-8.954 20-20 20zM711.999 136.001h-399.999v583.999h399.999v-583.999zM391.999 358.002h50.001v-49.999c0-11.046 8.954-20 20-20h99.999c11.043 0 20 8.954 20 20v49.999h50.001c11.043 0 20 8.954 20 20.002v99.999c0 11.046-8.957 20-20 20h-50.001v50.001c0 11.046-8.957 20-20 20h-99.999c-11.046 0-20-8.954-20-20v-50.001h-50.001c-11.046 0-20-8.954-20-20v-99.999c0-11.048 8.954-20.002 20-20.002zM411.998 458.003h50.001c11.046 0 20 8.954 20 20v49.999h60v-49.999c0-11.046 8.957-20 20-20h50.001v-60h-50.001c-11.043 0-20-8.954-20-20v-50.001h-60v50.001c0 11.046-8.954 20-20 20h-50.001v60z" />
<glyph unicode="&#xe90b;" glyph-name="quaity-care-3" d="M492.294 753.53c23.126 8.338 39.706 30.502 39.706 56.468 0 26.074-16.721 48.316-40 56.572v33.43c0 33.084-26.915 60-60 60h-120.001c-33.084 0-60-26.916-60-60v-33.432c-23.28-8.254-40-30.498-40-56.572 0-25.964 16.578-48.13 39.706-56.466-2.728-47.864-24.144-77.321-48.682-111.079-33.292-45.791-71.024-97.694-71.024-202.454v-443.997c0-33.084 26.916-60 60-60h360.002c33.082 0 59.997 26.915 59.997 60v443.997c0 104.757-37.731 156.661-71.022 202.454-24.54 33.756-45.955 63.215-48.683 111.079zM452.433 749.998c2.938-46.965 20.519-79.811 40.639-109.236-51.339-9.439-87.354-2.16-125.185 5.484-32.399 6.547-65.625 13.262-107.567 8.913 15.968 25.875 28.778 55.373 31.248 94.838h160.865zM312 920h120.001c11.027 0 20-8.972 20-20v-30.004h-160v30.004c0 11.028 8.972 20 20 20zM272 829.998h200c11.027 0 20-8.972 20-20s-8.973-20-20-20h-200c-11.028 0-20 8.972-20 20s8.972 20 20 20zM572-4c0-11.027-8.97-20-19.998-20h-360.002c-11.028 0-20 8.973-20 20v443.997c0 84.5 27.324 128.769 55.982 168.717 54.446 13.992 92.128 6.381 131.981-1.673 25.404-5.136 52.747-10.663 85.556-10.661 21.613 0 45.598 2.401 72.959 8.888 27.739-39.074 53.521-83.194 53.521-165.271v-443.997zM492 368.64h-50.001v49.999c0 11.046-8.954 20-20 20h-100c-11.044 0-20-8.954-20-20v-49.999h-50c-11.044 0-20-8.954-20-20.002v-99.999c0-11.046 8.956-20 20-20h50v-50.001c0-11.046 8.956-20 20-20h100c11.046 0 20 8.954 20 20v50.001h50.001c11.043 0 20 8.954 20 20v99.999c0 11.048-8.957 20.002-20 20.002zM472 268.638h-50.001c-11.043 0-20-8.954-20-20v-50.001h-60v50.001c0 11.046-8.956 20-20 20h-50v60h50c11.044 0 20 8.954 20 20v50.001h60v-50.001c0-11.046 8.957-20 20-20h50.001v-60zM892 701.499c0 84.969-59.872 180.001-139.999 180.001s-139.999-95.032-139.999-180.001c0-59.615 28.986-106.307 78.331-127.695l-8.331-488.965c-0.312-18.437 6.729-35.926 19.831-49.252 13.175-13.398 31.46-21.085 50.169-21.085 18.707 0 36.991 7.687 50.165 21.088 13.103 13.326 20.143 30.818 19.831 49.252l-8.331 488.965c49.345 21.388 78.331 68.080 78.331 127.693zM787.465 606.688c-8.472-2.649-14.186-10.559-14.036-19.431l8.57-503.098c0.132-7.623-2.838-14.914-8.358-20.528-5.705-5.8-13.594-9.13-21.643-9.13-8.051 0-15.938 3.329-21.643 9.127-5.52 5.616-8.49 12.907-8.36 20.53l8.572 503.098c0.15 8.872-5.561 16.784-14.033 19.431-41.015 12.816-64.535 47.375-64.535 94.811 0 33.487 11.742 69.879 31.407 97.355 11.405 15.928 35.478 42.646 68.594 42.646 33.118 0 57.189-26.72 68.59-42.646 19.668-27.474 31.409-63.868 31.409-97.355 0-47.436-23.525-81.995-64.535-94.811z" />
<glyph unicode="&#xe90c;" glyph-name="quaity-care-4" d="M791.998 960h-559.999c-33.084 0-60-26.916-60-60v-719.997c0-33.084 26.916-60 60-60h60v-60c0-26.076 16.72-48.319 40-56.573v-47.429c0-11.046 8.956-20 20-20s20 8.954 20 20v47.429c23.279 8.253 40 30.497 40 56.573v60h199.999v-60c0-33.084 26.918-60 60.002-60s59.997 26.915 59.997 60v60h60.002c33.084 0 60 26.915 60 60v719.997c0 33.084-26.915 60-60 60zM411.998 920h199.999v-20c0-11.028-8.97-20-19.998-20h-160.001c-11.027 0-20 8.972-20 20v20zM811.998 180.003c0-11.027-8.97-20-20-20h-80.002c-11.043 0-20-8.954-20-20v-79.999c0-11.030-8.97-20-20-20-11.027 0-20 8.97-20 20v79.999c0 11.046-8.954 20-20 20h-239.998c-11.044 0-20-8.954-20-20v-79.999c0-11.030-8.972-20-20-20s-20 8.97-20 20v79.999c0 11.046-8.956 20-20 20h-80c-11.028 0-20 8.973-20 20v719.997c0 11.028 8.972 20 20 20h139.999v-20c0-33.084 26.915-60 60-60h160.001c33.084 0 59.997 26.916 59.997 60v20h140.001c11.030 0 20-8.972 20-20v-719.997zM764.175 755.868c-4.931 3.786-11.348 5.060-17.351 3.452-106.319-28.487-173.008-15.006-243.612-0.74-67.022 13.544-136.327 27.552-236.389 0.74-8.742-2.344-14.824-10.268-14.824-19.32v-479.997c0-33.084 26.916-60 60-60h399.997c33.087 0 60.002 26.915 60.002 60v479.997c0 6.218-2.89 12.082-7.823 15.868zM731.998 260.003c0-11.030-8.97-20-20.002-20h-399.997c-11.028 0-20 8.97-20 20v464.389c83.006 19.291 141.528 7.464 203.292-5.020 66.646-13.467 135.386-27.364 236.708-4.865v-454.504zM527.076 620.442c-3.798 4.358-9.296 6.859-15.076 6.859-5.782 0-11.278-2.501-15.076-6.859-2.517-2.885-5.211-5.948-8.046-9.161-34.902-39.604-87.645-99.453-87.645-153.211 0-61.080 49.691-110.769 110.769-110.769s110.769 49.689 110.769 110.769c0 53.76-52.75 113.614-87.652 153.22-2.838 3.213-5.532 6.269-8.044 9.152zM511.998 387.3c-39.021 0-70.77 31.749-70.77 70.77 0 35.728 41.545 85.568 70.77 118.932 29.227-33.364 70.772-83.206 70.772-118.932 0-39.024-31.749-70.77-70.772-70.77z" />
<glyph unicode="&#xe90d;" glyph-name="quote" d="M247.026 19.932c-61.975 0.068-121.394 24.717-165.217 68.541s-68.474 103.242-68.542 165.218v1.17c0 0.77-0.1 1.928-0.186 3.456-4.797 84.891 9.080 314.097 240.984 607.791 2.089 2.638 5.040 4.453 8.338 5.126 3.296 0.673 6.724 0.16 9.679-1.448s5.247-4.208 6.472-7.342c1.226-3.134 1.304-6.599 0.224-9.785-0.658-1.942-64.034-191.785-20.732-365.495 60.991-2.862 118.443-29.475 160.067-74.146 41.623-44.672 64.117-103.856 62.67-164.898-1.448-61.040-26.722-119.093-70.415-161.742-43.696-42.649-102.343-66.508-163.401-66.477l0.057 0.029zM41.822 252.878c0.158-40.55 12.327-80.147 34.971-113.788 22.644-33.639 54.748-59.818 92.258-75.227s78.744-19.358 118.498-11.35c39.752 8.008 76.241 27.614 104.861 56.344 28.618 28.731 48.082 65.295 55.936 105.079 7.852 39.785 3.743 81.003-11.812 118.452-15.555 37.451-41.857 69.452-75.586 91.965-33.727 22.513-73.37 34.528-113.922 34.528-3.126 0.002-6.165 1.029-8.652 2.924s-4.281 4.556-5.11 7.569c-32.838 119.501-16.733 244.853-0.414 320.922-183.946-257.673-195.497-454.356-191.199-530.38 0.194-2.342 0.251-4.693 0.171-7.040zM777.936 19.932c-61.976 0.068-121.394 24.717-165.218 68.541-43.822 43.824-68.473 103.242-68.541 165.218v1.17c0 0.77-0.099 1.928-0.185 3.456-4.797 84.891 9.081 314.097 240.985 607.791 2.087 2.638 5.040 4.453 8.337 5.126s6.726 0.16 9.681-1.448c2.955-1.608 5.247-4.208 6.472-7.342s1.304-6.599 0.223-9.785c-0.657-1.942-64.033-191.785-20.73-365.495 60.991-2.862 118.443-29.475 160.066-74.146 41.625-44.672 64.119-103.856 62.67-164.898-1.447-61.040-26.72-119.093-70.415-161.742s-102.341-66.508-163.4-66.477l0.057 0.029zM572.731 252.878c0.158-40.55 12.327-80.147 34.97-113.788 22.645-33.639 54.748-59.818 92.258-75.227s78.746-19.358 118.498-11.35c39.754 8.008 76.242 27.614 104.861 56.344s48.084 65.295 55.936 105.079c7.854 39.785 3.743 81.003-11.81 118.452-15.555 37.451-41.857 69.452-75.586 91.965s-73.37 34.528-113.922 34.528c-3.126 0.002-6.167 1.029-8.652 2.924-2.487 1.895-4.283 4.556-5.11 7.569-32.838 119.501-16.733 244.853-0.414 320.922-183.946-257.673-195.511-454.356-191.213-530.38 0.198-2.341 0.26-4.691 0.185-7.040z" />
<glyph unicode="&#xe90e;" glyph-name="quote-2" d="M530.879 76.4c-12.745 0-17.701 7.414-17.701 23.168v63.015c0.707 12.047 3.54 24.094 8.496 35.215l355.435 611.62c5.664 11.12 17.701 14.827 26.904 7.413l97.71-69.502c7.080-7.414 8.496-16.68 5.664-32.434l-135.943-616.253c-2.124-12.047-9.912-20.387-19.825-20.387h-320.74v-1.854zM26.756 76.4c-12.745 0-17.701 7.414-17.701 23.168v63.015c0.708 12.047 3.54 24.094 8.497 35.215l355.435 611.62c5.664 11.12 17.701 14.827 26.904 7.414l99.126-69.502c7.080-7.414 8.496-16.68 5.664-32.434l-135.943-616.253c-2.124-12.975-11.329-21.315-21.241-20.387h-320.741v-1.854z" />
<glyph unicode="&#xe90f;" glyph-name="right-arrow" d="M1009.721 396.389h-995.54v85.333h995.54v-85.333zM967.122 481.722c-200.676 0-364.658-176.475-364.658-364.656v-42.667h85.333v42.667c0 142.876 127.579 279.323 279.324 279.323h42.644v85.333h-42.644zM967.122 396.395c-200.676 0-364.658 176.477-364.658 364.661v42.667h85.333v-42.667c0-142.881 127.579-279.327 279.324-279.327h42.644v-85.333h-42.644z" />
<glyph unicode="&#xe910;" glyph-name="search" d="M939.002 103.002c26.246-28 26.246-71.75 0-99.75-28-26.253-71.75-26.253-99.75 0l-208.251 209.997c-71.75-47.245-159.251-71.75-253.75-59.501-161 22.752-290.5 154.003-311.5 313.253-29.75 237.999 171.5 439.25 409.5 409.5 159.25-21 290.497-150.5 313.249-311.5 12.25-94.5-12.25-181.999-59.501-252l210.003-209.998zM202.25 516c0-124.25 99.75-224 224-224 122.5 0 224.003 99.75 224.003 224 0 122.5-101.503 224-224.003 224-124.25 0-224-101.5-224-224z" />
<glyph unicode="&#xe911;" glyph-name="star" d="M677.336 626.722l254.225-37.333c21.333-3.556 39.111-17.778 46.222-39.111 7.111-19.556 1.775-42.667-14.222-56.889l-184.889-183.111 44.442-259.556c3.556-21.333-5.33-42.667-23.108-55.108-17.778-14.222-40.892-14.222-60.444-5.336l-227.558 122.67-229.333-122.67c-17.778-8.886-42.667-8.886-58.667 5.336-17.778 12.442-26.667 33.775-23.111 55.108l42.667 259.556-184.889 183.111c-16 14.222-21.333 37.333-14.222 56.889 7.111 21.333 24.889 35.556 46.222 39.111l256 37.333 113.778 236.444c8.889 19.556 28.444 32 51.556 32 21.333 0 40.889-12.444 49.778-32l115.555-236.444z" />
<glyph unicode="&#xe912;" glyph-name="teeth" d="M925.671 551.639c-15.944 0-30.43 8.199-38.255 22.351l-17.525 31.886c-12.902 23.395-43.747 34.674-71.47 26.182-53.033-16.067-99.613 6.579-128.085 62.024-14.985 29.18-41.584 54.488-86.166 82.003-14.985 9.241-25.64 23.81-29.221 40.002-3.412 15.36-0.25 31.428 8.909 45.289 32.968 49.951 92.827 80.879 156.222 80.879 137.74 0 249.799-102.691 249.799-228.943v-119.965c0-19.066-12.987-35.218-32.219-40.171-4.039-1.041-8.077-1.538-11.988-1.538zM817.734 676.557c36.632 0 71.138-18.772 88.663-50.618l17.525-31.844h4.328v119.218c0 103.274-93.366 187.317-208.172 187.317-49.577 0-96.114-23.768-121.381-62.023-3.079-4.704-4.121-9.074-3.079-13.529 1.124-5.161 5.035-10.24 10.447-13.57 34.591-21.396 77.382-51.866 101.319-98.404 19.521-37.922 45.246-51.533 79.005-41.209 10.407 3.162 20.98 4.66 31.344 4.66zM696.412-56.765c-48.578 0-90.247 34.466-99.113 81.92l-44.539 233.854c-5.287 29.389-31.22 50.536-61.565 50.536s-56.278-21.147-61.522-50.286l-44.581-234.146c-8.866-47.411-50.536-81.878-99.113-81.878-52.115 0-95.365 38.63-100.609 89.87l-17.483 159.719c-6.119 58.528-18.44 115.887-36.548 170.543l-33.8 104.605c-28.764 88.206-43.416 180.574-43.416 274.482 0 87.207 71.514 158.179 159.428 158.179 64.354 0 126.835-15.776 194.27-48.245 53.698-25.891 105.355-27.099 158.136-3.497 10.49 4.662 22.813-0.042 27.473-10.49 4.705-10.49 0-22.811-10.49-27.515-63.728-28.472-128.707-27.099-193.186 4.038-61.69 29.638-118.217 44.082-172.872 44.082-68.267 0-121.132-52.282-121.132-116.553 0-89.495 13.945-177.534 41.418-261.62l33.759-104.523c18.981-57.361 31.927-117.678 38.379-179.075l17.483-159.761c3.080-30.053 28.514-52.614 59.191-52.614 28.557 0 52.991 20.145 58.193 47.953l44.542 234.021c8.866 48.785 51.949 84.333 102.482 84.333s93.616-35.548 102.482-84.542l44.499-233.729c5.202-27.89 29.679-48.036 58.236-48.036 30.678 0 56.153 22.56 59.232 52.489l17.483 159.969c6.454 61.315 19.399 121.631 38.422 179.118l33.717 104.316c13.027 40.001 22.853 80.796 30.053 124.753 1.873 11.364 12.695 18.939 23.894 17.191 11.321-1.873 19.021-12.57 17.148-23.894-7.533-46.080-17.858-88.871-31.509-130.912l-33.76-104.441c-18.15-54.821-30.428-112.183-36.589-170.626l-17.483-159.926c-5.245-51.033-48.495-89.662-100.609-89.662z" />
<glyph unicode="&#xe913;" glyph-name="teeth-2" d="M666.569-44.696c-40.753 0-75.926 29.306-83.753 69.724l-35.38 191.645c-4.039 22.228-23.062 38.34-45.291 38.34s-41.25-16.112-45.288-38.255l-35.423-191.605c-7.785-40.543-43.001-69.849-83.711-69.849-43.75 0-80.004 33.135-84.375 77.052l-13.696 130.62c-5.328 47.456-15.11 94.325-29.18 139.157l-26.974 85.249c-4.288 13.612-8.075 27.183-11.905 41.21-1.707 6.204-0.416 12.947 3.538 18.107 3.954 5.162 9.99 8.117 16.484 8.117h621.061c6.494 0 12.613-2.997 16.524-8.157 3.914-5.162 5.245-11.863 3.539-18.107-3.829-14.029-7.66-27.598-11.906-41.17l-27.014-85.374c-14.029-44.746-23.812-91.618-29.139-139.239l-13.694-130.54c-4.413-43.79-40.67-76.925-84.418-76.925zM502.145 296.638c42.376 0 78.633-30.47 86.251-72.472l35.34-191.436c4.036-20.69 22.018-35.8 42.833-35.8 22.228 0 40.75 16.983 42.998 39.546l13.697 130.787c5.62 50.368 15.984 99.86 30.802 147.274l27.056 85.417c1.374 4.371 2.707 8.824 4.039 13.237h-566.072c1.29-4.413 2.622-8.866 4.038-13.28l27.014-85.292c14.86-47.496 25.225-96.988 30.845-147.189l13.697-130.872c2.288-22.645 20.812-39.629 43.040-39.629 20.812 0 38.837 15.11 42.833 35.965l35.383 191.356c7.575 41.917 43.832 72.387 86.206 72.387zM822.242 662.948h-107.063c-23.767 0-45.163 13.195-55.86 34.466l-18.607 37.297c-3.539 7.118-10.657 11.489-18.607 11.489h-239.933c-7.91 0-15.068-4.412-18.607-11.53l-18.607-37.215c-10.615-21.269-32.051-34.506-55.863-34.506h-106.645c-9.949 0-18.523 7.076-20.438 16.859-9.116 47.245-13.695 94.782-13.695 141.32 0 73.428 59.192 133.203 131.954 133.203 51.367 0 103.357-13.445 156.972-40.044 43.665-21.646 86.083-21.646 129.748 0 53.655 26.599 105.647 40.044 154.517 40.044 38.128 0 71.388-13.903 96.071-39.129 24.726-25.309 38.38-58.734 38.38-94.075 0-45.622-4.413-93.076-13.195-141.113-1.833-9.865-10.45-17.066-20.522-17.066zM382.172 787.825h239.933c23.809 0 45.246-13.237 55.86-34.55l18.607-37.214c3.539-7.077 10.7-11.49 18.607-11.49h89.498c6.451 39.712 9.656 78.841 9.656 116.554 0 24.434-9.448 47.495-26.557 64.978-16.776 17.108-39.419 26.599-63.77 26.599-44.916 0-90.704-12.030-138.532-35.715-55.279-27.39-111.391-27.39-166.67 0-47.828 23.685-93.619 35.715-136.035 35.715-52.282 0-92.826-41.085-92.826-91.577 0-38.379 3.33-77.466 9.907-116.554h89.245c7.952 0 15.070 4.371 18.607 11.448l18.607 37.297c10.7 21.312 32.094 34.508 55.863 34.508zM689.464 413.191c-8.702 0-16.819 5.535-19.773 14.236l-32.136 96.406c-2.787 8.532-10.74 14.236-19.731 14.236h-231.357c-8.991 0-16.901-5.704-19.731-14.236l-32.136-96.406c-3.661-10.949-15.4-16.901-26.349-13.155-10.904 3.664-16.774 15.445-13.152 26.349l32.134 96.406c8.492 25.518 32.303 42.666 59.235 42.666h231.399c26.891 0 50.743-17.148 59.235-42.666l32.134-96.406c3.621-10.904-2.288-22.685-13.152-26.349-2.248-0.749-4.413-1.081-6.619-1.081z" />
<glyph unicode="&#xe914;" glyph-name="teeth-3" d="M398.074 746.195c-11.489 0-20.815 9.324-20.815 20.813v41.626c0 11.447-9.323 20.813-20.812 20.813h-208.13c-11.489 0-20.813-9.366-20.813-20.813v-41.626c0-11.489-9.324-20.813-20.813-20.813s-20.813 9.324-20.813 20.813v41.626c0 34.425 28.014 62.439 62.439 62.439h208.13c34.424 0 62.439-28.014 62.439-62.439v-41.626c0-11.489-9.323-20.813-20.812-20.813zM481.332-44.694h-457.885c-11.489 0-20.813 9.323-20.813 20.812v749.269c0 34.425 28.014 62.439 62.439 62.439h374.635c11.489 0 20.812-9.324 20.812-20.813s-9.323-20.813-20.812-20.813h-374.635c-11.489 0-20.813-9.366-20.813-20.813v-728.454h416.26v561.951c0 11.489 9.323 20.812 20.812 20.812s20.815-9.323 20.815-20.812v-582.766c0-11.489-9.326-20.812-20.815-20.812zM252.399 829.451c-11.489 0-20.813 9.324-20.813 20.813v83.252c0 11.489 9.324 20.813 20.813 20.813s20.812-9.324 20.812-20.813v-83.252c0-11.489-9.323-20.813-20.812-20.813zM627.033-44.694c-11.489 0-20.812 9.323-20.812 20.812v207.922c0 11.489 9.323 20.812 20.812 20.812s20.812-9.323 20.812-20.812v-207.922c0-11.489-9.323-20.812-20.812-20.812zM627.033 163.228c-45.913 0-83.251 37.339-83.251 83.251 0 45.915 37.339 83.251 83.251 83.251s83.251-37.336 83.251-83.251c0-45.913-37.339-83.251-83.251-83.251zM627.033 288.106c-22.935 0-41.627-18.649-41.627-41.627s18.692-41.624 41.627-41.624c22.935 0 41.627 18.647 41.627 41.624s-18.692 41.627-41.627 41.627zM314.838-44.696h-124.878c-11.489 0-20.813 9.326-20.813 20.815v208.129c0 11.489 9.324 20.812 20.813 20.812h124.878c11.489 0 20.812-9.323 20.812-20.812v-208.129c0-11.489-9.323-20.815-20.812-20.815zM210.772-3.070h83.253v166.505h-83.253v-166.505zM294.025 288.313h-83.253c-22.936 0-41.626 18.647-41.626 41.624v83.254c0 22.978 18.69 41.624 41.626 41.624h83.253c22.935 0 41.624-18.647 41.624-41.624v-83.254c0-22.978-18.689-41.624-41.624-41.624zM210.772 413.191v-83.254h83.253v83.254h-83.253zM294.025 496.448h-83.253c-22.936 0-41.626 18.647-41.626 41.624v83.254c0 22.978 18.69 41.624 41.626 41.624h83.253c22.935 0 41.624-18.647 41.624-41.624v-83.254c0-22.978-18.689-41.624-41.624-41.624zM210.772 621.326v-83.254h83.253v83.254h-83.253zM772.715-44.696h-749.268c-11.489 0-20.813 9.323-20.813 20.812s9.324 20.815 20.813 20.815h749.268c11.489 0 20.812-9.326 20.812-20.815s-9.323-20.812-20.812-20.812zM885.655 454.816c-31.012 0-57.861 20.565-63.77 48.952l-24.476 138.45c-1.916 9.199-12.573 16.566-24.686 16.566s-22.768-7.41-24.808-17.191l-24.269-137.201c-6.034-29.012-32.843-49.577-63.853-49.577-33.135 0-60.901 23.145-64.562 53.865l-9.491 79.63c-0.624 5.245-8.242 42.793-27.765 132.539-9.448 43.249-14.194 87.54-14.194 131.705 0 56.112 45.663 101.776 101.816 101.776 18.857 0 37.339-5.12 53.533-14.819 45.413-27.223 101.776-27.223 147.189 0 16.192 9.699 34.716 14.819 53.53 14.819 56.155 0 101.818-45.664 101.818-101.776 0-44.207-4.745-88.497-14.154-131.746-23.977-110.101-27.431-129.25-27.763-132.454l-9.491-79.715c-3.664-30.678-31.429-53.822-64.604-53.822zM772.723 700.411c31.929 0 59.527-21.189 65.561-50.368l24.476-138.407c1.748-8.367 11.656-15.193 22.895-15.193 11.906 0 22.103 7.535 23.227 17.108l9.533 79.715c0.415 3.372 1.456 12.405 28.43 136.366 8.741 40.336 13.195 81.67 13.195 122.88 0 33.218-26.974 60.191-60.191 60.191-11.279 0-22.393-3.080-32.094-8.908-58.65-35.174-131.454-35.174-190.022 0-9.74 5.828-20.855 8.908-32.136 8.908-33.218 0-60.191-26.974-60.191-60.15 0-41.168 4.456-82.503 13.197-122.838 17.858-82.045 27.431-128 28.43-136.45l9.491-79.672c1.166-9.616 11.364-17.151 23.27-17.151 11.239 0 21.144 6.826 23.018 15.86l24.269 137.159c6.119 29.803 33.717 50.95 65.643 50.95z" />
<glyph unicode="&#xe915;" glyph-name="teeth-4" d="M574.439 732.699c-11.489 0-20.812 9.324-20.812 20.813v83.252c0 34.425-28.015 62.439-62.439 62.439h-249.757c-34.425 0-62.439-28.014-62.439-62.439v-83.252c0-11.489-9.324-20.813-20.813-20.813s-20.813 9.324-20.813 20.813v83.252c0 57.361 46.663 104.065 104.065 104.065h249.757c57.401 0 104.063-46.704 104.063-104.065v-83.252c0-11.489-9.323-20.813-20.812-20.813zM491.188 25.058h-374.635c-57.402 0-104.065 46.704-104.065 104.066v541.137c0 57.361 46.663 104.066 104.065 104.066h499.513c57.401 0 104.063-46.704 104.063-104.066v-124.878c0-11.489-9.323-20.812-20.812-20.812s-20.812 9.323-20.812 20.812v124.878c0 34.426-28.015 62.44-62.439 62.44h-499.513c-34.425 0-62.439-28.013-62.439-62.44v-541.137c0-34.426 28.014-62.439 62.439-62.439h374.635c11.489 0 20.812-9.326 20.812-20.815s-9.323-20.812-20.812-20.812zM324.683 233.187h-291.382c-11.489 0-20.813 9.323-20.813 20.812s9.324 20.815 20.813 20.815h291.382c34.424 0 62.439 28.013 62.439 62.439v124.878c0 34.424-28.015 62.439-62.439 62.439h-291.382c-11.489 0-20.813 9.323-20.813 20.812s9.324 20.812 20.813 20.812h291.382c57.401 0 104.066-46.704 104.066-104.063v-124.878c0-57.361-46.664-104.066-104.066-104.066zM895.538-58.196c-31.012 0-57.861 20.605-63.77 48.952l-24.476 138.45c-1.958 9.156-12.613 16.524-24.726 16.524s-22.77-7.408-24.851-17.191l-24.226-137.159c-6.037-28.972-32.885-49.577-63.898-49.577-33.175 0-60.94 23.145-64.562 53.865l-9.491 79.672c-0.582 4.496-5.827 31.177-27.763 132.496-9.408 43.208-14.154 87.497-14.154 131.664 0 56.153 45.663 101.816 101.776 101.816 18.857 0 37.381-5.12 53.573-14.818 45.373-27.181 101.733-27.181 147.189 0 16.152 9.698 34.716 14.818 53.573 14.818 56.113 0 101.776-45.663 101.776-101.816 0-44.207-4.745-88.499-14.194-131.746-24.559-112.975-27.431-129.916-27.765-132.413l-9.491-79.715c-3.579-30.678-31.344-53.822-64.519-53.822zM782.566 187.399c31.884 0 59.482-21.147 65.561-50.286l24.476-138.447c1.788-8.409 11.696-15.235 22.935-15.235 11.863 0 22.061 7.535 23.27 17.151l9.448 79.672c0.957 8.407 10.532 54.279 28.43 136.367 8.784 40.336 13.197 81.628 13.197 122.88 0 33.175-26.974 60.191-60.151 60.191-11.321 0-22.436-3.082-32.094-8.909-58.608-35.133-131.412-35.133-190.022 0-9.698 5.827-20.812 8.909-32.136 8.909-33.258 0-60.231-26.974-60.231-60.191 0-41.21 4.411-82.504 13.195-122.84 18.939-87.372 27.431-128.165 28.43-136.449l9.491-79.672c1.166-9.573 11.364-17.108 23.227-17.108 11.239 0 21.147 6.826 23.062 15.86l24.226 137.159c6.201 29.803 33.799 50.95 65.686 50.95z" />
<glyph unicode="&#xe916;" glyph-name="teeth-5" d="M449.556-58.196h-291.382c-57.361 0-104.065 46.704-104.065 104.066v790.894c0 57.36 46.704 104.065 104.065 104.065h499.511c57.361 0 104.066-46.704 104.066-104.065v-333.009c0-11.489-9.323-20.812-20.812-20.812s-20.815 9.323-20.815 20.812v333.009c0 34.425-28.013 62.439-62.439 62.439h-499.511c-34.425 0-62.439-28.014-62.439-62.439v-790.894c0-34.424 28.014-62.439 62.439-62.439h291.382c11.489 0 20.812-9.323 20.812-20.812s-9.323-20.815-20.812-20.815zM241.426 691.073c-34.425 0-62.439 28.015-62.439 62.44s28.014 62.439 62.439 62.439c34.425 0 62.44-28.014 62.44-62.439s-28.015-62.44-62.44-62.44zM241.426 774.325c-11.489 0-20.813-9.324-20.813-20.813s9.324-20.813 20.813-20.813c11.489 0 20.813 9.324 20.813 20.813s-9.324 20.813-20.813 20.813zM241.426 482.941c-34.425 0-62.439 28.015-62.439 62.439 0 34.426 28.014 62.439 62.439 62.439s62.44-28.013 62.44-62.439c0-34.424-28.015-62.439-62.44-62.439zM241.426 566.195c-11.489 0-20.813-9.326-20.813-20.815s9.324-20.812 20.813-20.812c11.489 0 20.813 9.323 20.813 20.812s-9.324 20.815-20.813 20.815zM241.426 274.814c-34.425 0-62.439 28.015-62.439 62.439s28.014 62.439 62.439 62.439c34.425 0 62.44-28.015 62.44-62.439s-28.015-62.439-62.44-62.439zM241.426 358.065c-11.489 0-20.813-9.323-20.813-20.812s9.324-20.812 20.813-20.812c11.489 0 20.813 9.323 20.813 20.812s-9.324 20.812-20.813 20.812zM241.426 66.682c-34.425 0-62.439 28.015-62.439 62.439 0 34.426 28.014 62.439 62.439 62.439s62.44-28.013 62.44-62.439c0-34.424-28.015-62.439-62.44-62.439zM241.426 149.936c-11.489 0-20.813-9.326-20.813-20.815s9.324-20.812 20.813-20.812c11.489 0 20.813 9.323 20.813 20.812s-9.324 20.815-20.813 20.815zM574.439 691.073c-34.424 0-62.439 28.015-62.439 62.44s28.015 62.439 62.439 62.439c34.424 0 62.439-28.014 62.439-62.439s-28.015-62.44-62.439-62.44zM574.439 774.325c-11.489 0-20.812-9.324-20.812-20.813s9.323-20.813 20.812-20.813c11.489 0 20.812 9.324 20.812 20.813s-9.323 20.813-20.812 20.813zM616.066 524.568c-11.489 0-20.815 9.323-20.815 20.812s-9.323 20.815-20.812 20.815c-11.489 0-20.812-9.326-20.812-20.815s-9.326-20.812-20.815-20.812c-11.489 0-20.812 9.323-20.812 20.812 0 34.426 28.015 62.439 62.439 62.439s62.439-28.013 62.439-62.439c0-11.489-9.323-20.812-20.812-20.812zM407.934 66.682c-11.489 0-20.812 9.326-20.812 20.815v707.641c0 11.489 9.323 20.813 20.812 20.813s20.815-9.324 20.815-20.813v-707.641c0-11.489-9.326-20.815-20.815-20.815zM853.874-58.196c-31.052 0-57.858 20.605-63.77 48.995l-24.476 138.447c-1.916 9.159-12.57 16.526-24.683 16.526s-22.77-7.368-24.811-17.151l-24.266-137.199c-6.037-29.014-32.843-49.619-63.855-49.619-33.175 0-60.898 23.145-64.562 53.865l-9.491 79.672c-0.624 5.202-8.242 42.751-27.765 132.496-9.448 43.25-14.194 87.54-14.194 131.664 0 56.153 45.663 101.816 101.818 101.816 18.857 0 37.339-5.12 53.53-14.818 45.413-27.223 101.776-27.223 147.189 0 16.194 9.698 34.716 14.818 53.533 14.818 56.153 0 101.816-45.663 101.816-101.816 0-44.167-4.745-88.456-14.151-131.706-24.643-113.179-27.516-129.998-27.765-132.453l-9.491-79.715c-3.664-30.678-31.427-53.822-64.604-53.822zM740.944 187.399c31.926 0 59.482-21.147 65.561-50.326l24.476-138.407c1.748-8.409 11.654-15.235 22.893-15.235 11.906 0 22.103 7.535 23.227 17.151l9.533 79.672c0.375 3.079 1.499 12.445 28.43 136.367 8.741 40.336 13.197 81.67 13.197 122.88 0 33.175-26.974 60.191-60.191 60.191-11.281 0-22.396-3.082-32.094-8.909-58.61-35.173-131.414-35.173-190.024 0-9.698 5.827-20.812 8.909-32.094 8.909-33.258 0-60.231-26.974-60.231-60.191 0-41.17 4.453-82.504 13.195-122.84 17.858-82.002 27.391-127.875 28.43-136.367l9.491-79.712c1.166-9.616 11.364-17.151 23.27-17.151 11.239 0 21.147 6.826 23.020 15.86l24.266 137.159c6.161 29.803 33.717 50.95 65.646 50.95z" />
<glyph unicode="&#xe917;" glyph-name="teeth-6" d="M116.553 313.941c-57.361 0-104.065 46.704-104.065 104.063 0 57.361 46.704 104.066 104.065 104.066v-41.627c-34.425 0-62.439-28.013-62.439-62.439 0-35.091 29.346-62.229 64.354-62.439 1.79 0 3.621 0 5.411 0.25l5.287-41.292c-4.163-0.542-8.409-0.582-12.613-0.582zM907.446 313.941c-4.203 0-8.449 0.040-12.653 0.582l5.285 41.292c2.458-0.332 4.955-0.29 7.368-0.25 34.426 0 62.439 28.015 62.439 62.439 0 34.426-28.013 62.439-62.439 62.439v41.627c57.361 0 104.066-46.704 104.066-104.066 0-57.359-46.704-104.063-104.066-104.063zM512-58.196c-145.525 0-263.202 70.681-349.867 210.045-47.287 83.503-66.394 150.978-66.394 233.689v222.7c0 228.526 215.789 332.591 416.261 332.591 200.469 0 416.258-104.065 416.258-332.591v-222.7c0-82.712-19.106-150.186-65.976-232.98-0.125-0.25-2.29-3.706-2.458-3.956-3.661-5.952-7.2-11.571-11.364-17.233-6.826-9.281-19.813-11.279-29.097-4.496-9.281 6.786-11.279 19.816-4.496 29.097 3.497 4.788 6.454 9.576 9.576 14.611 44.664 78.508 62.189 140.031 62.189 214.958v222.7c0 199.887-194.228 290.965-374.634 290.965-180.409 0-374.635-91.078-374.635-290.965v-222.7c0-74.927 17.525-136.449 60.566-212.46 79.213-127.376 182.073-189.647 314.069-189.647 58.733 0 110.557 12.156 158.553 37.214 10.282 5.37 22.77 1.374 28.098-8.824 5.287-10.2 1.374-22.77-8.824-28.098-53.323-27.808-113.14-41.919-177.826-41.919zM907.446 524.57c-0.624 0-1.249 0-1.916 0.082l-71.096 6.454c-91.703 8.324-172.749 59.857-219.496 137.366-59.15-89.622-158.802-143.902-268.278-143.902h-230.109c-11.489 0-20.813 9.323-20.813 20.812s9.324 20.815 20.813 20.815h230.109c106.896 0 203.009 59.399 250.795 155.014 3.621 7.201 11.281 11.572 19.231 11.489 8.117-0.25 15.32-5.161 18.524-12.613 35.508-82.835 113.307-139.364 203.052-147.481l71.098-6.451c11.446-1.041 19.896-11.197 18.857-22.603-1.041-10.864-10.115-18.981-20.772-18.981zM512 66.682c-45.913 0-83.251 37.339-83.251 83.251s37.339 83.251 83.251 83.251c45.915 0 83.254-37.339 83.254-83.251s-37.339-83.251-83.254-83.251zM512 191.56c-22.935 0-41.624-18.692-41.624-41.627s18.689-41.627 41.624-41.627c22.938 0 41.627 18.692 41.627 41.627s-18.689 41.627-41.627 41.627zM761.756-58.196c-68.85 0-124.878 56.030-124.878 124.878 0 11.489 9.323 20.815 20.812 20.815s20.815-9.326 20.815-20.815c0-45.913 37.339-83.251 83.251-83.251s83.251 37.339 83.251 83.251c0 45.915-37.339 83.254-83.251 83.254-11.489 0-20.812 9.323-20.812 20.812s9.323 20.812 20.812 20.812c68.85 0 124.878-56.028 124.878-124.878 0-68.848-56.028-124.878-124.878-124.878zM366.31 316.441c-5.33 0-10.657 2.038-14.736 6.077l-83.254 83.251c-8.117 8.117-8.117 21.314 0 29.431s21.314 8.117 29.431 0l83.251-83.254c8.117-8.117 8.117-21.312 0-29.429-4.039-4.039-9.366-6.077-14.693-6.077zM283.056 316.441c-5.327 0-10.655 2.038-14.736 6.077-8.117 8.117-8.117 21.312 0 29.429l83.254 83.254c8.117 8.117 21.312 8.117 29.429 0s8.117-21.314 0-29.431l-83.251-83.251c-4.039-4.039-9.366-6.077-14.696-6.077zM740.944 316.441c-5.33 0-10.657 2.038-14.736 6.077l-83.254 83.251c-8.117 8.117-8.117 21.314 0 29.431s21.314 8.117 29.431 0l83.251-83.254c8.117-8.117 8.117-21.312 0-29.429-4.039-4.039-9.366-6.077-14.693-6.077zM657.69 316.441c-5.327 0-10.655 2.038-14.736 6.077-8.117 8.117-8.117 21.312 0 29.429l83.254 83.254c8.117 8.117 21.312 8.117 29.429 0s8.117-21.314 0-29.431l-83.251-83.251c-4.039-4.039-9.366-6.077-14.696-6.077z" />
<glyph unicode="&#xe918;" glyph-name="teeth-7" d="M965.439 672.042c-11.129 0-20.161 9.032-20.161 20.16v32.175c0 26.369-17.015 49.997-41.366 57.456-266.838 81.688-537.467 81.688-804.265 0-24.394-7.459-41.409-31.087-41.409-57.456v-32.175c0-11.128-9.032-20.16-20.16-20.16s-20.16 9.032-20.16 20.16v32.175c0 43.909 28.748 83.382 69.874 96.002 274.7 84.067 553.23 84.067 827.891 0 41.165-12.58 69.915-52.053 69.915-96.002v-32.175c0-11.128-9.032-20.16-20.161-20.16zM602.558 480.518h-201.599c-11.128 0-20.16 9.032-20.16 20.161v100.801c0 66.689 54.269 120.96 120.96 120.96s120.959-54.271 120.959-120.96v-100.801c0-11.129-9.032-20.161-20.161-20.161zM421.118 520.839h161.284v80.641c0 44.473-36.168 80.64-80.642 80.64s-80.642-36.167-80.642-80.64v-80.641zM804.155 480.518h-201.601c-11.129 0-20.161 9.032-20.161 20.161v100.801c0 66.689 54.272 120.96 120.963 120.96 66.687 0 120.959-54.271 120.959-120.96v-100.801c0-11.129-9.032-20.161-20.161-20.161zM622.715 520.839h161.28v80.641c0 44.473-36.168 80.64-80.638 80.64-44.474 0-80.642-36.167-80.642-80.64v-80.641zM925.127 480.518h-120.963c-11.129 0-20.161 9.032-20.161 20.161v95.073c0 48.586 26.051 93.179 66.327 113.541 40.927 20.765 90.923 16.41 127.291-11.088 5.042-3.83 7.983-9.757 7.983-16.087v-141.122c0-33.341-27.136-60.477-60.477-60.477zM824.324 520.839h100.803c11.125 0 20.156 9.032 20.156 20.156v130.276c-19.108 10.886-47.94 16.612-76.767 2.016-26.853-13.548-44.192-44.030-44.192-77.535v-74.913zM400.965 480.518h-201.6c-11.128 0-20.16 9.032-20.16 20.161v100.801c0 66.689 54.271 120.96 120.96 120.96s120.961-54.271 120.961-120.96v-100.801c0-11.129-9.032-20.161-20.161-20.161zM219.525 520.839h161.28v80.641c0 44.473-36.167 80.64-80.64 80.64s-80.64-36.167-80.64-80.64v-80.641zM199.36 480.518h-120.96c-33.345 0-60.48 27.136-60.48 60.482v141.12c0 6.33 2.943 12.258 7.983 16.088 46.368 34.998 117.13 30.079 158.256-11.088 22.821-22.781 35.361-53.223 35.361-85.64v-100.801c0-11.129-9.032-20.161-20.16-20.161zM58.24 671.314v-130.314c0-11.129 9.032-20.161 20.16-20.161h100.8v80.641c0 21.651-8.346 41.932-23.507 57.133-25.12 25.079-66.81 30.361-97.453 12.701zM501.76-3.039c-138.298 0-276.595 21.008-413.966 63.062-41.126 12.579-69.874 52.052-69.874 96.002v32.174c0 11.129 9.032 20.161 20.16 20.161s20.16-9.032 20.16-20.161v-32.174c0-26.37 17.015-49.996 41.368-57.455 266.797-81.65 537.426-81.609 804.264 0 24.392 7.459 41.406 31.085 41.406 57.455v32.174c0 11.129 9.032 20.161 20.161 20.161s20.161-9.032 20.161-20.161v-32.174c0-43.909-28.75-83.382-69.874-96.002-137.372-42.054-275.669-63.062-413.966-63.062zM501.76 157.958c-66.691 0-120.96 54.272-120.96 120.963v100.798c0 11.129 9.032 20.161 20.16 20.161h201.599c11.129 0 20.161-9.032 20.161-20.161v-100.798c0-66.691-54.268-120.963-120.959-120.963zM421.118 359.559v-80.638c0-44.474 36.168-80.642 80.642-80.642s80.642 36.168 80.642 80.642v80.638h-161.284zM703.357 157.958c-66.691 0-120.963 54.272-120.963 120.963v100.798c0 11.129 9.032 20.161 20.161 20.161h201.601c11.129 0 20.161-9.032 20.161-20.161v-100.798c0-66.691-54.272-120.963-120.959-120.963zM622.715 359.559v-80.638c0-44.474 36.168-80.642 80.642-80.642 44.47 0 80.638 36.168 80.638 80.642v80.638h-161.28zM905.044 158.081c-18.706 0-37.536 4.272-54.751 13.025-40.239 20.398-66.29 64.954-66.29 113.541v95.072c0 11.129 9.032 20.161 20.161 20.161h120.963c33.341 0 60.477-27.136 60.477-60.482v-141.119c0-6.328-2.941-12.255-7.983-16.085-21.086-15.929-46.731-24.113-72.577-24.113zM824.324 359.559v-74.912c0-33.546 17.338-63.992 44.192-77.537 28.828-14.594 57.659-8.831 76.767 2.015v130.273c0 11.129-9.032 20.161-20.156 20.161h-100.803zM300.165 157.958c-66.689 0-120.96 54.272-120.96 120.963v100.798c0 11.129 9.032 20.161 20.16 20.161h201.6c11.13 0 20.161-9.032 20.161-20.161v-100.798c0-66.691-54.272-120.963-120.961-120.963zM219.525 359.559v-80.638c0-44.474 36.167-80.642 80.64-80.642s80.64 36.168 80.64 80.642v80.638h-161.28zM98.56 157.958c-26.168 0-51.973 8.589-72.657 24.236-5.040 3.83-7.983 9.757-7.983 16.085v141.119c0 33.346 27.135 60.482 60.48 60.482h120.96c11.128 0 20.16-9.032 20.16-20.161v-100.798c0-32.42-12.539-62.861-35.321-85.639-22.781-22.782-53.222-35.324-85.64-35.324zM58.24 209.084c30.603-17.699 72.294-12.378 97.453 12.743 15.16 15.159 23.507 35.443 23.507 57.094v80.638h-100.8c-11.128 0-20.16-9.032-20.16-20.161v-130.314z" />
<glyph unicode="&#xe919;" glyph-name="teeth-8" d="M573.935 746.718c-11.396 0-20.645 9.249-20.645 20.645v82.581c0 34.147-27.787 61.935-61.935 61.935h-247.742c-34.147 0-61.935-27.788-61.935-61.935v-82.581c0-11.396-9.249-20.645-20.645-20.645s-20.645 9.249-20.645 20.645v82.581c0 56.898 46.286 103.226 103.226 103.226h247.742c56.941 0 103.226-46.328 103.226-103.226v-82.581c0-11.396-9.249-20.645-20.645-20.645zM491.355 44.782h-371.613c-56.939 0-103.226 46.328-103.226 103.226v536.775c0 56.898 46.286 103.226 103.226 103.226h495.484c56.941 0 103.226-46.328 103.226-103.226v-123.871c0-11.396-9.249-20.645-20.645-20.645s-20.645 9.249-20.645 20.645v123.871c0 34.147-27.787 61.935-61.935 61.935h-495.484c-34.147 0-61.935-27.788-61.935-61.935v-536.775c0-34.145 27.788-61.935 61.935-61.935h371.613c11.396 0 20.645-9.249 20.645-20.645s-9.249-20.645-20.645-20.645zM326.194 251.233h-289.032c-11.396 0-20.645 9.249-20.645 20.645s9.249 20.645 20.645 20.645h289.032c34.149 0 61.935 27.79 61.935 61.935v123.871c0 34.149-27.787 61.935-61.935 61.935h-289.032c-11.396 0-20.645 9.249-20.645 20.645s9.249 20.645 20.645 20.645h289.032c56.941 0 103.226-46.328 103.226-103.226v-123.871c0-56.898-46.285-103.226-103.226-103.226zM892.446-37.799c-30.763 0-57.394 20.44-63.257 48.557l-24.279 137.332c-1.942 9.084-12.513 16.394-24.526 16.394-12.017 0-22.587-7.35-24.652-17.055l-24.031-136.050c-5.985-28.738-32.619-49.178-63.379-49.178-32.91 0-60.449 22.957-64.043 53.43l-9.414 79.030c-0.578 4.459-5.781 30.928-27.539 131.429-9.332 42.859-14.039 86.792-14.039 130.6 0 55.702 45.294 100.996 100.953 100.996 18.706 0 37.079-5.077 53.142-14.699 45.006-26.961 100.914-26.961 146.003 0 16.021 9.622 34.436 14.699 53.139 14.699 55.659 0 100.956-45.294 100.956-100.996 0-43.85-4.707-87.783-14.082-130.682-24.361-112.062-27.209-128.869-27.539-131.346l-9.414-79.069c-3.551-30.433-31.093-53.39-64-53.39zM780.384 205.814c31.628 0 59.002-20.975 65.031-49.879l24.279-137.332c1.777-8.341 11.604-15.112 22.753-15.112 11.766 0 21.884 7.475 23.080 17.012l9.375 79.030c0.948 8.341 10.445 53.843 28.2 135.267 8.714 40.012 13.091 80.972 13.091 121.889 0 32.91-26.756 59.706-59.666 59.706-11.231 0-22.254-3.055-31.833-8.836-58.137-34.849-130.355-34.849-188.492 0-9.619 5.781-20.645 8.836-31.876 8.836-32.989 0-59.745-26.756-59.745-59.706 0-40.877 4.377-81.837 13.087-121.846 18.789-86.67 27.212-127.135 28.203-135.35l9.414-79.030c1.156-9.497 11.271-16.972 23.040-16.972 11.148 0 20.975 6.772 22.875 15.733l24.031 136.050c6.151 29.564 33.528 50.539 65.156 50.539z" />
<glyph unicode="&#xe91a;" glyph-name="teeth-9" d="M986.839 44.782h-949.677c-11.396 0-20.645 9.249-20.645 20.645s9.249 20.645 20.645 20.645h949.677c11.396 0 20.645-9.249 20.645-20.645s-9.249-20.645-20.645-20.645zM904.258 44.782c-11.396 0-20.645 9.249-20.645 20.645v474.839c0 22.753-18.538 41.29-41.29 41.29h-20.645c-11.396 0-20.645 9.249-20.645 20.645s9.249 20.645 20.645 20.645h20.645c45.545 0 82.581-37.036 82.581-82.581v-474.839c0-11.396-9.249-20.645-20.645-20.645zM119.742 44.782c-11.396 0-20.645 9.249-20.645 20.645v474.839c0 45.545 37.037 82.581 82.581 82.581h20.645c11.396 0 20.645-9.249 20.645-20.645s-9.249-20.645-20.645-20.645h-20.645c-22.751 0-41.29-18.538-41.29-41.29v-474.839c0-11.396-9.249-20.645-20.645-20.645zM624.022 375.104c-30.803 0-57.394 20.44-63.257 48.6l-24.279 137.332c-1.899 9.084-12.47 16.391-24.487 16.391-12.014 0-22.584-7.307-24.609-17.012l-24.071-136.093c-5.989-28.778-32.58-49.218-63.343-49.218-32.907 0-60.406 23-64.040 53.43l-9.414 79.030c-0.661 5.163-8.217 42.407-27.582 131.427-9.332 42.901-14.039 86.834-14.039 130.601 0 55.701 45.295 100.996 100.996 100.996 18.706 0 37.039-5.079 53.099-14.699 45.049-27.004 100.956-27.004 146.003 0 16.064 9.621 34.436 14.699 53.099 14.699 55.702 0 100.996-45.295 100.996-100.996 0-43.809-4.707-87.742-14.039-130.643-24.444-112.267-27.291-128.948-27.539-131.386l-9.414-79.069c-3.634-30.39-31.176-53.39-64.083-53.39zM512 618.717c31.671 0 59.006-20.975 65.034-49.918l24.279-137.292c1.734-8.341 11.561-15.112 22.71-15.112 11.809 0 21.924 7.475 23.040 17.012l9.414 79.030c0.37 3.055 1.483 12.347 28.2 135.267 8.671 40.010 13.091 81.012 13.091 121.848 0.040 32.95-26.716 59.747-59.666 59.747-11.188 0-22.214-3.055-31.833-8.836-58.137-34.89-130.355-34.89-188.492 0-9.662 5.781-20.685 8.836-31.876 8.836-32.95 0-59.706-26.756-59.706-59.706 0-40.836 4.418-81.837 13.089-121.848 17.714-81.341 27.171-126.843 28.201-135.266l9.414-79.073c1.156-9.536 11.274-17.012 23.080-17.012 11.148 0 20.979 6.772 22.835 15.733l24.074 136.050c6.111 29.564 33.445 50.539 65.113 50.539z" />
<glyph unicode="&#xe91b;" glyph-name="teeth-10" d="M490.667 21.333h-469.334c-6.571 0-12.757 3.029-16.811 8.192s-5.504 11.903-3.925 18.305l23.040 92.586c11.605 45.996 45.269 82.261 89.984 96.982l171.436 57.173c25.429 10.581 41.301 48.938 42.922 105.429-19.627 17.836-61.738 61.356-61.738 106.027 0 15.615-5.206 18.773-5.247 18.817-6.529 1.748-9.942 5.803-12.459 12.074-2.134 5.334-20.694 52.991-20.694 85.163 0 1.707 0.214 3.413 0.639 5.077 2.687 11.050 9.173 22.187 18.987 28.929 0.214 5.077 0.512 10.793 0.853 17.067 1.067 21.076 2.56 49.193 2.56 84.181 0 80.043 97.876 202.667 218.453 202.667 109.099 0 161.919-58.069 170.667-95.616 26.667-14.763 49.919-39.125 49.919-107.051v-101.418c10.581-7.298 17.11-18.987 19.841-27.095 0.726-2.175 1.067-4.435 1.067-6.74 0-23.040-9.302-53.546-17.023-75.093-4.055-11.050-16.3-16.725-27.35-12.843-11.093 4.055-16.812 16.257-12.843 27.35 8.319 22.956 13.439 43.135 14.379 56.406-0.726 1.195-1.536 2.346-2.091 2.731-11.776 0-18.687 8.831-18.687 20.607v116.095c0 55.723-17.879 64.683-28.545 70.059-6.442 3.243-20.054 10.069-20.054 26.368-0.767 12.885-36.693 63.573-129.279 63.573-101.547 0-175.787-105.216-175.787-160 0-35.925-1.493-64.768-2.687-86.399-0.598-12.331-1.154-22.273-1.154-29.653 0-11.052-8.404-20.139-19.156-21.206 0.639-17.535 9.428-44.972 14.932-60.289 11.521-8.065 23.425-24.662 23.425-53.76 0-24.064 28.074-58.368 54.186-80.043 4.865-4.010 7.68-10.069 7.68-16.384 0-80.982-25.129-136.021-70.783-154.965l-172.928-57.729c-30.891-10.154-54.059-35.157-62.037-66.858l-16.384-66.048h442.027c11.776 0 21.333-9.557 21.333-21.333s-9.557-21.333-21.333-21.333zM905.132-64c-31.787 0-59.308 21.078-65.368 50.176l-25.088 141.91c-2.005 9.428-12.927 16.98-25.343 16.98s-23.338-7.594-25.473-17.663l-24.831-140.588c-6.187-29.737-33.708-50.815-65.493-50.815-34.006 0-62.466 23.723-66.178 55.212l-9.728 81.663c-0.81 6.699-10.367 52.395-28.458 135.807-9.642 44.289-14.507 89.686-14.507 134.997 0 57.515 46.806 104.321 104.321 104.321 19.326 0 38.314-5.247 54.911-15.189 46.508-27.903 104.277-27.903 150.869 0 16.555 9.942 35.585 15.189 54.911 15.189 57.515 0 104.321-46.806 104.321-104.321 0-45.354-4.863-90.751-14.55-135.041-25.215-115.839-28.117-133.161-28.458-135.764l-9.728-81.663c-3.67-31.489-32.129-55.212-66.132-55.212zM789.333 187.733c32.682 0 60.971-21.718 67.199-51.585l25.088-141.908c1.836-8.577 11.99-15.574 23.511-15.574 12.158 0 22.612 7.723 23.85 17.535l9.685 81.665c0.385 3.199 1.493 12.971 29.141 139.817 9.004 41.301 13.526 83.67 13.526 125.952 0 34.049-27.648 61.697-61.654 61.697-11.605 0-22.997-3.156-32.895-9.13-60.075-36.011-134.783-36.011-194.774 0-9.942 5.973-21.333 9.13-32.939 9.13-34.090 0-61.738-27.648-61.738-61.654 0-42.239 4.524-84.607 13.526-125.909 19.413-89.6 28.16-131.37 29.141-139.862l9.728-81.663c1.195-9.855 11.649-17.579 23.809-17.579 11.519 0 21.675 6.997 23.636 16.257l24.833 140.586c6.356 30.549 34.645 52.224 67.327 52.224z" />
<glyph unicode="&#xe91c;" glyph-name="teeth-11" d="M627.796 362.667c-31.785 0-59.306 21.119-65.363 50.176l-25.090 141.908c-2.005 9.387-12.927 16.982-25.343 16.982s-23.338-7.594-25.473-17.622l-24.831-140.586c-6.187-29.739-33.708-50.859-65.493-50.859-34.006 0-62.464 23.723-66.178 55.21l-9.728 81.665c-0.596 4.608-5.973 31.958-28.458 135.807-9.642 44.289-14.507 89.686-14.507 134.955 0 57.557 46.806 104.363 104.321 104.363 19.326 0 38.314-5.248 54.911-15.189 46.508-27.861 104.277-27.861 150.869 0 16.555 9.941 35.585 15.189 54.911 15.189 57.515 0 104.321-46.805 104.321-104.363 0-45.312-4.863-90.709-14.55-135.039-25.172-115.798-28.117-133.163-28.458-135.723l-9.728-81.706c-3.67-31.446-32.129-55.169-66.134-55.169zM512 614.4c32.682 0 60.971-21.675 67.199-51.541l25.088-141.908c1.836-8.62 11.99-15.617 23.509-15.617 12.161 0 22.614 7.723 23.852 17.579l9.728 81.663c0.981 8.62 10.793 55.64 29.141 139.778 8.961 41.342 13.483 83.668 13.483 125.951 0 34.005-27.648 61.696-61.654 61.696-11.605 0-22.997-3.157-32.895-9.131-60.075-36.011-134.699-36.011-194.774 0-10.026 5.973-21.377 9.131-33.023 9.131-34.006 0-61.654-27.648-61.654-61.696 0-42.24 4.522-84.565 13.526-125.91 19.413-89.557 28.117-131.37 29.141-139.86l9.728-81.665c1.195-9.812 11.649-17.535 23.809-17.535 11.519 0 21.675 6.997 23.636 16.257l24.831 140.586c6.358 30.549 34.648 52.224 67.329 52.224zM917.333 64h-810.667c-58.837 0-106.667 47.871-106.667 106.667v384c0 35.285 28.715 64 64 64h54.144c50.816 0 94.891-36.309 104.704-86.357 14.335-72.363 22.357-123.606 22.357-123.606 8.834-75.264 73.728-131.37 150.999-131.37 37.417 0 73.387 13.61 101.333 38.357 8.021 7.125 20.223 7.125 28.201 0.043 28.16-24.79 64.385-38.4 102.059-38.4 77.312 0 142.168 56.063 150.913 130.474 0.086 0.769 7.807 50.988 22.357 124.546 9.899 50.005 53.931 86.314 104.705 86.314h54.229c35.285 0 64-28.715 64-64v-384c0-58.796-47.83-106.667-106.667-106.667zM64 576c-11.733 0-21.333-9.557-21.333-21.333v-384c0-35.285 28.715-64 64-64h810.667c35.285 0 64 28.715 64 64v384c0 11.776-9.601 21.333-21.333 21.333h-54.229c-30.465 0-56.918-21.845-62.892-51.969-14.293-72.319-21.93-121.77-21.973-121.983-11.137-95.105-94.208-167.381-193.11-167.381-41.941 0-82.559 13.269-116.094 37.717-33.366-24.449-73.728-37.717-115.498-37.717-98.902 0-182.017 72.319-193.281 168.234-0.043 0-7.936 50.303-21.931 121.13-5.888 30.124-32.384 51.969-62.848 51.969h-54.144z" />
<glyph unicode="&#xe91d;" glyph-name="teeth-12" d="M627.797-64c-31.788 0-59.307 21.077-65.365 50.176l-25.088 141.909c-2.007 9.431-12.93 16.981-25.344 16.981s-23.34-7.595-25.474-17.664l-24.832-140.585c-6.185-29.74-33.703-50.818-65.492-50.818-34.004 0-62.464 23.723-66.176 55.211l-9.728 81.664c-0.811 6.7-10.368 52.395-28.459 135.81-9.643 44.288-14.507 89.685-14.507 134.997 0 57.515 46.805 104.318 104.318 104.318 19.33 0 38.318-5.246 54.914-15.189 46.507-27.904 104.277-27.904 150.869 0 16.555 9.943 35.584 15.189 54.914 15.189 57.556 0 104.318-46.804 104.318-104.318 0-45.356-4.864-90.754-14.548-135.042-25.218-115.842-28.119-133.161-28.46-135.765l-9.728-81.664c-3.669-31.488-32.126-55.211-66.133-55.211zM512 187.733c32.683 0 60.972-21.719 67.202-51.582l25.088-141.913c1.833-8.574 11.988-15.572 23.508-15.572 12.158 0 22.613 7.721 23.849 17.534l9.731 81.667c0.382 3.198 1.492 12.967 29.14 139.817 9.001 41.301 13.524 83.671 13.524 125.911 0 34.048-27.648 61.693-61.652 61.693-11.605 0-22.999-3.157-32.898-9.131-60.075-36.011-134.782-36.011-194.772 0-10.069 6.018-21.419 9.175-33.068 9.175-34.004 0-61.652-27.648-61.652-61.652 0-42.24 4.523-84.61 13.525-125.911 19.413-89.6 28.162-131.372 29.141-139.861l9.728-81.664c1.195-9.854 11.65-17.579 23.808-17.579 11.52 0 21.675 6.997 23.637 16.258l24.832 140.585c6.356 30.549 34.645 52.224 67.328 52.224zM661.333 576h-298.667c-58.837 0-106.666 47.83-106.666 106.668v40.021l-42.027 168.107c-2.005 8.107 0.853 16.64 7.381 21.845 6.443 5.248 15.36 6.144 22.869 2.475l155.562-77.781 95.874 115.029c8.062 9.771 24.661 9.771 32.768 0l95.87-115.029 155.563 77.781c7.509 3.669 16.428 2.773 22.869-2.475 6.485-5.205 9.387-13.696 7.383-21.803l-42.114-168.149v-40.021c0-58.837-47.828-106.668-106.667-106.668zM266.624 856.15l31.403-125.653c0.427-1.664 0.64-3.413 0.64-5.163v-42.667c0-35.285 28.715-64 64-64h298.667c35.287 0 64 28.715 64 64v42.667c0 1.749 0.215 3.499 0.642 5.163l31.403 125.653-129.154-64.597c-8.789-4.309-19.541-2.219-25.941 5.461l-90.283 108.331-90.283-108.331c-6.356-7.68-17.067-9.771-25.941-5.419l-129.152 64.555z" />
<glyph unicode="&#xe91e;" glyph-name="tofi" d="M444.402 615.705l-15.688-89.78 82.166 42.377 82.168-42.377-15.686 89.78 66.48 63.529-91.859 13.107-41.247 81.629-41.101-81.629-91.716-13.107 66.482-63.529zM837.638 881.999c0.119 12.881 0.119 25.546 0 37.995v40.006h-655.579v-40.006c0-12.449 0-25.114 0-37.995h-181.924v-40.006c-2.371-94.786 26.531-187.714 82.239-264.422 45.138-57.209 98.469-107.44 158.268-149.072 29.104-20.683 56.443-43.747 81.736-68.95 40.987-53.959 90.911-100.493 147.608-137.581v-66.042h-19.995c-47.692-0.047-93.42-19.016-127.152-52.744-33.735-33.729-52.722-79.462-52.797-127.177v-40.006h479.793v40.006c-0.047 47.733-19.020 93.495-52.759 127.246-33.737 33.753-79.479 52.734-127.191 52.781h-19.993v65.935c56.594 37.024 106.443 83.456 147.39 137.292 25.741 25.539 53.6 48.845 83.28 69.671 60.365 41.466 114.297 91.599 160.063 148.783 56.3 76.407 85.586 169.384 83.243 264.278v40.006h-186.231zM81.836 801.986h102.628c2.886-82.364 15.857-164.063 38.625-243.269 1.974-6.5 4.057-12.964 6.175-19.356-41.677 30.917-76.355 70.296-101.761 115.554s-40.968 95.377-45.667 147.071zM570.030 75.95c19.444-0.023 38.461-5.708 54.731-16.366 16.267-10.656 29.082-25.821 36.876-43.645h-303.29c7.795 17.824 20.609 32.989 36.876 43.645 16.269 10.658 35.287 16.343 54.733 16.366h120.074zM637.874 412.59c-7.553-8.178-14.522-16.88-20.857-26.036-31.121-36.54-67.187-68.559-107.151-95.132-39.944 26.53-75.995 58.499-107.114 94.988-6.423 9.282-13.488 18.102-21.144 26.395-99.721 136.036-117.238 306.584-119.427 467.183h495.372c-2.046-160.923-19.599-331.433-119.788-467.398h0.109zM789.86 537.528c2.37 7.004 4.631 14.043 6.82 21.189 22.807 79.2 35.813 160.901 38.732 243.269h106.613c-5.061-52.384-21.254-103.080-47.499-148.689-26.243-45.611-61.929-85.082-104.665-115.769z" />
<glyph unicode="&#xe91f;" glyph-name="toothache" d="M605.225 353.068c-6.1 0-12.285 0.809-18.517 2.475-30.72 8.236-51.797 35.714-50.091 65.41l12.459 143.527c0.556 9.602-8.062 19.715-20.094 22.955-11.991 3.287-24.491-1.277-29.143-10.452l-60.372-129.365c-13.653-27.092-45.824-40.318-76.418-32.171-32.852 8.834-54.185 39.083-49.662 70.4l11.733 81.449c0.853 5.294 3.243 44.759 7.723 138.54 2.176 45.397 9.259 90.539 20.905 134.144 7.212 26.923 24.45 49.408 48.64 63.36 24.108 13.909 52.354 17.664 79.189 10.411 18.688-4.992 35.628-15.019 49.026-28.885 37.758-39.040 93.611-54.101 145.749-39.040 18.517 5.248 38.274 5.461 56.917 0.469 55.596-14.848 88.661-72.192 73.813-127.787-11.732-43.691-28.204-86.272-48.981-126.677-43.138-83.627-60.672-118.784-62.679-123.819l-30.505-76.329c-9.516-23.852-33.451-38.615-59.692-38.615zM521.257 631.127c6.229 0 12.544-0.811 18.818-2.517 31.573-8.491 53.289-36.734 51.541-67.202l-12.459-143.572c-0.512-8.789 7.509-18.132 18.603-21.118 11.947-3.202 23.934 1.577 27.604 10.837l30.508 76.329c3.243 8.148 24.917 51.029 64.341 127.488 19.412 37.717 34.731 77.44 45.609 118.101 4.311 15.957 2.137 32.597-6.141 46.848-8.192 14.251-21.548 24.448-37.42 28.715-11.264 2.987-23.081 2.859-34.174-0.256-67.328-19.285-139.438 0.043-188.163 50.389-8.021 8.32-18.261 14.336-29.44 17.323-15.872 4.267-32.553 2.048-46.804-6.187-14.251-8.149-24.45-21.461-28.672-37.333-10.923-40.704-17.493-82.816-19.586-125.184-2.26-48.171-6.356-130.816-8.021-142.592l-11.732-81.408c-1.41-9.813 6.697-19.968 18.473-23.125 10.882-2.857 22.699 1.154 27.010 9.602l60.372 129.365c11.264 22.313 34.645 35.497 59.733 35.497zM917.333-64h-810.667c-58.837 0-106.667 47.872-106.667 106.667v384c0 35.287 28.715 64 64 64h89.045c30.165 0 56.533-21.548 62.72-51.244 18.475-89.259 29.355-158.034 29.44-158.717 8.832-75.264 73.728-131.372 150.997-131.372 37.42 0 73.387 13.612 101.335 38.359 8.021 7.124 20.221 7.124 28.201 0.041 28.16-24.791 64.382-38.4 102.059-38.4 77.312 0 142.165 56.064 150.91 130.475 0.171 1.406 10.54 68.608 29.484 159.659 6.1 29.655 32.468 51.2 62.676 51.2h89.132c35.287 0 64-28.713 64-64v-384c0-58.795-47.831-106.667-106.667-106.667zM64 448c-11.733 0-21.333-9.557-21.333-21.333v-384c0-35.284 28.715-64 64-64h810.667c35.287 0 64 28.716 64 64v384c0 11.776-9.598 21.333-21.333 21.333h-89.132c-10.025 0-18.814-7.212-20.862-17.152-18.688-89.941-28.972-156.119-29.058-156.757-11.179-95.147-94.249-167.424-193.15-167.424-41.943 0-82.558 13.271-116.094 37.717-33.365-24.446-73.728-37.717-115.5-37.717-98.901 0-182.016 72.322-193.28 168.236s-10.752 67.796-28.928 155.86c-2.091 9.984-10.923 17.237-20.949 17.237h-89.045zM106.667 703.999c-5.461 0-10.923 2.091-15.104 6.229l-42.667 42.667c-8.32 8.32-8.32 21.845 0 30.165s21.845 8.32 30.165 0l42.667-42.667c8.32-8.32 8.32-21.845 0-30.165-4.139-4.139-9.6-6.229-15.061-6.229zM192 746.667c-11.776 0-21.333 9.557-21.333 21.333v42.667c0 11.776 9.557 21.333 21.333 21.333s21.333-9.557 21.333-21.333v-42.667c0-11.776-9.557-21.333-21.333-21.333zM64 618.667h-42.667c-11.776 0-21.333 9.557-21.333 21.333s9.557 21.333 21.333 21.333h42.667c11.776 0 21.333-9.557 21.333-21.333s-9.557-21.333-21.333-21.333z" />
<glyph unicode="&#xe920;" glyph-name="twitter" d="M918.001 674.286c0-10 0-18 0-28 0-278-210.001-596-596.002-596-120 0-230 33.997-322 94.003 16-2.004 32-4.001 50-4.001 98 0 188 33.998 260 89.998-92 2-170 62-196 146 14-2 26-4 40-4 18 0 38 4 54 8-96 20-168 104-168 206v2c28-16 62-24 96-26-58 38-94 102-94 174 0 40 10 76 28 106 104-126 260-210 434-220-3.999 16-6 32-6 48 0 116 94 210 210 210 60 0 114.001-24 154.003-66 46 10 91.999 28 131.994 52-15.996-50-47.996-90-91.999-116 41.999 4 84.005 16 120.005 32-28.006-42-64-78-104.002-108z" />
<glyph unicode="&#xe921;" glyph-name="up-arrow" d="M997.053 879.158v-700.632c0-14.293-5.675-28.004-15.786-38.109-10.105-10.105-23.816-15.786-38.109-15.786s-28.004 5.681-38.109 15.786c-10.105 10.105-15.786 23.816-15.786 38.109v570.543l-770.29-770.358c-10.113-10.111-23.829-15.797-38.131-15.797s-28.018 5.686-38.131 15.797c-10.113 10.111-15.794 23.827-15.794 38.131s5.681 28.020 15.794 38.131l770.36 770.291h-570.545c-14.294 0-28.002 5.678-38.11 15.785s-15.785 23.816-15.785 38.11c0 14.294 5.678 28.002 15.785 38.109s23.816 15.785 38.11 15.785h700.631c14.293 0 28.004-5.678 38.109-15.785 10.111-10.107 15.786-23.816 15.786-38.109z" />
<glyph unicode="&#xe922;" glyph-name="user" d="M512 448c-142 0-256 114-256 256 0 140 114 256 256 256 140 0 256-116 256-256 0-142-116-256-256-256zM612 352c192 0 348-156 348-348 0-37.997-32-68-70.003-68h-757.997c-38 0-68 30.003-68 68 0 192 154 348 346 348h202z" />
<glyph unicode="&#xe923;" glyph-name="file" horiz-adv-x="1390" d="M1307.429 413.714l-219.429-438.861c-11.425-25.139-36.571-38.853-66.282-38.853h-875.432c-82.286 0-146.286 64-146.286 146.286v731.429c0 80 64 146.286 146.286 146.286h267.429c38.857 0 75.429-16 102.857-43.429l112-102.857h322.286c80.004 0 146.286-66.286 146.286-146.286v-73.143h-109.714v73.143c0 18.286-18.286 36.571-36.571 36.571h-365.714l-146.286 134.857c-6.857 6.857-16 11.429-25.143 11.429h-267.429c-20.571 0-36.571-18.286-36.571-36.571v-658.286l162.286 324.571c11.429 25.143 36.571 41.143 64 41.143h907.429c52.575 0 89.147-57.143 64-107.429z" />
<glyph unicode="&#xe924;" glyph-name="hour" d="M987.473 357.499h-79.878l-145.553-253.663h164.774l-0.217-84.591 59.997-0.157 0.22 84.751h37.183v60h-37.027l0.5 193.659zM926.973 163.837h-61.323l61.6 107.354-0.277-107.354zM735.886 170.312c18.586 26.558 32.123 54.929 35.717 86.85 0 54.959-44.713 99.674-99.674 99.674-47.523 0-88.657-33.807-97.807-80.387l-5.783-29.437 58.877-11.565 5.783 29.437c3.635 18.516 20.007 31.955 38.93 31.955 21.323 0 38.773-16.911 39.641-38.030-4.027-20.049-12.954-37.108-24.841-54.091-65.632-93.774-94.331-124.488-94.56-124.729l-8.237-8.644-0.187-50.983 199.307-0.608 0.184 60-113.366 0.346c15.896 20.474 37.665 49.706 66.018 90.211zM842.159 477.997c-14.318 158.907-141.252 285.815-300.155 300.135v-61.136h-60v61.128c-158.898-14.322-285.805-141.229-300.127-300.127h61.128v-60h-61.136c14.32-158.904 141.232-285.838 300.135-300.152v61.154h60v183.895c-9.391-3.322-19.483-5.147-30-5.147-13.947 0-27.163 3.183-38.966 8.858l-60.654-60.654-42.424 42.427 60.651 60.651c-5.674 11.803-8.858 25.022-8.858 38.969 0 39.249 25.193 72.707 60.25 85.103v95.648h60v-95.648c35.057-12.396 60.25-45.854 60.25-85.103 0-10.517-1.825-20.606-5.147-30h183.898v60h61.154zM512 417.75c16.706 0 30.25 13.544 30.25 30.25s-13.544 30.25-30.25 30.25c-16.706 0-30.25-13.544-30.25-30.25s13.544-30.25 30.25-30.25zM874.038 810.040c-96.705 96.704-225.277 149.96-362.038 149.96s-265.334-53.256-362.038-149.96c-96.706-96.706-149.962-225.279-149.962-362.040s53.256-265.333 149.962-362.041c96.704-96.702 225.277-149.959 362.038-149.959h30v120.501h-30c-215.874 0-391.5 175.625-391.5 391.499s175.626 391.5 391.5 391.5c215.874 0 391.499-175.626 391.499-391.5v-30h120.501v30c0 136.761-53.257 265.334-149.962 362.040z" />
<glyph unicode="&#xe925;" glyph-name="inhelar" d="M755.651 280.246l-281.134 29.778-68.792 500.595c-2.12 15.746-11.238 30.046-25.024 39.232-7.004 4.666-14.822 7.698-22.894 9.002l-8.087 58.828c-1.846 13.728-9.633 26.088-21.371 33.906-11.958 7.966-26.719 10.428-40.492 6.73-0.271-0.072-0.543-0.15-0.806-0.234l-226.479-71.012c-25.308-7.026-42.394-32.398-38.948-58.032l9.358-68.092c-20.942-12.438-33.73-36.49-30.478-60.695l82.634-601.321c5.992-44.593 28.196-85.778 62.518-115.968 34.426-30.282 78.19-46.958 123.227-46.958h485.604c31.601 0 57.308 25.708 57.308 57.308v229.637c0 31.212-25.078 56.673-56.143 57.295zM71.377 848.557c0.27 0.072 0.54 0.15 0.806 0.234l226.323 70.962c2.588 0.604 5.366 0.080 7.67-1.456 1.272-0.848 3.471-2.748 3.909-6.004l8.184-59.552-248.806-78.012-8.204 59.698c-0.802 5.974 3.83 12.444 10.118 14.13zM122.775 104.32l-82.636 601.321c-1.342 9.982 6.196 20.418 16.802 23.26 0.27 0.072 0.54 0.15 0.806 0.234l286.962 89.978c6.333 1.564 11.354-0.912 13.809-2.55 4.155-2.77 6.981-6.982 7.557-11.272 0.005-0.020 0.005-0.040 0.008-0.058l70.935-516.173c1.252-9.114 8.561-16.197 17.708-17.165l139.771-14.802v-281.088h-325.614c-73.465-0.003-136.275 55.137-146.107 128.315zM771.794-6.687c0-9.544-7.764-17.308-17.308-17.308h-119.987v276.849l117.88-12.483c0.699-0.074 1.403-0.113 2.107-0.113 9.544 0 17.308-7.764 17.308-17.308v-229.637zM763.981 864.306c-143.365 0-259.999-116.634-259.999-260 0-45.105 11.651-89.242 33.772-128.207-6.193-23.071-12.383-46.147-18.575-69.263-3.62-13.588 0.197-27.592 10.209-37.458 9.866-9.72 24.215-13.455 37.481-9.769l68.89 18.473c38.976-22.126 83.116-33.779 128.22-33.779 143.368 0 260.001 116.634 260.001 260.001 0 143.365-116.631 260.003-259.999 260.003zM763.981 384.307c-40.65 0-80.358 11.174-114.836 32.32-3.174 1.948-6.797 2.952-10.458 2.952-1.733 0-3.476-0.225-5.181-0.684l-75.082-20.134c6.71 25.044 13.422 50.061 20.137 75.082 1.423 5.304 0.604 10.959-2.268 15.642-21.138 34.465-32.312 74.171-32.312 114.821 0 121.308 98.691 220 219.999 220s220.001-98.692 220.001-220c0-121.308-98.688-219.999-219.999-219.999zM883.981 674.307h-49.999v50c0 11.044-8.957 20-20.001 20h-99.999c-11.044 0-20.001-8.956-20.001-20v-50h-49.999c-11.044 0-19.999-8.957-19.999-20.001v-99.999c0-11.044 8.955-20.001 19.999-20.001h49.999v-49.999c0-11.044 8.957-19.999 20.001-19.999h99.999c11.044 0 20.001 8.955 20.001 19.999v49.999h49.999c11.044 0 20.001 8.957 20.001 20.001v99.999c0 11.044-8.955 20.001-20.001 20.001zM863.982 574.305h-50.002c-11.044 0-19.999-8.955-19.999-19.999v-49.999h-60.001v49.999c0 11.044-8.955 19.999-19.999 19.999h-49.999v60.001h49.999c11.044 0 19.999 8.955 19.999 19.999v50.001h60.001v-50.001c0-11.044 8.955-19.999 19.999-19.999h50.002v-60.001z" />
<glyph unicode="&#xe926;" glyph-name="injection" horiz-adv-x="1011" d="M353.256 370.984c-7.714 7.713-20.217 7.713-27.936 0-7.714-7.714-7.714-20.222 0-27.935l78.687-78.691c3.858-3.857 8.913-5.785 13.968-5.785 5.054 0 10.11 1.929 13.967 5.785 7.714 7.714 7.714 20.222 0 27.935l-78.686 78.691zM266.517 344.585c-7.717 7.714-20.22 7.714-27.938 0-7.713-7.713-7.713-20.221 0-27.936l139.030-139.030c3.858-3.858 8.913-5.786 13.968-5.786 5.054 0 10.109 1.928 13.967 5.786 7.714 7.713 7.714 20.221 0 27.936l-139.028 139.030zM1005.572 828.914l-115.699 115.699c-6.991 6.989-18.072 7.735-25.934 1.748l-159.583-121.509c-4.537-3.453-7.359-8.699-7.743-14.385-0.144-2.131 0.062-4.249 0.585-6.274l-119.603 5.028c-5.229 0.209-10.336-1.649-14.196-5.192l-460.264-422.95-2.137 2.138c-3.706 3.703-8.729 5.785-13.967 5.785s-10.262-2.082-13.967-5.785l-67.275-67.279c-7.714-7.713-7.714-20.221 0-27.935l343.175-343.178c3.705-3.703 8.729-5.785 13.968-5.785 5.238 0 10.263 2.082 13.967 5.785l67.277 67.279c7.714 7.714 7.714 20.221 0 27.935l-2.142 2.142 422.955 460.259c3.544 3.858 5.41 8.964 5.191 14.197l-5.025 119.603c1.602-0.416 3.262-0.631 4.94-0.631 0.442 0 0.886 0.014 1.331 0.044 5.689 0.383 10.933 3.206 14.385 7.741l121.51 159.583c5.987 7.867 5.24 18.947-1.748 25.938zM824.047 673.475l4.533-107.871-202.016 202.016 107.871-4.532 89.611-89.613zM362.931-13.272l-315.241 315.243 39.34 39.342 315.243-315.24-39.342-39.344zM131.095 353.118l445.091 409.008 246.899-246.899-409.012-445.087-282.978 282.978zM868.076 685.316l-121.799 121.802 127.862 97.357 91.294-91.295-97.357-127.863zM623.065 464.33l34.92 34.92c7.714 7.714 7.714 20.222 0 27.938l-69.837 69.837c-7.715 7.713-20.22 7.713-27.938 0l-34.918-34.92-34.918 34.917c-3.703 3.704-8.728 5.786-13.967 5.786s-10.261-2.082-13.968-5.786l-69.837-69.837c-7.713-7.713-7.713-20.221 0-27.935l34.92-34.92-34.92-34.918c-7.713-7.714-7.713-20.222 0-27.935l69.837-69.838c3.707-3.703 8.729-5.785 13.968-5.785s10.264 2.082 13.967 5.785l34.918 34.918 34.918-34.92c7.717-7.714 20.22-7.714 27.938 0l69.837 69.837c3.704 3.704 5.786 8.729 5.786 13.968s-2.082 10.263-5.786 13.967l-34.92 34.921zM581.16 450.363l34.92-34.917-41.902-41.903-34.92 34.918c-3.705 3.703-8.729 5.785-13.967 5.785-5.239 0-10.264-2.082-13.968-5.785l-34.917-34.92-41.902 41.902 34.917 34.92c7.713 7.714 7.713 20.22 0 27.935l-34.92 34.92 41.904 41.902 34.917-34.917c3.704-3.704 8.729-5.786 13.968-5.786s10.261 2.082 13.967 5.786l34.92 34.92 41.902-41.903-34.92-34.92c-3.703-3.703-5.785-8.728-5.785-13.967s2.082-10.265 5.785-13.969z" />
<glyph unicode="&#xe927;" glyph-name="injection-2" horiz-adv-x="1011" d="M768.125 480.322c15.177 0 30.351 5.775 41.904 17.328l27.935 27.935c7.713 7.714 7.713 20.221 0 27.935l-62.855 62.852 195.544 195.545 6.982-6.982c3.858-3.858 8.913-5.786 13.968-5.786s10.11 1.928 13.967 5.786c7.714 7.713 7.714 20.221 0 27.936l-111.739 111.739c-7.715 7.714-20.22 7.714-27.936 0-7.714-7.714-7.714-20.221 0-27.937l6.982-6.983-195.542-195.543-62.855 62.853c-3.705 3.704-8.729 5.786-13.967 5.786-5.239 0-10.263-2.082-13.968-5.786l-27.936-27.936c-11.16-11.16-17.309-26.042-17.309-41.902 0-8.997 1.978-17.679 5.729-25.547l-355.285-355.289c-18.208-18.211-22.067-45.419-11.574-67.441l-16.363-16.364c-23.103-23.104-23.103-60.699 0-83.804l13.969-13.967-171.992-171.992c-7.714-7.714-7.714-20.222 0-27.938 3.858-3.857 8.913-5.785 13.967-5.785s10.112 1.928 13.967 5.785l171.991 171.992 13.968-13.967c11.16-11.159 26.042-17.306 41.902-17.306s30.741 6.147 41.902 17.306l16.356 16.355c7.867-3.751 16.548-5.731 25.548-5.731 15.859 0 30.739 6.148 41.902 17.311l355.294 355.293c8.053-3.836 16.797-5.753 25.542-5.753zM708.325 515.547h-271.49l135.744 135.744 135.746-135.744zM900.817 881.754l41.902-41.902-195.542-195.545-41.903 41.902 195.544 195.545zM586.548 721.129l13.967 13.969 195.545-195.545-13.967-13.968c-3.7-3.702-8.66-5.738-13.968-5.738s-10.265 2.037-13.964 5.738l-167.612 167.611c-3.7 3.699-5.738 8.66-5.738 13.967s2.038 10.265 5.738 13.966zM261.584 125.048c-5.31 0-10.27 2.037-13.968 5.734l-55.871 55.871c-7.701 7.701-7.701 20.232 0 27.935l13.967 13.967 83.805-83.804-13.968-13.969c-3.698-3.698-8.655-5.734-13.964-5.734zM345.39 152.981c-5.308 0-10.268 2.037-13.968 5.738l-111.741 111.741c-7.699 7.701-7.699 20.232 0 27.934l177.649 177.649h279.35l-79.877-79.877-20.95 20.95c-7.714 7.714-20.217 7.714-27.938 0-7.713-7.714-7.713-20.221 0-27.935l20.953-20.952-34.92-34.917-20.952 20.952c-7.712 7.714-20.222 7.714-27.935 0s-7.714-20.221 0-27.936l20.952-20.953-34.917-34.917-20.95 20.952c-7.715 7.717-20.221 7.714-27.935 0-7.713-7.713-7.715-20.221 0-27.934l20.953-20.953-34.917-34.917-20.953 20.952c-7.713 7.714-20.221 7.714-27.935 0-7.713-7.713-7.713-20.221 0-27.934l20.953-20.95-20.953-20.953c-3.703-3.703-8.664-5.739-13.968-5.739zM794.073 373.605c-119.809 0-217.284-97.473-217.284-217.284s97.475-217.284 217.284-217.284c119.809 0 217.283 97.473 217.283 217.284s-97.472 217.284-217.283 217.284zM794.073-21.457c-98.026 0-177.778 79.752-177.778 177.778s79.752 177.778 177.778 177.778c98.027 0 177.777-79.751 177.777-177.778 0-98.026-79.749-177.778-177.777-177.778zM808.964 273.758c-3.752 4.302-9.182 6.772-14.891 6.772s-11.139-2.469-14.887-6.771c-2.185-2.507-4.526-5.162-6.985-7.951-30.62-34.741-76.894-87.246-76.894-134.932 0-54.459 44.306-98.765 98.765-98.765 54.46 0 98.765 44.306 98.765 98.765 0 47.682-46.267 100.18-76.885 134.92-2.461 2.793-4.804 5.454-6.99 7.961zM794.073 71.618c-32.674 0-59.259 26.584-59.259 59.259 0 29.565 34.17 71.219 59.259 99.966 25.089-28.748 59.259-70.403 59.259-99.966 0-32.676-26.584-59.259-59.259-59.259z" />
<glyph unicode="&#xe928;" glyph-name="instagram" d="M896 910.769c36.612 0 68.923-32.308 68.923-71.077v-824.923c0-38.77-32.311-68.923-68.923-68.923h-829.231c-36.615 0-66.769 30.153-66.769 68.923v824.923c0 38.769 30.154 71.077 66.769 71.077h829.231zM290.77 83.692v458.769h-142.154v-458.769h142.154zM219.692 607.077c45.231 0 81.846 36.616 81.846 81.846s-36.615 84-81.846 84c-47.384 0-84-38.769-84-84s36.615-81.846 84-81.846zM827.077 83.692v252c0 122.769-28.002 219.692-172.308 219.692-68.923 0-116.307-38.769-135.693-75.385h-2.154v62.462h-135.693v-458.769h142.154v226.154c0 60.308 10.769 118.462 86.154 118.462 73.231 0 73.231-68.923 73.231-120.615v-224h144.308z" />
<glyph unicode="&#xe929;" glyph-name="left-arrow" horiz-adv-x="1317" d="M18.359 491.357h1279.978v-109.714h-1279.978v109.714zM73.127 381.643c258.011 0 468.846 226.896 468.846 468.846v54.857h-109.714v-54.857c0-183.698-164.030-359.131-359.131-359.131h-54.828v-109.714h54.828zM73.127 491.35c258.011 0 468.846-226.899 468.846-468.851v-54.857h-109.714v54.857c0 183.706-164.030 359.137-359.131 359.137h-54.828v109.714h54.828z" />
<glyph unicode="&#xe92a;" glyph-name="left-arrows" horiz-adv-x="1210" d="M626.182 493.227c33.091-30.546 33.091-84 0-114.546l-407.273-407.27c-15.272-15.276-35.636-22.91-56-22.91-22.909 0-43.272 7.633-58.546 22.91-33.091 30.543-33.091 83.997 0 114.543l348.728 351.273-348.728 348.727c-33.091 30.546-33.091 84 0 114.546 30.546 33.091 84.001 33.091 114.546 0l407.273-407.273zM1114.913 493.227c33.085-30.546 33.085-84 0-114.546l-407.276-407.27c-15.272-15.276-35.636-22.91-56-22.91-22.909 0-43.272 7.633-58.546 22.91-33.091 30.543-33.091 83.997 0 114.543l348.729 351.273-348.729 348.727c-33.091 30.546-33.091 84 0 114.546 30.546 33.091 84.001 33.091 114.546 0l407.276-407.273z" />
<glyph unicode="&#xe92b;" glyph-name="medicine" d="M864.3 600.328l-126.3 81.902v77.771h14.001c11.044 0 20.001 8.954 20.001 20v120c0 33.084-26.916 60-60.001 60h-400c-33.083 0-59.999-26.916-59.999-60v-120c0-11.046 8.955-20 20.001-20h13.998v-77.781l-129.425-84.058c-0.188-0.123-0.376-0.248-0.558-0.376-15.020-10.493-23.998-27.602-24.016-45.788v-560c0-30.879 25.122-56 56-56h648c30.876 0 56 25.121 56 56v560c0 19.837-10.598 38.298-27.702 48.33zM292.001 900c0 11.028 8.973 20 19.999 20h400c11.028 0 20.001-8.972 20.001-20v-100h-50.002v40c0 11.046-8.955 20-19.999 20s-20.001-8.954-20.001-20v-40h-59.999v40c0 11.046-8.955 20-19.999 20-11.046 0-20.001-8.954-20.001-20v-40h-59.999v40c0 11.046-8.955 20-19.999 20s-20.001-8.954-20.001-20v-40h-59.999v40c0 11.046-8.955 20-20.001 20-11.044 0-19.999-8.954-19.999-20v-40h-50.002v100zM767.002-24h-510.001v493.844c0 12.723 10.353 23.076 23.076 23.076h463.846c12.726 0 23.078-10.353 23.078-23.076v-493.844zM852.001-8c0-8.822-7.178-16-16-16h-29.002v493.844c0 34.78-28.293 63.076-63.076 63.076h-463.846c-34.781 0-63.075-28.296-63.075-63.076v-493.844h-29c-8.822 0-16 7.178-16 16v559.98c0.006 5.038 2.506 9.825 6.704 12.859l138.192 89.751c5.678 3.692 9.106 10.002 9.106 16.776v88.635h371.999v-88.638c0-6.779 3.433-13.092 9.121-16.781l135.834-88.084c0.312-0.205 0.632-0.399 0.957-0.584 4.989-2.852 8.090-8.184 8.090-13.914v-560h-0.003zM530.875 384.522c0 18.737-7.263 36.316-20.444 49.498-27.292 27.29-71.7 27.292-98.993 0l-98.998-98.998c-27.292-27.29-27.292-71.7 0-98.995 13.647-13.645 31.572-20.47 49.498-20.47 17.928 0 35.853 6.825 49.5 20.47l98.995 98.995c13.181 13.184 20.442 30.764 20.442 49.5zM383.153 264.312c-5.627-5.629-13.161-8.727-21.212-8.727s-15.585 3.098-21.212 8.727c-11.697 11.697-11.697 30.728 0 42.424l35.354 35.354 42.427-42.424-35.356-35.354zM482.148 363.308l-35.356-35.356-42.424 42.427 35.356 35.356c5.847 5.847 13.53 8.771 21.21 8.771s15.365-2.924 21.212-8.771h0.003c5.624-5.627 8.724-13.164 8.724-21.212 0-8.051-3.098-15.588-8.724-21.215zM622.001 324.46c-29.384 0-57.006-11.443-77.783-32.218-16.312-16.312-26.9-36.954-30.674-59.331-51.899-8.804-91.543-54.085-91.543-108.452 0-60.654 49.347-110.001 109.998-110.001 54.367 0 99.648 39.644 108.452 91.543 22.377 3.771 43.018 14.362 59.331 30.676 42.888 42.888 42.888 112.673 0 155.564-20.774 20.774-48.399 32.218-77.78 32.218zM531.999 54.459c-31.649 0-58.463 21.117-67.090 49.999h67.090c11.046 0 20.001 8.955 20.001 20.001s-8.955 19.999-20.001 19.999h-67.090c8.627 28.884 35.438 50.002 67.090 50.002 38.6 0 70.001-31.404 70.001-70.001s-31.401-70.001-70.001-70.001zM671.498 164.961c-8.909-8.909-19.843-15.135-31.762-18.237-3.016 14.612-8.94 28.173-17.132 40.051l13.54 13.54c7.811 7.811 7.811 20.475 0 28.285-7.813 7.811-20.472 7.811-28.285 0l-13.542-13.54c-11.876 8.197-25.439 14.118-40.051 17.134 3.105 11.922 9.331 22.856 18.237 31.762 13.22 13.22 30.799 20.503 49.498 20.503s36.278-7.283 49.498-20.503c27.292-27.292 27.292-71.7 0-98.995z" />
<glyph unicode="&#xe92c;" glyph-name="next" horiz-adv-x="1152" d="M1095.002 358.5l-400-399.997c-15.002-15.002-35.002-22.502-55.002-22.502-22.5 0-42.5 7.501-57.5 22.502-32.5 29.997-32.5 82.496 0 112.499l262.499 264.998h-764.998c-45 0-80 35-80 80 0 42.5 35 80 80 80h764.998l-262.499 262.5c-32.5 30-32.5 82.5 0 112.5 30 32.5 82.499 32.5 112.502 0l400-400c32.499-30.001 32.499-82.5 0-112.5z" />
<glyph unicode="&#xe92d;" glyph-name="pain-killer" d="M448-64h-298.667c-58.795 0-106.667 47.872-106.667 106.667v810.667c0 58.795 47.872 106.667 106.667 106.667h554.667c58.795 0 106.667-47.872 106.667-106.667v-298.667c0-11.776-9.557-21.333-21.333-21.333s-21.333 9.557-21.333 21.333v298.667c0 35.285-28.713 64-64 64h-554.667c-35.285 0-64-28.715-64-64v-810.667c0-35.287 28.715-64 64-64h298.667c11.776 0 21.333-9.557 21.333-21.333s-9.557-21.333-21.333-21.333zM320 704h-85.333c-35.285 0-64 28.715-64 64s28.715 64 64 64h85.333c35.287 0 64-28.715 64-64s-28.713-64-64-64zM234.667 789.333c-11.776 0-21.333-9.557-21.333-21.333s9.557-21.333 21.333-21.333h85.333c11.776 0 21.333 9.557 21.333 21.333s-9.557 21.333-21.333 21.333h-85.333zM320 490.667h-85.333c-35.285 0-64 28.713-64 64s28.715 64 64 64h85.333c35.287 0 64-28.713 64-64s-28.713-64-64-64zM234.667 576c-11.776 0-21.333-9.557-21.333-21.333s9.557-21.333 21.333-21.333h85.333c11.776 0 21.333 9.557 21.333 21.333s-9.557 21.333-21.333 21.333h-85.333zM320 277.333h-85.333c-35.285 0-64 28.713-64 64s28.715 64 64 64h85.333c35.287 0 64-28.713 64-64s-28.713-64-64-64zM234.667 362.667c-11.776 0-21.333-9.557-21.333-21.333s9.557-21.333 21.333-21.333h85.333c11.776 0 21.333 9.557 21.333 21.333s-9.557 21.333-21.333 21.333h-85.333zM320 64h-85.333c-35.285 0-64 28.713-64 64s28.715 64 64 64h85.333c35.287 0 64-28.713 64-64s-28.713-64-64-64zM234.667 149.333c-11.776 0-21.333-9.557-21.333-21.333s9.557-21.333 21.333-21.333h85.333c11.776 0 21.333 9.557 21.333 21.333s-9.557 21.333-21.333 21.333h-85.333zM618.667 704h-85.333c-35.284 0-64 28.715-64 64s28.716 64 64 64h85.333c35.287 0 64-28.715 64-64s-28.713-64-64-64zM533.333 789.333c-11.776 0-21.333-9.557-21.333-21.333s9.557-21.333 21.333-21.333h85.333c11.776 0 21.333 9.557 21.333 21.333s-9.557 21.333-21.333 21.333h-85.333zM533.333 490.667c-35.284 0-64 28.713-64 64s28.716 64 64 64h85.333c35.287 0 64-28.713 64-64 0-11.776-9.557-21.333-21.333-21.333s-21.333 9.557-21.333 21.333c0 11.776-9.557 21.333-21.333 21.333h-85.333c-11.776 0-21.333-9.557-21.333-21.333s9.557-21.333 21.333-21.333c11.776 0 21.333-9.557 21.333-21.333s-9.557-21.333-21.333-21.333zM862.42-64c-31.829 0-59.307 21.118-65.365 50.22l-25.085 141.906c-1.963 9.39-12.889 16.94-25.303 16.94s-23.34-7.55-25.429-17.579l-24.876-140.629c-6.185-29.74-33.662-50.859-65.451-50.859-34.004 0-62.42 23.723-66.174 55.211l-9.728 81.664c-0.638 5.335-8.448 43.82-28.46 135.81-9.684 44.329-14.548 89.726-14.548 134.953 0 57.556 46.807 104.363 104.363 104.363 19.33 0 38.274-5.246 54.869-15.189 46.551-27.904 104.318-27.904 150.869 0 16.596 9.943 35.584 15.189 54.869 15.189 57.559 0 104.363-46.807 104.363-104.363 0-45.268-4.864-90.668-14.507-134.997-25.259-116.012-28.204-133.25-28.457-135.765l-9.731-81.708c-3.755-31.444-32.212-55.166-66.219-55.166zM746.667 187.733c32.727 0 60.972-21.675 67.202-51.582l25.088-141.868c1.792-8.619 11.943-15.616 23.463-15.616 12.203 0 22.658 7.724 23.808 17.579l9.772 81.664c0.382 3.157 1.536 12.756 29.143 139.776 8.96 41.342 13.524 83.712 13.524 125.952 0 34.004-27.648 61.696-61.696 61.696-11.561 0-22.955-3.157-32.894-9.131-60.075-36.052-134.7-36.052-194.775 0-9.94 5.973-21.333 9.131-32.898 9.131-34.089 0-61.737-27.648-61.737-61.696 0-42.199 4.567-84.565 13.527-125.908 18.302-84.053 28.075-131.075 29.14-139.779l9.728-81.705c1.195-9.854 11.646-17.579 23.849-17.579 11.52 0 21.678 6.997 23.596 16.258l24.876 140.585c6.315 30.549 34.557 52.224 67.284 52.224z" />
<glyph unicode="&#xe92e;" glyph-name="paper-plane" horiz-adv-x="1092" d="M1022.641 859.733l-119.467-774.666c-1.864-18.664-13.066-35.465-29.867-44.803-9.332-3.727-18.664-7.462-29.867-7.462-7.468 0-14.93 1.864-22.398 5.598l-227.735 95.198-95.2-141.865c-7.467-13.066-20.533-18.664-33.6-18.664-20.533 0-37.333 16.8-37.333 37.328v179.2c0 14.937 3.733 28.003 11.2 37.335l406.93 522.668-548.797-494.665-192.266 80.265c-20.533 9.333-35.467 28-35.467 52.266-1.867 26.133 9.333 44.8 29.867 56l836.263 476c18.671 11.2 44.803 11.2 63.468-1.867 18.671-13.067 28.003-35.466 24.269-57.867z" />
<glyph unicode="&#xe92f;" glyph-name="patient" horiz-adv-x="1287" d="M408.579 932.832c-30.872 0-61.446-6.081-89.969-17.896s-54.442-29.133-76.273-50.964-39.149-47.749-50.964-76.272c-11.815-28.524-17.896-59.096-17.896-89.97s6.081-61.446 17.896-89.968c11.815-28.526 29.133-54.442 50.964-76.273s47.749-39.149 76.273-50.963c28.523-11.817 59.097-17.897 89.969-17.897 62.353 0 122.151 24.769 166.242 68.86s68.86 103.889 68.86 166.242c0 62.353-24.769 122.152-68.86 166.242s-103.889 68.86-166.242 68.86zM251.845 697.73c0 20.583 4.054 40.964 11.931 59.98s19.421 36.294 33.977 50.849c14.553 14.554 31.832 26.099 50.846 33.976 19.017 7.877 39.398 11.931 59.98 11.931s40.966-4.054 59.98-11.931c19.017-7.877 36.293-19.422 50.849-33.976s26.1-31.833 33.976-50.849c7.876-19.016 11.931-39.397 11.931-59.98 0-41.568-16.513-81.434-45.907-110.829-29.395-29.392-69.26-45.907-110.829-45.907s-81.434 16.516-110.826 45.907c-29.395 29.395-45.908 69.26-45.908 110.829zM957.15 828.342c-48.497 0-95.007-19.265-129.299-53.558s-53.558-80.803-53.558-129.299c0-48.497 19.266-95.007 53.558-129.299s80.802-53.558 129.299-53.558c48.497 0 95.007 19.266 129.299 53.558s53.558 80.802 53.558 129.299c0 48.496-19.266 95.006-53.558 129.299s-80.802 53.558-129.299 53.558zM852.661 645.486c0 27.712 11.009 54.289 30.603 73.885 19.596 19.596 46.174 30.604 73.886 30.604s54.29-11.009 73.886-30.604c19.596-19.596 30.606-46.173 30.606-73.885s-11.009-54.29-30.606-73.886c-19.596-19.596-46.174-30.606-73.886-30.606s-54.29 11.009-73.886 30.606c-19.594 19.596-30.603 46.174-30.603 73.886zM16.743 240.587c0 31.176 12.385 61.074 34.43 83.12s51.945 34.43 83.121 34.43h548.571c31.176 0 61.077-12.385 83.122-34.43s34.43-51.943 34.43-83.12v-27.742c-0.041-4.231-0.336-8.452-0.889-12.645-1.176-10.778-3.095-21.46-5.746-31.972-8.654-34.304-24.052-66.537-45.296-94.825-52.976-70.688-154.018-133.225-339.907-133.225-185.887 0-286.928 62.537-339.905 133.225-21.225 28.292-36.606 60.527-45.244 94.825-3.419 13.654-5.605 27.592-6.531 41.639l-0.157 2.978v27.742zM95.11 214.727v-0.942l0.47-5.225c0.523-4.909 1.567-12.276 3.866-21.314 6.091-24.166 16.924-46.879 31.87-66.823 35.213-46.861 110.498-101.876 277.263-101.876s242.050 55.015 277.211 101.876c18.286 24.348 27.376 48.693 31.87 66.823 2.203 8.704 3.654 17.584 4.336 26.539l0.053 0.942v25.86c0 10.392-4.128 20.357-11.478 27.707-7.346 7.349-17.314 11.478-27.707 11.478h-548.571c-10.392 0-20.359-4.128-27.707-11.478s-11.476-17.314-11.476-27.707v-25.86zM805.642 64.521c40.384-12.382 90.226-19.851 151.406-19.851 144.718 0 225.593 41.586 269.531 91.742 17.54 19.866 30.553 43.306 38.137 68.702 2.967 10.263 4.874 20.802 5.696 31.451l0.102 2.455v1.568c0 31.176-12.385 61.074-34.43 83.12s-51.943 34.43-83.12 34.43h-347.639c20.585-21.472 35.632-48.377 42.739-78.365h304.953c10.301 0 20.19-4.055 27.522-11.293 7.335-7.235 11.524-17.069 11.662-27.37l-0.263-2.402c-0.521-3.941-1.343-7.835-2.455-11.65-4.409-14.441-11.896-27.756-21.943-39.026-24.608-28.213-80.823-64.995-210.493-64.995-49.164 0-87.771 5.278-118.126 13.429-8.005-25.293-19.19-49.468-33.28-71.943z" />
<glyph unicode="&#xe930;" glyph-name="pill-4" horiz-adv-x="922" d="M860.8 960h-799.997c-33.084 0-60-26.916-60-60v-904.002c0-33.083 26.916-59.999 60-59.999h799.997c33.083 0 59.999 26.916 59.999 59.999v904.002c0 33.084-26.916 60-59.999 60zM880.799-4.001c0-11.026-8.97-19.999-19.999-19.999h-799.997c-11.028 0-20 8.973-20 19.999v904.002c0 11.028 8.972 20 20 20h799.997c11.028 0 19.999-8.972 19.999-20v-904.002zM820.8 880h-719.997c-11.046 0-20-8.956-20-20v-824.001c0-11.044 8.954-19.999 20-19.999h719.997c11.046 0 20.001 8.955 20.001 19.999v824.001c0 11.044-8.955 20-20.001 20zM800.801 56h-679.998v784h679.998v-784zM231.024 487.972c17.998 0 35.997 6.851 49.698 20.549l99.553 99.556c13.238 13.235 20.526 30.886 20.526 49.7s-7.288 36.462-20.524 49.697c-13.235 13.236-30.886 20.526-49.697 20.526-18.813 0-36.462-7.29-49.697-20.526l-99.557-99.553c-27.402-27.405-27.402-71.992 0.002-99.397 13.702-13.701 31.7-20.552 49.696-20.552zM309.166 679.191c5.681 5.681 13.286 8.809 21.414 8.809s15.731-3.128 21.414-8.809c5.681-5.681 8.806-13.286 8.806-21.412 0-8.128-3.128-15.734-8.809-21.414l-35.635-35.635-42.826 42.826 35.635 35.635zM209.612 579.635l35.636 35.635 42.826-42.826-35.636-35.635c-11.806-11.807-31.020-11.807-42.828 0-11.808 11.804-11.806 31.020 0.002 42.826zM231.024 167.972c17.998 0 35.997 6.851 49.698 20.549l99.553 99.556c13.238 13.235 20.526 30.886 20.526 49.7 0 18.808-7.288 36.46-20.524 49.697-13.235 13.235-30.886 20.526-49.697 20.526-18.813 0-36.462-7.291-49.697-20.526l-99.557-99.553c-27.402-27.405-27.402-71.992 0.002-99.397 13.702-13.701 31.7-20.552 49.696-20.552zM309.166 359.191c5.681 5.681 13.286 8.809 21.414 8.809s15.731-3.128 21.414-8.809c5.681-5.681 8.809-13.286 8.809-21.412 0-8.128-3.128-15.734-8.809-21.414l-35.638-35.635-42.824 42.826 35.633 35.635zM209.612 259.635l35.636 35.635 42.826-42.826-35.634-35.635c-11.806-11.807-31.020-11.804-42.828 0-11.808 11.807-11.808 31.020 0 42.826zM591.025 487.972c17.997 0 35.996 6.851 49.697 20.549l99.553 99.556c13.238 13.235 20.526 30.886 20.526 49.7s-7.288 36.462-20.524 49.697c-13.235 13.236-30.886 20.526-49.697 20.526-18.813 0-36.462-7.29-49.697-20.526l-99.556-99.553c-27.402-27.405-27.402-71.992 0-99.397 13.704-13.701 31.7-20.552 49.697-20.552zM669.166 679.191c5.681 5.681 13.286 8.809 21.414 8.809s15.731-3.128 21.414-8.809c5.678-5.681 8.806-13.286 8.806-21.412 0-8.128-3.126-15.734-8.809-21.414l-35.635-35.635-42.826 42.826 35.635 35.635zM569.613 579.635l35.635 35.635 42.826-42.826-35.635-35.635c-11.809-11.807-31.022-11.807-42.829 0s-11.807 31.020 0.003 42.826zM591.025 167.972c17.997 0 35.996 6.851 49.697 20.549l99.553 99.556c13.238 13.235 20.526 30.886 20.526 49.7 0 18.808-7.288 36.46-20.524 49.697-13.235 13.235-30.886 20.526-49.697 20.526-18.813 0-36.462-7.291-49.697-20.526l-99.556-99.553c-27.402-27.405-27.402-71.992 0-99.397 13.704-13.701 31.7-20.552 49.697-20.552zM669.166 359.191c5.681 5.681 13.286 8.809 21.414 8.809s15.731-3.128 21.414-8.809c5.678-5.681 8.809-13.286 8.809-21.412 0-8.128-3.128-15.734-8.809-21.414l-35.638-35.635-42.824 42.826 35.633 35.635zM569.613 259.635l35.635 35.635 42.826-42.826-35.635-35.635c-11.804-11.807-31.020-11.804-42.826 0-11.809 11.807-11.809 31.020 0 42.826zM460.8 108.004c11.046 0 19.999 8.955 19.999 19.999v639.997c0 11.044-8.952 20-19.999 20s-19.999-8.956-19.999-20v-639.997c0-11.044 8.952-19.999 19.999-19.999z" />
</font>
</defs>
</svg>
