<?xml version="1.0" standalone="no"?>
<!DOCTYPE svg PUBLIC "-//W3C//DTD SVG 1.1//EN" "http://www.w3.org/Graphics/SVG/1.1/DTD/svg11.dtd" >
<svg xmlns="http://www.w3.org/2000/svg">
<metadata>Generated by IcoMoon</metadata>
<defs>
<font id="icomoon" horiz-adv-x="1024">
<font-face units-per-em="1024" ascent="960" descent="-64" />
<missing-glyph horiz-adv-x="1024" />
<glyph unicode="&#x20;" horiz-adv-x="512" d="" />
<glyph unicode="&#xe900;" glyph-name="01" d="M919.228 331.11l-5.082 4.506c-77.18 77.18-77.18 202.347 0 279.526l5.385 4.771c6.11 4.809 11.908 9.963 17.408 15.421 77.18 77.181 77.18 202.344 0 279.526-77.184 77.182-202.342 77.182-279.526 0-5.461-5.497-10.611-11.299-15.424-17.406l-4.77-5.382c-77.184-77.181-202.342-77.181-279.526 0l-4.504 5.076c-67.372 85.847-191.618 100.886-277.503 33.514s-100.924-191.618-33.552-277.503c4.924-6.26 10.192-12.253 15.841-17.864 5.573-5.573 11.489-10.802 17.711-15.65l5.077-4.504c77.181-77.18 77.181-202.347 0-279.526l-5.382-4.77c-6.107-4.809-11.909-9.963-17.406-15.42-77.182-77.184-77.182-202.342 0-279.526 77.182-77.18 202.344-77.18 279.526 0 5.458 5.491 10.612 11.298 15.421 17.404l4.771 5.38c77.183 77.184 202.342 77.184 279.526 0l4.506-5.073c4.847-6.221 10.074-12.139 15.646-17.711 77.184-77.18 202.347-77.18 279.531 0 77.18 77.184 77.18 202.342 0 279.526-5.577 5.568-11.494 10.803-17.711 15.646l0.038 0.038zM686.306 286.566h-377.702v377.702h377.702v-377.702z" />
<glyph unicode="&#xe901;" glyph-name="02" d="M508.523 439.509c-257.28 0-465.856 181.39-465.856 405.291h931.716c0-223.901-208.576-405.291-465.86-405.291zM508.523 34.219c-257.28 0-465.856 181.389-465.856 405.291h931.716c0-223.868-208.576-405.291-465.86-405.291z" />
<glyph unicode="&#xe902;" glyph-name="03" d="M641.822 454.443c12.211 7.629 27.119 11.302 45.487 11.302h233.98c43.699 0 79.147 35.447 79.147 79.147v0.073c0 43.701-35.375 79.181-79.078 79.216h-241.152c-13.295-0.21-26.381 3.219-37.858 9.903-11.268 6.368-20.715 15.535-27.396 26.592-6.404 10.602-9.728 22.813-9.519 35.235 0 14.766 3.081 27.363 9.485 38.559 6.332 11.232 15.428 20.679 26.449 27.467 10.5 6.578 22.605 9.762 36.813 9.762h242.586c43.738 0 79.215 35.445 79.215 79.217s-35.443 79.217-79.215 79.217h-253.747c-42.377 0-81.809-10.812-117.15-32.086-34.5-20.574-63.121-49.651-83.204-84.431-7.697-13.331-13.995-27.432-18.859-42.058-34.432 19.874-73.83 30.056-117.323 30.056h-250.773c-43.737 0-79.217-35.445-79.217-79.217 0-43.738 35.445-79.217 79.217-79.217h237.513c17.285 0 31.526-3.499 43.562-10.672 11.582-6.718 21.064-16.515 27.397-28.342 13.366-25.018 13.191-55.075-0.42-79.951-6.858-12.527-16.9-23.023-29.111-30.443-12.212-7.629-27.118-11.302-45.487-11.302h-234.013c-43.702 0-79.148-35.443-79.148-79.147s35.375-79.181 79.078-79.219h241.186c13.296 0.213 26.383-3.217 37.859-9.899 11.267-6.37 20.714-15.539 27.397-26.594 6.403-10.603 9.727-22.814 9.517-35.234 0-14.767-3.114-27.362-9.482-38.524-6.333-11.268-15.431-20.715-26.452-27.503-10.497-6.579-22.604-9.762-36.809-9.762h-242.586c-43.737 0-79.217-35.409-79.252-79.147 0-43.738 35.41-79.219 79.147-79.253h253.853c42.373 0 81.772 10.812 117.148 32.085 34.5 20.574 63.121 49.651 83.204 84.433 7.697 13.329 14.033 27.43 18.859 42.057 34.432-19.874 73.83-30.059 117.359-30.059h250.773c43.703 0 79.147 35.447 79.147 79.151 0 43.699-35.443 79.147-79.147 79.147h-237.513c-17.284 0-31.526 3.499-43.563 10.671-11.58 6.72-21.065 16.516-27.396 28.343-13.367 25.015-13.193 55.108 0.418 79.987 6.822 12.561 16.9 23.091 29.111 30.473l-0.034-0.034z" />
<glyph unicode="&#xe903;" glyph-name="04" d="M512 759.467c196.267 0 354.133 38.4 354.133 85.333s-157.867 85.333-354.133 85.333c-196.267 0-354.133-38.4-354.133-85.333s157.867-85.333 354.133-85.333c-196.267 0-354.133-68.267-354.133-149.333 0-72.533 119.467-132.267 281.6-145.067-162.133-21.333-281.6-110.933-281.6-221.867 0-123.733 157.867-226.133 354.133-226.133s354.133 102.4 354.133 226.133c0 110.933-119.467 200.533-281.6 221.867 162.133 12.8 281.6 72.533 281.6 145.067 0 81.067-157.867 149.333-354.133 149.333z" />
<glyph unicode="&#xe904;" glyph-name="05" horiz-adv-x="1707" d="M0-51.2l853.333 1024 853.333-1024h-1706.667z" />
<glyph unicode="&#xe905;" glyph-name="06" horiz-adv-x="1707" d="M0 972.8l853.333-1024 853.333 1024h-1706.667z" />
<glyph unicode="&#xe906;" glyph-name="07" d="M947.892 547.286c-20.757 10.378-38.054 13.838-55.351 13.838v13.838c0 0 0 3.459 0 3.459s0 3.459 0 3.459c0 207.568-169.514 377.081-377.081 377.081s-377.081-169.514-377.081-377.081c0 0 0-3.459 0-3.459s0-3.459 0-3.459v-13.838c-17.297 0-38.054-3.459-55.351-13.838-38.054-24.216-55.351-72.649-55.351-141.838 0-72.649 20.757-121.081 55.351-145.297 17.297-10.378 34.595-13.838 51.892-13.838 0 0 3.459 0 3.459 0v-13.838c0-20.757 13.838-34.595 34.595-34.595h114.162c20.757 0 34.595 13.838 34.595 34.595v342.486c0 20.757-13.838 34.595-34.595 34.595h-79.568c13.838 155.676 145.297 280.216 307.892 280.216 159.135 0 290.595-121.081 307.892-280.216h-76.108c-20.757 0-34.595-13.838-34.595-34.595v-342.486c0-20.757 13.838-34.595 34.595-34.595h79.568v-20.757c0-44.973-34.595-79.568-79.568-79.568h-86.486c-13.838 34.595-44.973 55.351-83.027 55.351h-55.351c-51.892 0-89.946-41.514-89.946-89.946s41.514-89.946 89.946-89.946h55.351c38.054 0 69.189 24.216 83.027 55.351h86.486c83.027 0 148.757 65.73 148.757 148.757v69.189c0 0 3.459 0 3.459 0 17.297 0 34.595 3.459 51.892 13.838 38.054 24.216 55.351 72.649 55.351 145.297-3.459 69.189-24.216 117.622-58.811 141.838zM134.919 315.503c-6.919 0-13.838 0-20.757 3.459-13.838 10.378-24.216 41.514-24.216 86.486s6.919 76.108 24.216 83.027c6.919 3.459 13.838 3.459 20.757 3.459v-176.432zM249.081 267.070h-44.973v273.297h44.973v-273.297zM570.811 38.746h-55.351c-13.838 0-20.757 10.378-20.757 20.757s10.378 20.757 20.757 20.757h55.351c13.838 0 20.757-10.378 20.757-20.757s-10.378-20.757-20.757-20.757zM774.919 267.070v273.297h44.973v-273.297h-44.973zM909.838 318.962c-6.919-3.459-13.838-3.459-20.757-3.459v176.432c6.919 0 13.838 0 20.757-3.459 13.838-10.378 24.216-41.514 24.216-83.027 0-44.973-10.378-76.108-24.216-86.486z" />
<glyph unicode="&#xe907;" glyph-name="08" horiz-adv-x="960" d="M780.8 640l-268.8 268.8c-19.2 19.2-44.8 19.2-64 0l-268.8-268.8c-19.2-19.2-19.2-51.2 0-70.4s51.2-19.2 70.4 0l185.6 185.6v-742.4c0-25.6 19.2-51.2 51.2-51.2s51.2 19.2 51.2 51.2v748.8l185.6-185.6c6.4-6.4 19.2-12.8 32-12.8s25.6 6.4 32 12.8c12.8 12.8 12.8 44.8-6.4 64z" />
<glyph unicode="&#xe908;" glyph-name="09" horiz-adv-x="960" d="M780.8 352c-19.2 19.2-51.2 19.2-70.4 0l-185.6-185.6v742.4c0 25.6-19.2 51.2-51.2 51.2s-38.4-25.6-38.4-51.2v-748.8l-192 192c-19.2 19.2-51.2 19.2-64 0s-19.2-51.2 0-70.4l268.8-268.8c6.4-6.4 19.2-12.8 32-12.8s25.6 0 32 12.8l268.8 268.8c19.2 19.2 19.2 51.2 0 70.4z" />
<glyph unicode="&#xe909;" glyph-name="10" d="M1000.727 18.618l-223.418 228.073c65.164 74.473 102.4 172.218 102.4 279.273 0 237.382-195.491 432.873-432.873 432.873s-437.527-190.836-437.527-432.873 195.491-432.873 432.873-432.873c107.055 0 204.8 37.236 283.927 102.4l223.418-228.073c13.964-13.964 37.236-13.964 51.2 0 13.964 18.618 13.964 37.236 0 51.2zM83.782 525.964c0 200.145 162.909 363.055 363.055 363.055s363.055-162.909 363.055-363.055c0-200.145-162.909-363.055-363.055-363.055s-363.055 162.909-363.055 363.055z" />
<glyph unicode="&#xe90a;" glyph-name="11" horiz-adv-x="866" d="M821.197 532.413c55.127-31.831 55.127-111.395 0-143.226l-697.162-402.507c-55.127-31.827-124.034 7.96-124.034 71.613v805.014c0 63.655 68.908 103.438 124.034 71.611l697.162-402.505z" />
<glyph unicode="&#xe90b;" glyph-name="12" d="M960 459.196c0-231.228-172.8-420.702-393.6-446.396v346.837h105.6l16 122.035h-118.4v73.866c0 35.326 9.6 57.807 60.8 57.807h64v112.401c-32 3.212-60.8 3.212-92.8 3.212-92.8 0-156.8-57.807-156.8-160.573v-89.92h-105.6v-122.035h105.6v-343.629c-217.6 35.328-380.8 221.589-380.8 446.396 0 247.281 201.6 449.604 448 449.604s448-202.323 448-449.604z" />
<glyph unicode="&#xe90c;" glyph-name="13" d="M490.667 887.467c-247.38 0-448-200.62-448-448s200.62-448 448-448c247.381 0 448 200.619 448 448s-200.619 448-448 448zM720.986 551.379c0.226-4.97 0.333-9.973 0.333-14.999 0-153.438-116.796-330.381-330.402-330.398-65.573 0-126.595 19.213-177.993 52.169 9.082-1.067 18.34-1.613 27.703-1.613 54.407 0 104.475 18.551 144.235 49.702-50.838 0.943-93.695 34.509-108.483 80.657 7.087-1.365 14.368-2.099 21.822-2.099 10.605 0 20.86 1.434 30.625 4.092-53.13 10.641-93.153 57.596-93.153 113.822 0 0.525 0 0.998 0.017 1.489 15.645-8.7 33.548-13.931 52.588-14.528-31.185 20.809-51.677 56.371-51.677 96.654 0 21.28 5.757 41.213 15.732 58.362 57.26-70.262 142.853-116.48 239.348-121.327-1.997 8.503-3.029 17.378-3.029 26.477 0 64.102 52.011 116.112 116.13 116.112 33.408 0 63.578-14.122 84.753-36.698 26.462 5.215 51.294 14.893 73.745 28.193-8.678-27.108-27.089-49.84-51.063-64.225 23.484 2.818 45.884 9.047 66.675 18.288-15.522-23.293-35.247-43.75-57.907-60.13z" />
<glyph unicode="&#xe90d;" glyph-name="14" d="M512 908.8c-247.323 0-448-200.677-448-448 0-247.326 200.677-448 448-448 246.835 0 448 200.674 448 448 0 247.323-201.165 448-448 448zM807.91 702.292c53.453-65.111 85.521-148.199 86.494-238.092-12.634 2.428-138.97 28.181-266.274 12.147-2.914 6.319-5.346 13.12-8.26 19.921-7.774 18.466-16.521 37.414-25.267 55.394 140.911 57.335 205.052 139.94 213.308 150.63zM512 842.717c97.178 0 186.099-36.442 253.641-96.208-6.805-9.718-64.627-86.976-200.678-137.995-62.682 115.158-132.164 209.423-142.853 224 28.664 6.803 58.796 10.204 89.891 10.204zM349.225 806.761c10.203-13.605 78.231-108.356 141.881-221.084-178.811-47.621-336.729-46.648-353.735-46.648 24.781 118.56 104.954 217.198 211.854 267.732zM129.111 460.314c0 3.887 0 7.774 0 11.661 16.521-0.482 202.135-2.914 393.091 54.421 11.179-21.376 21.38-43.243 31.1-65.109-4.86-1.459-10.206-2.918-15.061-4.373-197.277-63.65-302.231-237.606-310.978-252.181-60.737 67.537-98.152 157.431-98.152 255.582zM512 77.909c-88.435 0-170.065 30.127-234.69 80.661 6.802 14.089 84.545 163.746 300.285 239.061 0.973 0.486 1.459 0.486 2.432 0.973 53.931-139.452 75.802-256.555 81.63-290.082-46.161-19.921-96.695-30.613-149.658-30.613zM725.308 143.505c-3.883 23.326-24.294 135.083-74.342 272.593 120.021 18.948 224.973-12.147 238.093-16.525-16.521-106.411-77.743-198.242-163.75-256.068z" />
<glyph unicode="&#xe90e;" glyph-name="15" d="M512 908.8c-247.38 0-448-200.62-448-448s200.62-448 448-448c247.381 0 448 200.619 448 448s-200.619 448-448 448zM373.522 217.041h-115.622v347.831h115.622v-347.831zM315.72 612.367h-0.753c-38.798 0-63.892 26.705-63.892 60.095 0 34.125 25.865 60.095 65.415 60.095s63.892-25.97 64.645-60.095c0-33.373-25.095-60.095-65.415-60.095zM790.426 217.041h-115.605v186.078c0 46.763-16.747 78.665-58.573 78.665-31.936 0-50.961-21.508-59.324-42.283-3.063-7.437-3.797-17.813-3.797-28.207v-194.253h-115.605c0 0 1.523 315.213 0 347.849h115.605v-49.246c15.364 23.697 42.854 57.419 104.192 57.419 76.075 0 133.107-49.717 133.107-156.555v-199.467z" />
<glyph unicode="&#xe90f;" glyph-name="16" d="M917.333 460.8c0 224-181.333 405.333-405.333 405.333s-405.333-181.333-405.333-405.333c0-117.333 51.2-224 132.267-298.667 2.133-2.133 4.267-4.267 6.4-6.4 72.533-64 164.267-102.4 266.667-102.4s196.267 38.4 268.8 102.4c2.133 2.133 4.267 4.267 6.4 6.4 78.933 74.667 130.133 181.333 130.133 298.667zM149.333 460.8c0 200.533 162.133 362.667 362.667 362.667s362.667-162.133 362.667-362.667c0-98.133-38.4-185.6-100.267-251.733-25.6 40.533-59.733 74.667-100.267 98.133-21.333 12.8-42.667 23.467-66.133 29.867 51.2 32 85.333 89.6 85.333 153.6 0 100.267-81.067 181.333-181.333 181.333s-181.333-81.067-181.333-181.333c0-66.133 34.133-121.6 85.333-153.6-23.467-6.4-44.8-17.067-66.133-29.867-40.533-25.6-74.667-57.6-100.267-98.133-61.867 66.133-100.267 153.6-100.267 251.733zM373.333 492.8c0 76.8 61.867 138.667 138.667 138.667s138.667-61.867 138.667-138.667-61.867-138.667-138.667-138.667-138.667 61.867-138.667 138.667zM283.733 179.2c21.333 38.4 53.333 68.267 89.6 91.733 83.2 51.2 194.133 51.2 279.467 0 36.267-23.467 68.267-55.467 89.6-91.733-64-51.2-142.933-81.067-230.4-81.067s-166.4 29.867-228.267 81.067z" />
<glyph unicode="&#xe910;" glyph-name="17" d="M915.911 96.711l-176.356 176.356c54.044 62.578 88.178 145.067 88.178 236.089 0 201.956-162.133 364.089-364.089 364.089s-364.089-162.133-364.089-364.089c0-201.956 162.133-364.089 364.089-364.089 91.022 0 173.511 34.133 236.089 88.178l176.356-176.356c5.689-5.689 14.222-8.533 19.911-8.533s14.222 2.844 19.911 8.533c11.378 11.378 11.378 28.444 0 39.822zM156.444 509.156c0 170.667 139.378 307.2 307.2 307.2s307.2-139.378 307.2-307.2-139.378-307.2-307.2-307.2-307.2 136.533-307.2 307.2z" />
<glyph unicode="&#xe911;" glyph-name="18" d="M887.467 381.156c-8.533 8.533-17.067 11.378-28.444 8.533-56.889-17.067-119.467-17.067-176.356 0-56.889 14.222-110.933 45.511-153.6 88.178s-73.956 96.711-88.178 153.6c-14.222 56.889-14.222 119.467 0 176.356 2.844 8.533 0 19.911-8.533 28.444s-17.067 11.378-28.444 8.533c-65.422-19.911-128-54.044-176.356-102.4s-82.489-110.933-102.4-176.356c-17.067-68.267-17.067-136.533 0-204.8 17.067-65.422 54.044-128 102.4-176.356s110.933-85.333 176.356-102.4c34.133-8.533 68.267-14.222 102.4-14.222s68.267 5.689 99.556 14.222c68.267 17.067 128 51.2 176.356 102.4 48.356 48.356 85.333 108.089 102.4 176.356 11.378 2.844 8.533 14.222 2.844 19.911zM750.933 219.022c-42.667-42.667-93.867-71.111-150.756-85.333s-116.622-14.222-176.356 0c-56.889 14.222-110.933 45.511-150.756 88.178-42.667 39.822-73.956 93.867-88.178 150.756s-17.067 116.622 0 176.356c14.222 56.889 45.511 110.933 85.333 150.756 31.289 31.289 65.422 54.044 105.244 71.111-8.533-51.2-2.844-105.244 8.533-156.444 17.067-68.267 54.044-130.844 102.4-179.2s110.933-85.333 179.2-102.4c51.2-14.222 102.4-17.067 156.444-8.533-17.067-39.822-39.822-73.956-71.111-105.244z" />
<glyph unicode="&#xe912;" glyph-name="19" d="M987.022 472.178c0 2.844-139.378 304.356-475.022 304.356s-472.178-301.511-475.022-304.356c-2.844-8.533-2.844-17.067 0-22.756 0-2.844 139.378-304.356 475.022-304.356s472.178 301.511 475.022 304.356c2.844 8.533 2.844 14.222 0 22.756zM512 201.956c-264.533 0-389.689 207.644-415.289 258.844 28.444 51.2 150.756 258.844 415.289 258.844s389.689-207.644 415.289-258.844c-25.6-51.2-153.6-258.844-415.289-258.844zM512 648.533c-105.244 0-187.733-85.333-187.733-187.733 0-105.244 85.333-187.733 187.733-187.733 105.244 0 187.733 85.333 187.733 187.733 0 105.244-82.489 187.733-187.733 187.733zM512 329.956c-73.956 0-130.844 59.733-130.844 130.844 0 73.956 59.733 130.844 130.844 130.844s130.844-59.733 130.844-130.844c0-71.111-59.733-130.844-130.844-130.844z" />
<glyph unicode="&#xe913;" glyph-name="20" d="M512 876.8c-230.4 0-416-185.6-416-416s185.6-416 416-416c230.4 0 416 185.6 416 416s-185.6 416-416 416zM512 108.8c-195.2 0-352 156.8-352 352s156.8 352 352 352 352-156.8 352-352-156.8-352-352-352zM560 492.8h-96c-12.8 0-25.6 6.4-35.2 12.8-9.6 9.6-12.8 22.4-12.8 35.2s6.4 25.6 12.8 35.2c9.6 9.6 22.4 12.8 35.2 12.8h144c19.2 0 32 12.8 32 32s-12.8 32-32 32h-64v32c0 19.2-12.8 32-32 32s-32-12.8-32-32v-32h-16c-28.8 0-57.6-12.8-80-32-22.4-22.4-32-48-32-80 0-28.8 12.8-57.6 32-80 22.4-22.4 48-32 80-32h96c12.8 0 25.6-6.4 35.2-12.8 9.6-9.6 12.8-22.4 12.8-35.2s-6.4-25.6-12.8-35.2-22.4-12.8-35.2-12.8h-144c-19.2 0-32-12.8-32-32s12.8-32 32-32h64v-32c0-19.2 12.8-32 32-32s32 12.8 32 32v32h16c28.8 0 57.6 12.8 80 32s32 48 32 80-12.8 57.6-32 80c-22.4 19.2-51.2 32-80 32z" />
<glyph unicode="&#xe914;" glyph-name="21" d="M873.6 665.6c0 3.2 0 3.2 0 0 0 3.2-3.2 3.2-3.2 3.2-73.6 124.8-204.8 208-358.4 208-230.4 0-416-185.6-416-416 0-73.6 19.2-144 54.4-204.8 0 0 0 0 0-3.2 0 0 3.2-3.2 3.2-3.2 73.6-121.6 204.8-204.8 358.4-204.8 230.4 0 416 185.6 416 416 0 73.6-19.2 144-54.4 204.8zM800 662.4l-256-147.2v294.4c105.6-6.4 198.4-64 256-147.2zM480 809.6v-332.8l-288-166.4c-22.4 44.8-32 96-32 147.2 0 185.6 140.8 336 320 352zM512 108.8c-118.4 0-224 57.6-288 150.4l608 348.8c22.4-44.8 32-96 32-147.2 0-195.2-156.8-352-352-352z" />
<glyph unicode="&#xe915;" glyph-name="22" d="M953.6 540.8c-3.2 19.2-16 35.2-32 44.8l-83.2 44.8c-6.4 9.6-9.6 19.2-16 28.8v92.8c0 19.2-6.4 38.4-22.4 51.2-41.6 35.2-86.4 60.8-137.6 80-19.2 6.4-38.4 3.2-54.4-6.4l-80-48c-12.8 0-22.4 0-35.2 0l-76.8 48c-16 9.6-35.2 12.8-54.4 6.4-51.2-19.2-96-44.8-137.6-80-16-12.8-22.4-32-22.4-51.2v-92.8c-6.4-9.6-12.8-19.2-16-28.8l-83.2-44.8c-16-9.6-28.8-25.6-32-44.8-9.6-51.2-9.6-105.6 0-156.8 3.2-19.2 16-35.2 32-44.8l83.2-44.8c6.4-9.6 9.6-19.2 16-28.8v-92.8c0-19.2 6.4-38.4 22.4-51.2 41.6-35.2 86.4-60.8 137.6-80 19.2-6.4 38.4-3.2 54.4 6.4l80 48c12.8 0 22.4 0 35.2 0l76.8-51.2c9.6-6.4 22.4-9.6 32-9.6 6.4 0 16 0 22.4 3.2 48 19.2 96 44.8 137.6 80 16 12.8 22.4 32 22.4 51.2v92.8c6.4 9.6 12.8 19.2 16 28.8l83.2 44.8c16 9.6 28.8 25.6 32 44.8 9.6 54.4 9.6 105.6 0 160zM889.6 393.6l-89.6-51.2c-6.4-3.2-9.6-9.6-12.8-12.8-6.4-12.8-12.8-25.6-22.4-38.4-3.2-6.4-6.4-12.8-6.4-19.2v-105.6c-35.2-28.8-73.6-51.2-115.2-67.2l-89.6 54.4c-6.4 3.2-12.8 6.4-19.2 3.2-16 0-32 0-44.8 0-6.4 0-12.8 0-19.2-3.2l-89.6-54.4c-41.6 16-83.2 38.4-115.2 67.2l3.2 102.4c0 6.4-3.2 12.8-6.4 19.2-9.6 12.8-16 25.6-22.4 38.4-3.2 6.4-6.4 9.6-12.8 12.8l-89.6 51.2c-6.4 44.8-6.4 89.6 0 134.4l86.4 54.4c6.4 3.2 9.6 9.6 12.8 12.8 6.4 12.8 12.8 25.6 22.4 38.4 3.2 6.4 6.4 12.8 6.4 19.2v105.6c35.2 28.8 73.6 51.2 115.2 67.2l89.6-54.4c6.4-3.2 12.8-6.4 19.2-3.2 16 0 32 0 44.8 0 6.4 0 12.8 0 19.2 3.2l89.6 54.4c41.6-16 83.2-38.4 115.2-67.2l-3.2-102.4c0-6.4 3.2-12.8 6.4-19.2 9.6-12.8 16-25.6 22.4-38.4 3.2-6.4 6.4-9.6 12.8-12.8l89.6-51.2c12.8-48 12.8-92.8 3.2-137.6zM512 684.8c-124.8 0-224-99.2-224-224s99.2-224 224-224c124.8 0 224 99.2 224 224s-99.2 224-224 224zM512 300.8c-89.6 0-160 70.4-160 160s70.4 160 160 160 160-70.4 160-160-70.4-160-160-160z" />
<glyph unicode="&#xe916;" glyph-name="23" d="M908.8 793.6c-12.8 12.8-28.8 19.2-44.8 19.2h-576c-16 0-32-6.4-44.8-19.2s-19.2-28.8-19.2-44.8v-64h-64c-35.2 0-64-28.8-64-64v-96c0 0 0 0 0 0s0 0 0 0v-352c0-35.2 28.8-64 64-64h576c35.2 0 64 28.8 64 64v64h64c16 0 32 6.4 44.8 19.2s19.2 28.8 19.2 44.8v448c0 16-6.4 32-19.2 44.8zM736 620.8v-64h-576v64h576zM736 172.8h-576v320h576v-320zM864 300.8h-64v320c0 35.2-28.8 64-64 64h-448v64h576v-448z" />
<glyph unicode="&#xe917;" glyph-name="24" horiz-adv-x="910" d="M881.778 415.289c-17.067 17.067-45.511 17.067-62.578 0l-324.267-312.889v813.511c0 22.756-17.067 45.511-45.511 45.511s-39.822-22.756-39.822-45.511v-807.822l-324.267 307.2c-17.067 17.067-45.511 17.067-62.578 0s-17.067-45.511 0-62.578l398.222-381.156c5.689-5.689 5.689-5.689 11.378-5.689 0 0 0 0 0 0s0 0 0 0 0 0 0 0c5.689 0 11.378 0 11.378-5.689 0 0 0 0 0 0s0 0 0 0c5.689 0 11.378 0 17.067 5.689 0 0 0 0 0 0 5.689 0 5.689 5.689 11.378 5.689l398.222 381.156c28.444 17.067 28.444 45.511 11.378 62.578z" />
<glyph unicode="&#xe918;" glyph-name="25" horiz-adv-x="910" d="M881.778 568.889l-398.222 381.156c0 0-5.689 0-11.378 5.689 0 0 0 0 0 0s0 0-5.689 0-11.378 0-11.378 0c0 0 0 0 0 0s0 0 0 0 0 0 0 0c-5.689 0-11.378 0-17.067-5.689 0 0 0 0-5.689 0 0 0 0 0 0 0-5.689 0-5.689-5.689-11.378-5.689l-398.222-381.156c-17.067-17.067-17.067-45.511 0-62.578s45.511-17.067 62.578 0l324.267 312.889v-807.822c0-22.756 17.067-45.511 45.511-45.511s45.511 17.067 45.511 45.511v807.822l324.267-312.889c17.067-17.067 45.511-17.067 62.578 0 11.378 22.756 11.378 51.2-5.689 68.267z" />
<glyph unicode="&#xe919;" glyph-name="26" horiz-adv-x="1502" d="M0 375.467h1182.304l-298.708-306.347 117.651-120.32 500.62 512-500.62 512-117.651-120.32 298.708-306.347h-1182.304v-170.667z" />
<glyph unicode="&#xe91a;" glyph-name="27" d="M942.080 486.4h-56.32c-10.24 189.44-163.84 337.92-348.16 348.16v56.32c0 15.36-10.24 25.6-25.6 25.6s-25.6-10.24-25.6-25.6v-56.32c-189.44-10.24-337.92-158.72-348.16-348.16h-56.32c-15.36 0-25.6-10.24-25.6-25.6s10.24-25.6 25.6-25.6h56.32c10.24-189.44 163.84-337.92 348.16-348.16v-56.32c0-15.36 10.24-25.6 25.6-25.6s25.6 10.24 25.6 25.6v56.32c189.44 10.24 337.92 163.84 348.16 348.16h56.32c15.36 0 25.6 10.24 25.6 25.6s-10.24 25.6-25.6 25.6zM537.6 138.24v51.2c0 15.36-10.24 25.6-25.6 25.6s-25.6-10.24-25.6-25.6v-51.2c-158.72 10.24-286.72 138.24-296.96 296.96h51.2c15.36 0 25.6 10.24 25.6 25.6s-10.24 25.6-25.6 25.6h-51.2c10.24 158.72 138.24 286.72 296.96 296.96v-51.2c0-15.36 10.24-25.6 25.6-25.6s25.6 10.24 25.6 25.6v51.2c158.72-10.24 286.72-138.24 296.96-296.96h-51.2c-15.36 0-25.6-10.24-25.6-25.6s10.24-25.6 25.6-25.6h51.2c-10.24-158.72-138.24-286.72-296.96-296.96zM512 614.4c-87.040 0-153.6-66.56-153.6-153.6s66.56-153.6 153.6-153.6 153.6 66.56 153.6 153.6-66.56 153.6-153.6 153.6zM512 358.4c-56.32 0-102.4 46.080-102.4 102.4s46.080 102.4 102.4 102.4c56.32 0 102.4-46.080 102.4-102.4s-46.080-102.4-102.4-102.4z" />
<glyph unicode="&#xe91b;" glyph-name="28" d="M967.68 440.32c-5.12 5.12-5.12 15.36-10.24 20.48l-419.84 419.84c-5.12 5.12-15.36 10.24-25.6 15.36s-20.48 5.12-25.6 0v0l-322.56-66.56c-10.24 0-20.48-10.24-20.48-20.48l-66.56-322.56c0-10.24 0-20.48 0-25.6 5.12-10.24 10.24-15.36 15.36-25.6l419.84-419.84c5.12-5.12 10.24-10.24 20.48-10.24s15.36-5.12 20.48-5.12 15.36 0 20.48 5.12c5.12 5.12 15.36 5.12 20.48 10.24l363.52 363.52c5.12 5.12 10.24 10.24 10.24 20.48s5.12 15.36 5.12 20.48c0 10.24 0 15.36-5.12 20.48zM921.6 414.72l-368.64-363.52c0 0-5.12 0-5.12 0l-419.84 419.84v5.12l61.44 307.2 307.2 61.44-5.12 25.6 10.24-25.6 419.84-419.84 25.6 10.24-25.6-20.48zM384 634.88c0-25.449-20.631-46.080-46.080-46.080s-46.080 20.631-46.080 46.080c0 25.449 20.631 46.080 46.080 46.080s46.080-20.631 46.080-46.080z" />
<glyph unicode="&#xe91c;" glyph-name="29" horiz-adv-x="1755" d="M775.314-7.314c58.514-58.514 146.286-58.514 204.8 0l731.429 731.429c58.514 58.514 58.514 146.286 0 204.8s-146.286 58.514-204.8 0l-629.029-629.029-629.029 629.029c-58.514 58.514-146.286 58.514-204.8 0s-58.514-146.286 0-204.8l731.428-731.429z" />
<glyph unicode="&#xe91d;" glyph-name="30" d="M983.040 921.6c-30.72 30.72-81.92 30.72-112.64 10.24-204.8-174.080-378.88-522.24-471.040-716.8-81.92 102.4-184.32 215.040-245.76 266.24-40.96 20.48-81.92 10.24-112.64-20.48-20.48-30.72-20.48-81.92 10.24-112.64 71.68-61.44 225.28-225.28 286.72-337.92 20.48-20.48 51.2-40.96 71.68-40.96 0 0 0 0 0 0 30.72 0 51.2 20.48 71.68 51.2 112.64 266.24 307.2 634.88 491.52 788.48 30.72 30.72 30.72 81.92 10.24 112.64z" />
<glyph unicode="&#xe91e;" glyph-name="31" horiz-adv-x="1065" d="M784.384 778.24h92.16v-92.16c0-16.384 14.336-30.72 30.72-30.72s30.72 14.336 30.72 30.72v92.16h92.16c16.384 0 30.72 14.336 30.72 30.72s-14.336 30.72-30.72 30.72h-92.16v92.16c0 16.384-14.336 30.72-30.72 30.72s-30.72-14.336-30.72-30.72v-92.16h-92.16c-16.384 0-30.72-14.336-30.72-30.72s12.288-30.72 30.72-30.72zM1060.864 6.144c-53.248 90.112-129.024 167.936-221.184 219.136-45.056 24.576-92.16 45.056-139.264 59.392 18.432 10.24 36.864 20.48 53.248 32.768 55.296 40.96 98.304 98.304 120.832 161.792 6.144 16.384-2.048 32.768-18.432 38.912s-32.768-2.048-38.912-18.432c-20.48-53.248-55.296-100.352-100.352-135.168s-100.352-55.296-157.696-59.392c-57.344-4.096-114.688 8.192-163.84 36.864s-90.112 69.632-118.784 118.784c-26.624 51.2-38.912 106.496-34.816 163.84s24.576 110.592 61.44 155.648c34.816 45.056 81.92 79.872 135.168 98.304s112.64 22.528 167.936 8.192c16.384-4.096 32.768 6.144 36.864 22.528s-6.144 38.912-22.528 43.008c-67.584 16.384-137.216 12.288-202.752-10.24s-120.832-63.488-163.84-118.784c-43.008-55.296-67.584-120.832-73.728-188.416-6.144-69.632 8.192-137.216 40.96-198.656s81.92-110.592 143.36-143.36c4.096-2.048 8.192-4.096 12.288-6.144-49.152-14.336-96.256-32.768-141.312-59.392-92.16-53.248-167.936-131.072-221.184-221.184-8.192-14.336-4.096-32.768 10.24-40.96s32.768-4.096 40.96 10.24c47.104 81.92 116.736 151.552 198.656 198.656s176.128 71.68 272.384 71.68c94.208 0 188.416-24.576 272.384-71.68 81.92-47.104 151.552-116.736 198.656-198.656 6.144-10.24 16.384-16.384 26.624-16.384 6.144 0 10.24 2.048 14.336 4.096 16.384 8.192 20.48 26.624 12.288 43.008z" />
<glyph unicode="&#xe91f;" glyph-name="32" horiz-adv-x="1164" d="M1128.727 751.709c-16.291 16.291-34.909 23.273-58.182 23.273h-930.909c-16.291 0-30.255 6.982-41.891 16.291-9.309 11.636-16.291 25.6-16.291 41.891s6.982 30.255 16.291 41.891c11.636 9.309 25.6 16.291 41.891 16.291h791.273c18.618 0 34.909 16.291 34.909 34.909s-16.291 34.909-34.909 34.909h-791.273c-34.909 0-65.164-13.964-90.764-37.236-23.273-23.273-37.236-55.855-37.236-90.764v-744.727c0-34.909 13.964-65.164 37.236-90.764 23.273-23.273 55.855-37.236 90.764-37.236h930.909c20.945 0 41.891 9.309 58.182 23.273s23.273 34.909 23.273 58.182v651.636c0 20.945-9.309 41.891-23.273 58.182zM1082.182 41.891c0-2.327-2.327-6.982-2.327-9.309-2.327-2.327-4.655-2.327-9.309-2.327h-930.909c-16.291 0-30.255 6.982-41.891 16.291-11.636 11.636-16.291 25.6-16.291 41.891v630.691c18.618-9.309 37.236-13.964 58.182-13.964h930.909c2.327 0 6.982-2.327 9.309-2.327 2.327-2.327 2.327-4.655 2.327-9.309v-651.636zM930.909 367.709c0-38.56-31.259-69.818-69.818-69.818s-69.818 31.259-69.818 69.818c0 38.56 31.259 69.818 69.818 69.818s69.818-31.259 69.818-69.818z" />
<glyph unicode="&#xe920;" glyph-name="33" horiz-adv-x="942" d="M919.552 10.24l-176.128 194.56c0 0 0 0 0 0s0 0 0 0l-679.936 747.52c-10.24 12.288-30.72 14.336-43.008 2.048-12.288-10.24-14.336-30.72-2.048-43.008l38.912-43.008c-12.288-12.288-18.432-28.672-18.432-45.056v-266.24c0-401.408 339.968-534.528 407.552-557.056 6.144-2.048 14.336-4.096 20.48-4.096s14.336 2.048 20.48 4.096c30.72 10.24 137.216 49.152 231.424 137.216l153.6-169.984c6.144-6.144 14.336-10.24 22.528-10.24s14.336 2.048 20.48 8.192c14.336 12.288 16.384 32.768 4.096 45.056zM471.040 59.392c0 0-2.048 0-2.048 0-61.44 20.48-366.592 139.264-366.592 499.712v260.096l577.536-636.928c-86.016-77.824-180.224-114.688-208.896-122.88zM303.104 829.44h528.384c2.048 0 2.048 0 4.096-2.048 0 0 2.048-2.048 2.048-4.096v-266.24c0-88.064-18.432-169.984-55.296-241.664-8.192-14.336-2.048-32.768 12.288-40.96 4.096-2.048 10.24-4.096 14.336-4.096 10.24 0 22.528 6.144 26.624 16.384 40.96 79.872 61.44 169.984 61.44 268.288v266.24c0 18.432-6.144 34.816-20.48 47.104-12.288 12.288-28.672 20.48-47.104 20.48h-526.336c-16.384 0-30.72-14.336-30.72-30.72s12.288-28.672 30.72-28.672z" />
<glyph unicode="&#xe921;" glyph-name="34" horiz-adv-x="983" d="M954.368 942.080c-14.336 14.336-30.72 20.48-51.2 20.48h-821.248c-18.432 0-36.864-8.192-51.2-20.48-14.336-14.336-20.48-30.72-20.48-51.2v-301.056c0-452.608 382.976-602.112 458.752-626.688 8.192-2.048 14.336-4.096 22.528-4.096s14.336 2.048 22.528 4.096c77.824 24.576 460.8 176.128 460.8 626.688v301.056c0 18.432-8.192 36.864-20.48 51.2zM913.408 589.824c0-409.6-348.16-544.768-417.792-569.344-2.048 0-4.096 0-6.144 0-69.632 22.528-417.792 159.744-417.792 569.344v301.056c0 2.048 2.048 6.144 2.048 8.192 2.048 0 6.144 2.048 8.192 2.048h821.248c2.048 0 6.144-2.048 8.192-2.048 2.048-2.048 2.048-4.096 2.048-8.192v-301.056zM696.32 667.648l-278.528-268.288-129.024 122.88c-12.288 12.288-30.72 12.288-43.008 0s-10.24-30.72 0-43.008l149.504-143.36c6.144-6.144 14.336-8.192 20.48-8.192s14.336 2.048 20.48 8.192l301.056 286.72c12.288 12.288 12.288 30.72 0 43.008-8.192 12.288-28.672 12.288-40.96 2.048z" />
<glyph unicode="&#xe922;" glyph-name="35" horiz-adv-x="1208" d="M1171.456 20.48h-1099.776v145.408l346.112 346.112 165.888-165.888c12.288-12.288 32.768-12.288 43.008 0l417.792 417.792v-161.792c0-16.384 14.336-30.72 30.72-30.72s30.72 14.336 30.72 30.72v235.52c0 4.096 0 8.192-2.048 10.24 0 0 0 0 0 0-4.096 8.192-8.192 14.336-16.384 16.384 0 0 0 0 0 0-4.096 2.048-8.192 2.048-10.24 2.048h-235.52c-16.384 0-30.72-14.336-30.72-30.72s14.336-30.72 30.72-30.72h161.792l-397.312-395.264-165.888 165.888c-12.288 12.288-32.768 12.288-43.008 0l-325.632-323.584v679.936c0 16.384-14.336 30.72-30.72 30.72s-30.72-14.336-30.72-30.72v-942.080c0-16.384 14.336-30.72 30.72-30.72h1130.496c16.384 0 30.72 14.336 30.72 30.72s-14.336 30.72-30.72 30.72z" />
<glyph unicode="&#xe923;" glyph-name="36" d="M936.229 757.029c-10.971 10.971-25.6 18.286-40.229 18.286h-256c-40.229 0-80.457-14.629-109.714-43.886-7.314-7.314-14.629-14.629-18.286-21.943-3.657 7.314-10.971 14.629-18.286 21.943-29.257 29.257-69.486 43.886-109.714 43.886h-256c-14.629 0-29.257-7.314-40.229-18.286-14.629-10.971-18.286-25.6-18.286-40.229v-512c0-14.629 7.314-29.257 18.286-40.229s25.6-18.286 40.229-18.286h256c25.6 0 51.2-10.971 69.486-29.257s29.257-43.886 29.257-69.486c0-14.629 10.971-29.257 29.257-29.257s29.257 10.971 29.257 29.257c0 25.6 10.971 51.2 29.257 69.486s43.886 29.257 69.486 29.257h256c14.629 0 29.257 7.314 40.229 18.286s18.286 25.6 18.286 40.229v512c0 14.629-3.657 29.257-18.286 40.229zM384 201.143h-259.657c0 0 0 3.657 0 3.657v512l3.657 3.657h256c25.6 0 51.2-10.971 69.486-29.257s29.257-43.886 29.257-69.486v-457.143c-25.6 21.943-62.171 36.571-98.743 36.571zM899.657 204.8l-3.657-3.657h-256c-36.571 0-73.143-14.629-102.4-36.571v457.143c0 25.6 10.971 51.2 29.257 69.486s43.886 29.257 69.486 29.257h256l7.314-3.657v-512z" />
<glyph unicode="&#xe924;" glyph-name="37" d="M536.111 955.638l130.328-323.164 333.645-29.756c5.107-0.449 9.978-2.486 13.997-5.855s7.021-7.923 8.614-13.091c1.6-5.168 1.734-10.721 0.378-15.967s-4.141-9.951-8-13.528l-252.838-229.746 75.59-341.843c1.152-5.325 0.8-10.886-1.018-15.994s-5.018-9.53-9.203-12.71c-4.179-3.181-9.146-4.979-14.285-5.165-5.139-0.192-10.221 1.242-14.592 4.109l-286.726 181.306-286.726-181.306c-4.375-2.867-9.452-4.301-14.59-4.109-5.139 0.186-10.111 1.984-14.291 5.165s-7.379 7.603-9.198 12.71c-1.818 5.107-2.173 10.669-1.020 15.994l74.288 341.843-251.537 229.746c-3.859 3.577-6.641 8.282-7.997 13.528s-1.226 10.799 0.373 15.967c1.599 5.168 4.596 9.721 8.618 13.091s8.889 5.405 13.994 5.855l333.645 29.756 130.33 323.164c1.964 5.077 5.305 9.419 9.598 12.475s9.345 4.688 14.513 4.688c5.169 0 10.22-1.632 14.513-4.688s7.634-7.398 9.597-12.475z" />
<glyph unicode="&#xe925;" glyph-name="38" d="M1001.244 261.689c-11.378 17.067-22.756 28.444-39.822 34.133l-233.244 96.711c-11.378 5.689-28.444 5.689-39.822 5.689s-28.444-5.689-39.822-11.378l-119.467-85.333c-73.956 34.133-136.533 96.711-170.667 170.667l79.644 125.156c5.689 11.378 11.378 22.756 11.378 39.822 0 11.378 0 28.444-5.689 39.822l-96.711 233.244c-11.378 17.067-22.756 28.444-34.133 39.822-17.067 5.689-34.133 11.378-51.2 5.689-68.267-5.689-130.844-39.822-176.356-91.022s-73.956-119.467-73.956-187.733c0-193.422 73.956-369.778 210.489-506.311s312.889-210.489 506.311-210.489c68.267 0 136.533 22.756 187.733 68.267s85.333 108.089 91.022 176.356c5.689 22.756 0 39.822-5.689 56.889zM859.022 96.711c-34.133-34.133-79.644-51.2-130.844-51.2-170.667 0-329.956 68.267-443.733 182.044s-182.044 284.444-182.044 449.422c0 45.511 17.067 91.022 51.2 130.844 34.133 34.133 73.956 56.889 119.467 68.267l102.4-227.556-91.022-130.844c-5.689-11.378-11.378-22.756-11.378-39.822 0-11.378 0-28.444 5.689-39.822 0 0 0 0 0 0 45.511-91.022 119.467-164.978 216.178-210.489 11.378-5.689 28.444-11.378 39.822-5.689 11.378 0 28.444 5.689 39.822 11.378l119.467 79.644 227.556-96.711c-5.689-45.511-28.444-85.333-62.578-119.467z" />
<glyph unicode="&#xe926;" glyph-name="39" horiz-adv-x="1344" d="M1324.8 915.2c0 6.4 0 6.4 0 12.8s-6.4 6.4-6.4 6.4c0 0 0 6.4-6.4 6.4 0 0 0 0 0 0s-6.4 6.4-6.4 6.4c0 0-6.4 0-6.4 6.4 0 0-6.4 0-6.4 0-6.4 0-6.4 0-12.8 0 0 0 0 0 0 0h-1216c0 0 0 0 0 0-6.4 0-6.4 0-12.8 0 0 0-6.4 0-6.4 0s-6.4 0-6.4-6.4c-6.4 0-6.4-6.4-6.4-6.4s0 0 0 0 0-6.4-6.4-6.4c0 0-6.4-6.4-6.4-6.4 0-6.4 0-6.4 0-12.8 0 0 0-6.4 0-6.4v-864c0-25.6 12.8-51.2 32-70.4 12.8-12.8 38.4-25.6 64-25.6h1113.6c25.6 0 51.2 12.8 70.4 32s32 44.8 32 70.4v857.6c0 0-6.4 6.4-6.4 6.4zM1158.4 857.6l-486.4-441.6-486.4 441.6h972.8zM115.2 44.8v755.2l524.8-486.4c6.4-6.4 19.2-12.8 32-12.8s25.6 6.4 32 12.8l524.8 486.4v-755.2h-1113.6z" />
<glyph unicode="&#xe927;" glyph-name="40" horiz-adv-x="1536" d="M1484.8 520.533v0 0l-443.733 418.133c-25.6 25.6-68.267 25.6-93.867 0s-25.6-68.267 0-93.867l341.333-315.733h-1203.2c-34.133 0-68.267-34.133-68.267-68.267s34.133-68.267 68.267-68.267h1203.2l-341.333-315.733c-25.6-25.6-25.6-68.267 0-93.867s68.267-25.6 93.867 0l443.733 418.133c34.133 34.133 34.133 85.333 0 119.467zM1450.667 443.733v0 0 0z" />
<glyph unicode="&#xe928;" glyph-name="41" horiz-adv-x="1536" d="M1450.667 529.067h-1203.2l341.333 315.733c25.6 25.6 25.6 68.267 0 93.867s-68.267 25.6-93.867 0l-443.733-418.133c-34.133-34.133-34.133-85.333 0-119.467v0 0l443.733-418.133c25.6-25.6 68.267-25.6 93.867 0s25.6 68.267 0 93.867l-341.333 315.733h1203.2c34.133 0 68.267 25.6 68.267 68.267s-34.133 68.267-68.267 68.267zM85.333 443.733v0 0 0z" />
<glyph unicode="&#xe929;" glyph-name="42" horiz-adv-x="597" d="M546.133 494.933l-426.667 426.667c-17.067 17.067-42.667 17.067-59.733 0s-17.067-42.667 0-59.733l392.533-401.067-392.533-392.533c-17.067-17.067-17.067-42.667 0-59.733 8.533-8.533 17.067-8.533 34.133-8.533s25.6 0 34.133 8.533l426.667 426.667c0 8.533 0 42.667-8.533 59.733z" />
<glyph unicode="&#xe92a;" glyph-name="43" horiz-adv-x="1360" d="M1237.97 889.977c76.418-82.823 122.269-173.177 122.269-323.764 0-263.53-191.045-496.941-458.507-617.412l-68.776 97.882c252.179 135.53 305.672 308.705 320.955 421.648-38.209-22.589-91.701-30.118-145.194-22.589-137.552 15.059-244.537 120.471-244.537 263.53 0 67.764 30.567 135.529 76.418 188.235 53.493 52.706 114.627 75.294 191.045 75.294 84.060 0 160.478-37.647 206.328-82.823zM473.791 889.977c76.418-82.823 122.269-173.177 122.269-323.764 0-263.53-191.045-496.943-458.507-617.412l-68.776 97.882c252.179 135.53 305.672 308.705 320.955 421.647-38.209-22.588-91.701-30.116-145.194-22.588-137.552 15.059-244.537 120.471-244.537 263.53 0 67.764 30.567 135.529 76.418 188.235s114.627 75.294 191.045 75.294c84.060 0 160.478-37.647 206.328-82.823z" />
<glyph unicode="&#xe92b;" glyph-name="44" d="M792.094 78.306h-219.859c93.365 78.306 274.071 259.012 274.071 481.882 0 90.353-36.141 174.682-99.388 240.941s-150.588 99.388-240.941 99.388c-90.353 0-174.682-36.141-240.941-99.388-63.247-63.247-99.388-150.588-99.388-240.941 0-222.871 180.706-406.588 274.071-481.882h-216.847c-12.047 0-24.094-9.035-24.094-24.094s9.035-24.094 24.094-24.094h283.106c0 0 0 0 0 0s0 0 0 0h283.106c12.047 0 24.094 9.035 24.094 24.094s-9.035 24.094-21.082 24.094zM210.824 560.188c0 78.306 30.118 153.6 87.341 207.812 54.212 54.212 129.506 87.341 207.812 87.341s153.6-30.118 207.812-87.341c54.212-54.212 87.341-129.506 87.341-207.812 0-237.929-234.918-433.694-295.153-478.871-57.224 48.188-295.153 243.953-295.153 478.871zM656.565 563.2c0 81.318-66.259 147.576-150.588 147.576s-150.588-66.259-150.588-147.576 66.259-150.588 150.588-150.588 150.588 66.259 150.588 150.588zM403.576 563.2c0 57.224 45.176 102.4 105.412 102.4s105.412-45.176 105.412-102.4-45.176-105.412-105.412-105.412-105.412 45.176-105.412 105.412z" />
<glyph unicode="&#xe92c;" glyph-name="45" d="M792.094 78.306h-219.859c93.365 78.306 274.071 259.012 274.071 481.882 0 90.353-36.141 174.682-99.388 240.941s-150.588 99.388-240.941 99.388c-90.353 0-174.682-36.141-240.941-99.388-63.247-63.247-99.388-150.588-99.388-240.941 0-222.871 180.706-406.588 274.071-481.882h-216.847c-12.047 0-24.094-9.035-24.094-24.094s9.035-24.094 24.094-24.094h283.106c0 0 0 0 0 0s0 0 0 0h283.106c12.047 0 24.094 9.035 24.094 24.094s-9.035 24.094-21.082 24.094zM210.824 560.188c0 78.306 30.118 153.6 87.341 207.812 54.212 54.212 129.506 87.341 207.812 87.341s153.6-30.118 207.812-87.341c54.212-54.212 87.341-129.506 87.341-207.812 0-237.929-234.918-433.694-295.153-478.871-57.224 48.188-295.153 243.953-295.153 478.871zM656.565 563.2c0 81.318-66.259 147.576-150.588 147.576s-150.588-66.259-150.588-147.576 66.259-150.588 150.588-150.588 150.588 66.259 150.588 150.588zM403.576 563.2c0 57.224 45.176 102.4 105.412 102.4s105.412-45.176 105.412-102.4-45.176-105.412-105.412-105.412-105.412 45.176-105.412 105.412z" />
<glyph unicode="&#xe92d;" glyph-name="46" d="M906.541 596.329c0 3.012 0 3.012-3.012 6.024 0 0 0 3.012 0 3.012s0 0 0 3.012-3.012 3.012-6.024 3.012c0 0 0 0 0 0l-379.482 252.988c-9.035 6.024-18.071 6.024-24.094 0l-379.482-252.988c0 0 0 0 0 0-3.012 0-3.012-3.012-6.024-3.012 0 0 0 0 0-3.012 0 0 0-3.012 0-3.012 0-3.012 0-3.012-3.012-6.024 0 0 0 0 0-3.012v-412.612c0-15.059 6.024-27.106 15.059-39.153 9.035-9.035 24.094-12.047 39.153-12.047h695.718c15.059 0 27.106 6.024 39.153 15.059 9.035 9.035 15.059 24.094 15.059 39.153l-3.012 412.612c3.012-3.012 0-3.012 0 0zM505.976 819.2l340.329-225.882-277.082-198.776h-123.482l-277.082 198.776 337.318 225.882zM861.365 174.682c-3.012-3.012-3.012-3.012-6.024-3.012h-695.718c-3.012 0-6.024 0-6.024 3.012-3.012 3.012-3.012 6.024-3.012 9.035v364.424l274.071-195.765c3.012-3.012 9.035-3.012 12.047-3.012h138.541c6.024 0 9.035 0 12.047 3.012l274.071 195.765v-367.435c3.012 0 0-3.012 0-6.024z" />
<glyph unicode="&#xe92e;" glyph-name="47" d="M900.518 316.235c-6.024 9.035-15.059 18.071-27.106 24.094l-183.718 78.306c-9.035 3.012-18.071 6.024-27.106 3.012-9.035 0-18.071-3.012-24.094-9.035l-99.388-66.259c0 0-3.012 0-3.012 0-3.012 0-3.012 0-3.012 0-63.247 30.118-114.447 81.318-144.565 144.565 0 0 0 3.012 0 3.012s0 3.012 0 3.012l66.259 99.388c6.024 6.024 9.035 15.059 9.035 24.094s0 18.071-3.012 27.106l-78.306 186.729c-6.024 12.047-12.047 21.082-24.094 27.106-9.035 6.024-21.082 9.035-33.129 6.024-54.212-6.024-102.4-33.129-135.529-69.271-33.129-39.153-54.212-87.341-54.212-141.553 0-150.588 57.224-289.129 162.635-397.553s246.965-162.635 397.553-162.635c51.2 0 102.4 18.071 141.553 54.212 39.153 33.129 63.247 81.318 69.271 132.518 0 9.035 0 21.082-6.024 33.129zM807.153 183.718c-30.118-27.106-69.271-42.165-111.435-42.165-138.541 0-268.047 54.212-364.424 150.588s-150.588 225.882-150.588 364.424c0 42.165 15.059 81.318 42.165 111.435s63.247 51.2 105.412 54.212c0 0 0 0 0 0s3.012 0 3.012 0 3.012-3.012 3.012-3.012l78.306-186.729c0 0 0-3.012 0-3.012s0-3.012 0-3.012l-66.259-99.388c-6.024-9.035-9.035-18.071-9.035-27.106s0-18.071 6.024-27.106c0 0 0 0 0 0 36.141-72.282 93.365-129.506 165.647-165.647 9.035-3.012 18.071-6.024 27.106-6.024s18.071 3.012 27.106 9.035l99.388 66.259c0 0 3.012 0 3.012 0s3.012 0 3.012 0l183.718-78.306c3.012 0 3.012-3.012 3.012-3.012 0-3.012 0-3.012 0-6.024 0-42.165-18.071-78.306-48.188-105.412z" />
<glyph unicode="&#xe92f;" glyph-name="48" horiz-adv-x="751" d="M375.467 972.8c-99.54-0.135-194.964-40.635-265.349-112.62s-109.986-169.578-110.118-271.38c0-275.68 349.809-620.959 364.672-635.519 2.89-2.874 6.762-4.481 10.794-4.481s7.904 1.607 10.794 4.481c14.863 14.56 364.672 359.839 364.672 635.519-0.132 101.802-39.733 199.396-110.117 271.38-70.386 71.985-165.81 112.485-265.35 112.62zM375.467 412.8c-34.036 0-67.308 10.322-95.607 29.662s-50.358 46.827-63.382 78.986c-13.025 32.16-16.433 67.547-9.794 101.689 6.641 34.14 23.030 65.501 47.097 90.115s54.731 41.376 88.112 48.168c33.382 6.79 67.984 3.305 99.429-10.016s58.322-35.88 77.231-64.822c18.909-28.944 29.002-62.971 29.002-97.781-0.027-46.668-18.167-91.419-50.434-124.419-32.267-33.001-76.023-51.552-121.655-51.581z" />
</font>
</defs>
</svg>
