<?xml version="1.0" standalone="no"?>
<!DOCTYPE svg PUBLIC "-//W3C//DTD SVG 1.1//EN" "http://www.w3.org/Graphics/SVG/1.1/DTD/svg11.dtd" >
<svg xmlns="http://www.w3.org/2000/svg">
<metadata>Generated by IcoMoon</metadata>
<defs>
<font id="icomoon" horiz-adv-x="1024">
<font-face units-per-em="1024" ascent="960" descent="-64" />
<missing-glyph horiz-adv-x="1024" />
<glyph unicode="&#x20;" horiz-adv-x="512" d="" />
<glyph unicode="&#xe900;" glyph-name="1" horiz-adv-x="1390" d="M1389.641 960h-1389.641v-1023.927h1389.641v1023.927zM694.565 448.073l-437.541 365.714h872.155l-434.615-365.714zM146.213 82.359v658.286l549.522-438.857 547.621 438.857v-658.286h-1097.143z" />
<glyph unicode="&#xe901;" glyph-name="2" horiz-adv-x="745" d="M371.526 935.61c-203.823 0-352.908-202.752-352.908-369.85 0-80.756 8.704-157.417 56.972-221.743l273.129-368.081c0.698-0.884 1.769-1.257 2.513-2.095 5.061-5.784 12.456-9.416 20.7-9.416 9.183 0 17.313 4.507 22.298 11.429l0.056 0.081c78.662 105.007 222.86 301.103 278.295 339.875l0.047 0.931 0.326 4.655c44.637 92.951 68.282 167.005 68.282 244.364 0 167.098-165.888 369.85-369.711 369.85zM371.433 295.703c-148.573 0-251.811 121.391-251.811 269.917 0 148.62 103.284 270.057 251.811 270.057s269.917-121.437 269.917-269.964c0-148.62-121.391-270.010-269.917-270.010z" />
<glyph unicode="&#xe902;" glyph-name="3" d="M220.774 514.765c79.323-153.429 201.353-275.36 350.344-352.432l4.523-2.128 118.426 118.733c14.848 8.806 36.096 19.098 54.682-7.066 60.314 0.358 156.979-10.445 192.256-10.445 29.85 0 53.811-23.91 53.811-53.811v-188.518c0-29.85-23.962-53.811-53.811-53.811-505.651 0-915.456 409.805-915.456 915.456 0 0.015 0 0.033 0 0.051 0 29.691 24.069 53.76 53.76 53.76 0.036 0 0.072 0 0.108 0h188.461c29.901 0 53.862-23.91 53.862-53.811 0-67.123 10.752-131.942 30.669-192.307 5.939-18.534 1.638-77.107-13.21-54.63l-118.426-119.040z" />
<glyph unicode="&#xe903;" glyph-name="4" d="M511.949-63.949c-282.726 0-511.949 229.222-511.949 512s229.222 511.949 511.949 511.949c282.778 0 512-229.171 512-511.949s-229.222-512-512-512zM511.949 857.651c-226.216 0-409.6-183.384-409.6-409.6s183.384-409.6 409.6-409.6v0c226.216 0 409.6 183.384 409.6 409.6s-183.384 409.6-409.6 409.6v0zM460.749 499.251v256h102.4v-256h153.6v-102.4h-256v102.4z" />
<glyph unicode="&#xe904;" glyph-name="5" d="M476.587 920.533c230.827 0 423.936-193.109 423.936-436.267 0-96.896-36.139-191.275-96.384-265.387l207.488-180.181-90.24-89.472-180.224 206.677c-74.069-60.245-168.448-96.384-264.576-96.384-243.925 0-437.035 193.152-437.035 424.747 0 243.157 193.109 436.267 437.035 436.267zM476.587 142.080c181.717 0 342.187 159.744 342.187 342.187 0 194.048-160.469 342.187-342.187 342.187-194.816 0-342.187-148.139-342.187-342.187 0-182.443 147.371-342.187 342.187-342.187z" />
<glyph unicode="&#xe905;" glyph-name="6" horiz-adv-x="580" d="M560.265 13.585l-48.299-48.299-482.714 482.748 482.714 482.714 48.299-48.265-434.449-434.449 434.449-434.449z" />
<glyph unicode="&#xe906;" glyph-name="7" horiz-adv-x="580" d="M550.98 448.034l-482.748-482.748-48.265 48.299 434.449 434.449-434.449 434.449 48.265 48.265 482.748-482.714z" />
<glyph unicode="&#xe907;" glyph-name="8" horiz-adv-x="1274" d="M1210.093 192.699c-5.17-2.572-2.023-5.195-15.535-5.195h-20.705c-10.34-129.199-116.461-230-237.019-230-140.862 0-246.984 98.204-259.921 222.258h-82.844c-12.937-124.054-114.788-222.258-248.457-222.258-132.021 0-238.142 100.802-248.482 230h-18.132c-5.17 0-10.34 2.622-15.51 5.195-51.774 36.165-51.25 126.626-31.070 230.025l131.996 346.312c28.472 98.204 116.486 142.136 144.933 167.986 10.365 7.742 28.497 5.17 36.265-5.17s15.285-28.447-5.195-36.165c-31.070-25.85-103.524-75.301-126.826-142.161l-131.996-348.909c-25.875-80.122-15.535-142.111 7.767-165.413h10.34c15.535 121.481 119.059 217.088 245.91 217.088 133.669 0 235.52-98.204 248.457-237.068h82.844c12.937 138.864 119.059 237.068 259.921 237.068 118.634 0 218.911-95.607 234.446-217.088h10.34c23.302 23.302 33.642 85.292 7.767 168.011l-131.996 346.312c-23.302 66.86-95.781 116.311-126.851 144.734-12.937 7.742-12.937 25.825 6.294 31.020-3.696 18.082 34.217 18.082 24.776 10.34 31.070-28.447 116.486-69.782 144.958-170.583l134.569-343.739c43.108-105.972 20.705-196.433-31.045-232.598zM345.612 402.020c-108.719 0-196.733-87.839-196.733-196.408 0-108.544 88.014-211.918 196.733-211.918 108.694 0 196.708 103.374 196.708 211.918 0 108.569-88.014 196.408-196.708 196.408zM936.835 402.020c-120.158 0-208.172-87.839-208.172-196.408 0-108.544 88.014-211.918 208.172-211.918 97.255 0 185.244 103.374 185.244 211.918 0 108.569-87.989 196.408-185.244 196.408zM345.612 285.733c-41.435 0-77.649-33.617-77.649-77.524 0-15.51-10.365-25.85-25.9-25.85 0.2 0-25.875 10.34-25.875 25.85 0 69.757 56.944 129.224 129.424 129.224 15.535 0 25.875-12.937 25.875-25.85 0-15.51-10.34-25.85-25.875-25.85z" />
<glyph unicode="&#xe908;" glyph-name="9" horiz-adv-x="1243" d="M1231.531 303.177c-2.853-21.699-71.119-87.162-179.931-171.983-113.664-96.573-273.676-194.95-429.544-194.95s-305.566 98.377-429.519 194.95c-108.837 84.821-177.079 150.284-179.931 171.983-7.144 8.826-7.144 8.046 0 30.257 2.853 3.511 71.095 87.186 179.931 171.983 123.928 96.597 273.652 173.251 429.519 173.251s315.88-76.654 429.544-173.251c108.837-84.797 177.079-168.472 179.931-171.983 7.144-22.211 7.144-21.431 0-30.257zM1021.245 468.187c-95.305 74.118-241.883 162.426-399.189 162.426-143.458 0-292.913-88.308-399.165-162.426-58.939-46.25-111.258-95.362-158.955-148.695l-1.033-1.175c48.735-54.5 101.053-103.611 157.359-147.878l2.628-1.992c106.252-74.094 255.707-162.45 399.165-162.45 157.306 0 303.884 88.357 399.189 162.45 97.841 60.757 135.534 122.222 159.988 149.87-24.454 27.672-62.147 89.137-159.988 149.87zM622.056 54.077c-145.652 0-264.168 118.516-264.168 264.241 0 36.718 7.509 61.733 12.946 66.219 2.072 25.454 11.24 46.543 22.528 66.146 6.632 11.508 40.619 15.458 32.792 8.826 7.245-4.22 12.038-11.951 12.038-20.801 0-4.415-1.193-8.551-3.273-12.105l0.061 0.113c-13.19-34.353-29.062-71.753-29.062-108.398 0-119.198 96.963-216.21 216.137-216.21 116.736 0 216.162 93.794 216.162 216.21 0 119.223-96.987 216.21-216.162 216.21-16.725 0-18.139-2.146-51.614-6.168-1.711-0.436-3.675-0.686-5.698-0.686-11.244 0-20.681 7.735-23.281 18.173l-0.035 0.165c13.97 12.873 4.754 25.868 17.652 29.013 21.211 5.169 42.106 7.558 62.976 7.558 145.676 0 264.192-118.565 264.192-264.265 0-143.848-115.81-264.241-264.192-264.241zM618.862 443.685c69.189-0.097 125.249-56.174 125.318-125.36v-0.007c-0.069-69.193-56.129-125.27-125.309-125.367h-0.009c-69.2 0.083-125.273 56.165-125.342 125.36v0.007c0.069 69.202 56.143 125.284 125.334 125.367h0.008zM618.862 241.006c42.618 0 77.288 19.992 77.288 77.312-0.042 42.673-34.617 77.257-77.282 77.312h-0.005c-42.671-0.055-77.246-34.639-77.288-77.308v-0.004c0-57.32 34.67-77.312 77.288-77.312zM477.964 486.498c0.39 0-24.015 10.679-24.015 24.015 0 13.263 23.918 24.015 24.015 24.015 12.803-0.595 22.957-11.119 22.957-24.015s-10.155-23.42-22.904-24.013l-0.053-0.002zM919.040 683.959c-4.251-7.137-11.927-11.844-20.703-11.844-13.263 0-24.015 10.752-24.015 24.015 0 4.355 1.159 8.439 3.186 11.961l-0.062-0.117 72.046 124.83c4.232 7.225 11.957 12.001 20.797 12.001 13.266 0 24.021-10.754 24.021-24.021 0-4.426-1.197-8.572-3.285-12.133l0.061 0.113-72.046-124.806zM622.056 745.935c-13.263 0-24.015 10.752-24.015 24.015 0 0.009 0 0.017 0 0.026v-0.001 144.116c0 13.288 10.752 24.040 24.015 24.040 26.234 0 24.015-10.752 24.015-24.040v-144.116c0-13.288 2.219-24.040-24.015-24.040zM325.071 683.959l-72.046 124.806c-2.023 3.443-3.218 7.583-3.218 12.002 0 8.843 4.784 16.568 11.906 20.729l0.114 0.061c11.459 6.632 26.161 2.731 51.224-8.753l62.171-124.83c-1.926-11.508-5.851-26.21-17.335-32.817-3.447-2.030-7.594-3.228-12.020-3.228-8.847 0-16.576 4.789-20.735 11.916l-0.061 0.114z" />
<glyph unicode="&#xe909;" glyph-name="10" horiz-adv-x="1117" d="M1096.518 369.571c0-60.835-45.056-110.522-109.359-111.988-6.028-19.269-11.842-34.672-18.374-49.69l1.246 3.215c-10.653-23.513-21.612-43.34-33.919-62.207l1.082 1.768c-0.95-1.371-1.921-2.571-2.972-3.695l0.017 0.018c-79.825-126.022-221.091-203.311-371.27-203.311-160.093 0-302.289 78.825-384.721 210.921-0.411 0.532-0.833 1.139-1.225 1.767l-0.055 0.095c-10.147 16.314-19.572 22.272-28.812 54.621-0.256 0.512-0.465 1.071-0.698 1.583h-14.755c-52.177 0-112.175 50.316-112.175 112.081v89.67c0 48.198 30.65 89.391 81.641 105.193-11.055 28.253-14.336 56.157-14.336 96.559 0 216.413 202.612 242.897 237.498 246.132 26.321 21.341 110.871 90.135 237.638 90.135 191.651 0 467.153-104.332 467.153-336.268 0-37.306 0.163-92.881-11.055-139.776 45.344-15.164 77.446-57.243 77.452-106.821v-0.001zM214.225 181.434c0.447-0.54 0.876-1.14 1.264-1.769l0.040-0.069c74.054-119.622 202.426-191.116 347.439-191.116 134.749 0 261.865 69.562 336.035 185.996 0.815 1.21 2.118 2.816 3.095 3.84 7.983 6.47 17.873 31.139 26.833 50.758 9.028 20.438 17.199 44.761 23.206 69.924l0.602 2.99-51.712 179.759c-324.445 2.7-455.936 83.456-508.16 139.892-16.617-42.636-50.036-73.472-84.177-95.139h48.384c100.003 0 176.105-70.377 176.105-156.928 0-104.727-76.102-156.905-176.105-156.905h-160.023c5.585-11.241 11.241-29.743 17.175-31.232zM65.396 414.417v-89.67c0.066-37.135 30.166-67.219 67.301-67.258h224.376c61.812 0 112.175 45.289 112.175 112.081-0.119 61.89-50.279 112.025-112.167 112.105h-224.38c-37.139-0.040-67.239-30.123-67.305-67.252v-0.006zM562.967 907.59c-127.884 0-191.535-82.269-199.68-83.13-16.989-11.078-22.691-6.54-28.602-6.54-2.816-0.023-201.984-3.142-201.984-201.751 0-21.9 2.025-66.001 5.679-89.67h58.787c19.689 5.236 161.699 46.708 161.699 154.228 0 11.357 8.471 20.899 19.735 13.265 10.892 10.589 21.76 3.095 24.46-7.936 0.396-1.187 50.874-159.558 514.886-159.558 10.007 0 18.804-6.586 21.527-16.221l26.787-93.114c6.284 46.313 18.991 125.324 18.991 199.005 0 200.983-249.251 291.421-422.284 291.421zM1013.271 430.452c-3.119-23.575-5.516-39.773-5.795-41.775 0.001-0.244 0.001-0.533 0.001-0.823 0-29.705-3.093-58.687-8.976-86.642l0.48 2.729c30.318 6.965 52.598 33.685 52.666 65.622v0.008c0 0.002 0 0.005 0 0.008 0 26.686-15.494 49.754-37.977 60.698l-0.4 0.176zM222.464 391.796h134.609c12.076-0.401 21.712-10.287 21.712-22.423s-9.637-22.022-21.676-22.422l-0.037-0.001h-134.609c-6.726 0-22.458 10.031-22.458 22.412s15.732 22.435 22.458 22.435zM463.756 161.257c24.392-24.301 58.040-39.325 95.197-39.325s70.805 15.024 95.201 39.329l-0.004-0.004c8.751 8.751 42.868 8.751 31.721 0 4.058-4.060 6.568-9.667 6.568-15.86s-2.51-11.801-6.568-15.86v0c-34.956-34.886-80.943-52.387-122.903-52.387-40.495 0-81.687 17.501-130.932 52.387-3.862 4.024-6.241 9.497-6.241 15.527 0 12.39 10.044 22.435 22.435 22.435 6.029 0 11.503-2.378 15.534-6.248l-0.008 0.007zM671.162 369.571c0.066 37.135 30.166 67.219 67.301 67.258h0.004c37.139-0.040 67.239-30.123 67.305-67.252v-0.006c-0.079-37.125-30.174-67.195-67.301-67.235h-0.004c-37.131 0.040-67.225 30.11-67.305 67.227v0.008zM738.467 347.183c12.39 0 22.435 10.044 22.435 22.435s-10.044 22.435-22.435 22.435v0c-12.39 0-22.435-10.044-22.435-22.435s10.044-22.435 22.435-22.435v0z" />
<glyph unicode="&#xe90a;" glyph-name="11" horiz-adv-x="1247" d="M1207.763 592.206c-78.876 5.554-146.867 47.674-187.694 109.348l-0.567 0.911c-85.014 147.367-224.345 241.931-408.799 251.414-170.029 2.738-333.357-67.295-434.332-204.266-105.517-48.751-158.987-149.126-158.987-298.474 0-149.37 53.471-265.149 158.987-298.496 92.919-124.984 240.142-205.080 406.072-205.080 9.941 0 19.815 0.287 29.614 0.855l-1.354-0.063c184.454 5.899 323.784 104.070 408.799 251.437 41.379 62.599 109.378 104.726 187.486 110.214l0.774 0.044c11.13 0 20.168 9.016 20.168 20.168v241.82c0 11.13-9.038 20.168-20.168 20.168zM984.42 219.96c-77.701-133.296-216.645-223.489-377.256-232.021l-1.157-0.049c-157.407-15.382-308.202 64.045-400.384 180.736-2.404 14.358-5.788 16.896-9.683 18.298-91.804 42.518-138.218 130.783-138.218 264.214 0 133.409 46.214 221.674 137.394 243.957 4.252 13.357 7.947 22.038 10.507 25.689 92.182 125.685 242.977 199.925 400.384 191.777 161.772-8.581 300.719-98.785 377.225-229.889l1.188-2.203c45.069-69.054 117.569-116.986 201.673-128.392l1.479-0.164v-40.314h-78.982c-85.66-0.2-129.558 39.624-179.267 102.378-63.21 130.837-194.696 219.594-346.961 220.071h-0.063c-125.462 0.156-243-61.329-306.933-173.679-70.144-7.725-116.758-97.592-116.758-209.23 0-111.661 46.614-201.55 116.758-218.49 70.812-112.195 202.975-174.214 339.345-162.749 139.342 12.028 256.36 96.985 313.617 216.102l0.996 2.3c49.709 62.709 93.607 102.556 179.267 102.378h78.982v-40.314c-83.634-11.42-158.008-67.539-203.153-130.404zM1187.573 430.97h-78.982c-101.22-0.089-178.844-48.885-215.775-125.551 5.187-3.428-3.629-6.879-5.254-10.084-14.548 42.404-22.947 91.262-22.947 142.081 0 4.113 0.055 8.214 0.164 12.3l-0.013-0.603c-0.113 3.741-0.177 8.142-0.177 12.558 0 51.486 8.713 100.937 24.746 146.958l-0.95-3.133c1.402-13.023 11.62-5.632 4.43-8.659 36.931-76.666 114.554-125.462 215.775-125.574h78.982v-40.292zM212.68 531.745c6.456 0 26.624-27.826 26.624-80.607 0-52.825-20.168-80.651-26.624-80.651-1.901 0.573-3.531 1.556-4.855 2.851l0.002-0.002c-11.821 40.159-11.821 104.403 0 155.581 1.327 1.278 2.956 2.252 4.769 2.805l0.084 0.022zM279.663 451.139c0 64.067-23.619 112.061-57.5 119.697 17.141 38.89 43.186 61.685 70.79 61.685 40.582 0 106.63-72.949 106.63-181.382s-66.048-199.034-106.63-199.034c-27.603 0-53.025 40.426-70.79 79.293 33.881 7.658 57.5 55.63 57.5 119.741zM420.909 451.139c0 108.433-43.787 186.079-103.713 216.843 63.417 77.061 158.804 125.822 265.579 125.822 4.797 0 9.57-0.098 14.319-0.293l-0.68 0.022c107.654-4.274 225.458-58.858 268.355-166.556-21.994-14.625-36.307-75.064-33.547-145.631-37.688 0.267-67.339 30.253-67.339 70.567 0.022 1.238 0.035 2.698 0.035 4.161 0 23.332-3.248 45.906-9.316 67.294l0.421-1.735c0.011 0.213 0.017 0.462 0.017 0.712s-0.006 0.5-0.018 0.747l0.001-0.035c-10.173 61.663-68.408 72.036-139.509 72.036-24.175 0-33.213 9.016-33.213-2.093 0-11.153 9.038-20.191 33.213-20.191 37.599 0 69.699-10.262 87.841-35.261-22.172-0.467-66.493-15.872-88.376-42.118-2.032-2.409-4.142-4.583-6.394-6.602l-0.061-0.054c-8.98-10.085-22-16.406-36.496-16.406-0.004 0-0.008 0-0.013 0h0.001c-0.134 0-27.247 5.966-25.288 16.406-16.295 5.632-24.086 7.925-31.388 6.010-7.324-1.937-12.934-7.769-14.559-32.813-1.625 10.24 1.024 2.582 6.879-2.226 16.083-16.822 38.526-27.447 63.453-28.002l0.102-0.002c25.558 0.763 48.513 11.313 65.365 28.011l-0.007-0.007c2.627 2.426 5.254 5.254 8.081 8.281 18.187 22.172 57.233 33.325 75.064 29.429 2.738-15.026 4.029-30.275 3.829-45.546 0-49.397 29.852-86.884 82.699-106.229-24.349-12.337-45.055-28.201-62.379-47.202l-0.152-0.169c-40.359 24.576-81.007 6.656-112.618-2.827l-58.479 32.456c-3.036 1.92-6.732 3.060-10.693 3.060-3.476 0-6.747-0.877-9.604-2.423l0.107 0.053c-6.367-8.014-10.463-9.928-10.707-17.119-0.007-0.203-0.012-0.442-0.012-0.682 0-7.193 3.766-13.507 9.433-17.077l0.084-0.049 40.359-24.999-23.597-24.621c-3.829-3.762-5.966-22.751-5.966-14.269 0-5.387 2.137-10.552 5.966-14.336 3.576-3.37 8.409-5.44 13.726-5.44 0.207 0 0.413 0.003 0.618 0.009l-0.030-0.001c5.565-0.045 10.908-17.208 14.737 6.255l37.532 40.292c18.365 8.459 60.527 21.971 86.15 8.459-8.57-16.184-14.425-33.681-17.363-62.197-4.742-24.153-23.953-55.051-52.847-74.641-9.617-12.533-55.274-12.533-80.718 0-1.986 0.718-4.278 1.133-6.667 1.133-11.151 0-20.191-9.040-20.191-20.191 0-8.164 4.845-15.196 11.817-18.378l0.126-0.052c18.521-7.769 38.4-30.119 58.502-12.088 0.209-0.001 0.457-0.002 0.705-0.002 20.784 0 40.293 5.457 57.172 15.017l-0.577-0.301c38.812 25.2 65.923 65.614 72.929 112.595l0.109 0.891c8.081 46.191 38.867 85.237 99.751 103.981-17.23-73.683-4.563-107.275 19.278-155.804-62.937-88.587-164.932-145.861-280.339-146.521h-0.103c-0.081 0-0.177 0-0.273 0-106.538 0-201.688 48.756-264.354 125.173l-0.478 0.601c59.926 20.747 103.713 108.611 103.713 216.865z" />
<glyph unicode="&#xe90b;" glyph-name="12" horiz-adv-x="856" d="M767.95 291.177c-60.869 28.907-127.731 51.871-193.586 65.167-15.080 16.156-25.974 36.406-30.839 58.901l-0.15 0.827c40.775 31.862 71.982 79.671 89.071 136.645 47.205 7.134 59.476 79.687 40.759 119.405 85.966 376.681-570.217 377.47-486.299 0.806-19.691-39.701-7.437-113.211 40.322-120.244 16.871-56.958 48.296-104.784 89.054-136.662-4.868-23.351-16.25-56.152-32.835-76.464-27.111 9.065-50.361 4.465-50.764 4.012-127.698-35.135-219.841-75.155-225.465-231.827 0-220.58 845.488-220.781 845.488 0 8.679 70.706-16.149 147.087-84.757 179.435zM430.399 910.311c131.206 0 235.369-80.879 216.165-212.371-8.763 4.23-19.288 4.415-28.706 2.283-8.117 24.713-14.99 42.921-22.436 60.833l2.157-5.856c-1.326 5.926-3.508 8.259-5.221 10.593-133.489 88.819-186.788-89.155-309.080 0.504-0.705 0.436-1.192 0.856-1.813 1.343-6.127 1.544-12.993 0.52-16.871-5.002-8.931-24.979-18.936-52.677-23.032-62.414-9.048 2.317-18.986 2.132-27.547-1.83-19.221 131.374 68.289 228.419 216.383 211.918zM265.736 571.048c-20.144 21.789-32.751 8.108-41.010 14.437-18.751 12.741-23.401 77.874 0.671 84.69 12.506 1.091 23.569-11.835 35.303-2.686 3.29 2.602 5.489-1.091 6.178 10.458 1.108 5.019 9.065 28.252 17.761 52.258 150.813-62.699 165.989 80.208 286.065 12.909 15.83-38.643 16.183-59.157 28.219-75.591 11.7-9.199 28.571 5.086 35.32 2.686 9.602-2.686 18.667-20.916 16.418-45.526-1.863-20.497-9.585-33.591-15.713-39.164-8.897-5.775-22.394 7.252-28.487-13.967-54.423-219.069-299.042-219.119-340.723-0.504zM343.644 397.79c24.779-14.323 54.507-22.775 86.209-22.775s61.43 8.451 87.054 23.224l-0.845-0.449c7.040-23.995 19.045-44.664 34.901-61.701l-0.085 0.093c-7.94-25.046-65.167-72.452-120.933-107.050-56.001 34.615-113.211 82.105-120.966 107.050 16.199 17.542 39.852 38.627 34.665 61.608zM37.972 111.742c-11.415 115.343 57.31 156.42 162.598 190.817-4.2-16.373-8.124-37.065-10.889-58.122l-0.307-2.864c-65.301-19.725-61.776-79.788-51.519-134.866-14.319-19.49 9.904-45.996 35.722-33.255 10.274 8.41 9.686 32.164-5.859 40.087-5.791 37.502-16.837 83.162 38.425 98.455 52.375 2.317 53.349-48.397 57.327-86.771-13.43-11.6-7.369-34.749 9.753-45.526 22.511-0.201 39.533 30.619 20.967 45.526-3.391 51.788-11.465 109.568-73.795 117.945 3.93 27.039 8.999 50.512 15.48 73.393l-0.959-3.962c9.988 2.619 14.571 4.13 46.919 10.039 19.825-46.466 102.316-101.158 132.801-119.808v-229.107c-189.608 2.166-376.664 63.572-376.664 138.022zM821.836 111.742c0-71.831-175.927-133.305-376.731-138.022v229.107c30.972 19.137 114.587 74.634 133.288 121.151 15.125-11.784 29.73-6.614 57.159-10.441-4.23-32.063 1.712-64.848 4.767-97.968-71.395-25.684-25.751-132.482 37.233-109.232 54.591 16.72 49.421 100.755-6.48 111.045-3.092 32.411-8.080 61.653-15.016 90.133l0.882-4.285c105.825-34.161 176.732-68.759 164.898-191.488zM658.986 188.24c35.068-0.353 35.152-53.584-0.034-53.752-35.202 0.252-34.967 53.449 0.101 53.752h-0.067z" />
<glyph unicode="&#xe90c;" glyph-name="13" horiz-adv-x="759" d="M70.603 324.449h35.31c-12.164 25.512-3.16 49.593 30.385 67.196 10.681 17.585 42.019 17.585 64.141 0 20.303-16.154 27.913-43.202 19.615-70.762 12.182 0 44.756 3.566 44.756 3.566 28.831 2.119 50.865-24.17 52.966-52.966 2.119-28.796-24.135-50.847-52.966-52.966 48.463-54.766 125.722-79.519 193.218-60.469 69.204 19.433 121.772 75.031 136.535 144.598l0.222 1.251c14.53 70.462-7.751 134.038-67.919 187.992-1.145-0.067-2.483-0.106-3.831-0.106s-2.686 0.038-4.015 0.114l0.184-0.008c-0.002 0-0.004 0-0.006 0-19.674 0-37.82 6.541-52.383 17.566l0.217-0.158-21.398-21.239c0.742-2.68 1.169-5.758 1.169-8.935 0-9.529-3.838-18.162-10.052-24.436l0.003 0.003-24.505-27.878c-6.532-3.337-15.395-7.009-24.611-7.009-9.234 0-18.097 3.672-24.629 7.009l-12.341 15.537-35.999-37.394c-6.515-6.532-15.378-12.747-24.611-12.747s-18.079 6.215-19.050 12.747l-54.607 49.205c-6.3 6.298-10.197 14.999-10.197 24.611s3.897 18.314 10.197 24.611l36.864 36.846-12.341-1.66c-6.532 20.356 0.6 29.219 0.6 38.453 0 9.216-7.133 18.061-0.6 24.576l30.084 24.717c3.249 8.704 16.049 12.094 28.001 8.863l259.425 249.662c-3.478 6.532 5.367 10.222 14.618 10.222 9.216 0 18.061-3.69 24.594-10.222l49.046 48.87c6.532 6.532 15.378 10.205 28.266 10.205 5.579 0 22.069-3.672 20.957-10.205l49.399-49.028c6.532-6.515 10.205-15.378 10.205-24.594 0-9.251-3.672-18.097-10.205-33.209l-49.399-40.607c6.287-6.301 10.174-14.998 10.174-24.602s-3.887-18.302-10.175-24.603l0.001 0.001-107.132-106.937c9.781-12.694 15.801-27.878 17.39-43.82 76.853-78.283 114.9-170.937 116.983-273.196-28.425-102.259-96.221-195.955-193.518-235.838h105.931c39.918 0 70.621-34.851 70.621-70.621v-35.328h35.31c9.604 0 17.655-8.033 17.655-17.638 0-9.622-8.051-17.673-17.655-17.673h-688.552c-9.604 0-17.655 8.051-17.655 17.673 0 9.604 8.051 17.638 17.655 17.638h35.31v35.328c0 30.508 35.169 70.621 70.621 70.621h105.931c-59.533 30.455-111.528 81.355-141.241 141.241h-52.966c-28.813 0-55.79 18.538-55.79 47.334 0 28.831 26.977 58.598 55.79 58.598zM188.751 344.099c0 3.443-7.080 26.094-26.094 26.094-14.407 0-26.094-22.652-26.094-26.094 0-14.407 11.688-26.077 26.094-26.077 19.015 0 26.094 11.67 26.094 26.077zM519.203 631.014c-28.233-0.758-50.831-23.825-50.831-52.171s22.598-51.413 50.761-52.17l0.070-0.001c35.346 0 52.189 23.358 52.189 52.171 0 28.796-16.843 52.171-52.189 52.171zM240.922 478.861l49.223-55.402 36.864 43.061-49.205 49.187-36.882-36.846zM271.007 577.271l119.172-122.933 22.934 24.523-122.968 122.915-19.138-24.505zM720.631 860.001l-44.791 49.205-53.672-49.205 53.672-49.223 44.791 49.223zM572.946 860.001l-245.937-246.396 114.194-98.392 3.39 19.121c-6.215 34.022-13.647 76.835 14.054 104.519 15.74 15.735 37.483 25.467 61.498 25.467 15.844 0 30.698-4.236 43.492-11.637l-0.419 0.224 112.622 108.668c-165.676 161.015-69.667 65.73-102.894 98.428zM158.879 41.966c-23.676 0-35.31-13.241-35.31-35.31v-35.328h547.31v35.328c0 17.849-15.695 35.31-35.31 35.31h-476.69zM397.453 74.611c113.808 0.202 211.57 68.685 254.524 166.66l0.699 1.788c14.266 32.355 22.57 70.081 22.57 109.746 0 74.15-29.020 141.523-76.322 191.38l0.116-0.123c-7.452-16.645-19.441-30.139-34.397-39.242l-0.384-0.217c60.098-60.345 81.161-149.327 61.97-230.206-34.11-80.878-103.971-139.917-188.186-152.753-77.524-12.8-176.658 27.595-226.198 96.874h-52.966c49.664-85.981 139.264-143.801 238.574-143.907zM70.603 253.828h194.207c9.604 0 17.655 8.068 17.655 17.655 0 9.604-8.051 17.655-17.655 17.655h-194.207c-9.604 0-17.655-8.051-17.655-17.655 0-9.587 8.051-17.655 17.655-17.655z" />
<glyph unicode="&#xe90d;" glyph-name="14" horiz-adv-x="1088" d="M1002.645 21.376h-85.333c-11.605-50.091-51.477-85.333-106.667-85.333-55.168 0-95.061 35.243-106.667 85.333h-384c-14.869-62.827-64.299-85.333-106.667-85.333-50.923 3.584-95.296 35.584-106.667 85.333h-85.333c-12.864 0.192-17.685 8.469-21.312 21.333v576c0 50.197 35.072 85.333 85.312 85.333h213.333l21.333 64c3.115 9.237 11.541 19.157 21.333 21.333h106.667c9.792-2.176 18.219-12.096 21.333-21.333l21.333-64h149.333c47.616-10.709 82.965-38.123 97.941-102.443h114.773c31.253 17.195 75.456-15.147 90.197-62.763 0.171-0.512 0.363-0.683 0.491-1.195l22.827-96.512c34.579-7.306 63.909-26.078 84.527-52.073l0.23-0.301c21.845-42.304 37.013-88.725 37.013-111.403v-191.979c-0.405-37.973-47.317-63.765-85.333-64zM810.645-21.291c38.827 0.064 63.957 25.216 64 64 0 38.805-25.152 63.979-64 63.979-38.827 0-64-25.173-64-63.979 0-38.827 25.173-64 64-64zM213.312-21.291c38.144-17.536 61.312 25.941 64 64 2.773 38.72-25.259 61.248-64 63.979-38.165 0-55.232-25.835-64-63.979-0.875-38.144 25.877-62.208 64-64zM426.645 746.709h-64l-21.333-42.667h106.667l-21.333 42.667zM899.115 525.483c-9.024 20.224-37.419 50.56-67.136 50.56h-106.667v-128h192l-18.197 77.44zM1045.312 277.355c0 24.32-3.392 69.227-30.144 82.667-19.2 24.043-45.739 45.632-76.523 45.333h-234.667c-12.565 0-21.333 8.768-21.333 21.355v192c-0.107 25.28-17.344 40.277-42.667 42.667h-554.667c-25.429-17.109-38.592-17.28-42.667-42.667v-554.667h64c9.749 55.381 54.251 85.333 106.667 85.333 46.699 0 96.939-29.952 106.667-85.333h384c9.792 55.296 56.683 85.333 106.667 85.333 50.475 0 96.896-30.037 106.667-85.333h106.667c12.864 0.192 20.949 8.491 21.333 21.333v191.979zM511.979 320.043h-64v-64c0-12.587-8.747-21.333-21.333-21.333h-85.333c-12.587 0-21.333 8.747-21.333 21.333v64h-64c-12.843 0.363-4.245 8.469-21.333 21.333v85.333c0 12.565 8.747 21.333 21.333 21.333h64v64c0 12.565 8.747 21.333 21.333 21.333h85.333c12.587 0 21.333-8.768 21.333-21.333v-64h64c12.608 0 21.333-8.768 21.333-21.333v-85.333c-0.171-12.843-8.469-20.971-21.333-21.333zM490.645 405.376h-64c-12.971 0.32-17.045 8.363-21.333 21.333v63.979h-42.667v-63.979c-0.427-12.971-8.341-21.013-21.333-21.333h-64v-42.667h64c12.587 0 21.333-8.747 21.333-21.333v-64h42.667v64c0 12.587 8.768 21.333 21.333 21.333h64v42.667zM213.312-63.957c2.816-17.109-2.773 0 0 0zM540.416 806.272c-3.925-2.965-8.747-4.587-13.675-4.587h-0.021c-9.792 0-18.496 6.251-21.611 15.531-3.115 9.301 0.064 19.52 16.917 25.408l41.237 37.845c3.769 2.872 8.544 4.601 13.722 4.601 7.411 0 13.995-3.542 18.151-9.025l0.041-0.057c7.573-10.027 5.568-39.296-4.48-31.893l-50.283-37.824zM393.771 847.424c-12.574 0.012-22.763 10.208-22.763 22.784v0 61.333c0 12.587 10.197 22.784 22.763 22.784 21.803 0 22.784-10.197 22.784-22.784v-61.333c0-12.565-0.981-22.784-22.784-22.784zM244.992 806.272l-50.283 37.824c-10.048-7.403-12.053 21.867-4.48 31.893 4.193 5.538 10.773 9.080 18.18 9.080 5.175 0 9.947-1.729 13.769-4.64l-0.056 0.041 50.283-37.845c5.526-4.199 9.058-10.775 9.058-18.176 0-12.573-10.192-22.765-22.765-22.765-5.172 0-9.94 1.724-13.763 4.63l0.056-0.041z" />
<glyph unicode="&#xe90e;" glyph-name="15" d="M988.052 241.421c-30.684 27.253-146.378 127.784-169.571 155.522-21.953 11.731-32.031 20.947-46.008 24.127v179.667h17.965c10.617-50.176 39.325-71.86 89.825-71.86h53.895c51.577 0 88.765 37.529 89.825 89.825 0 10.671-8.282 7.689-17.965 17.965h-233.544v179.631c0 75.794-67.422 141.905-143.719 141.905-69.848 0-103.28-55.35-110.538-57.47-47.284 25.618-107.448 14.947-142.929-25.636l-4.294-9.054c-6.449-3.737-6.449-30.181 2.156-22.941l146.145-127.030c3.304-2.834 7.632-4.558 12.362-4.558 5.802 0 10.998 2.595 14.491 6.688l0.022 0.026 4.294 5.336c34.403 43.745 33.9 102.957-2.156 153.69l6.449 7.473c81.435 102.759 181.787-1.796 181.787-68.428v-395.228h-377.263v35.948c0 29.876 23.821 53.895 53.895 53.895h179.649c10.761 0 17.965 7.294 17.965 17.965 0 10.653-7.204 17.947-17.965 17.947h-179.649c-50.481 0-89.825-39.649-89.825-89.807v-35.948l-8.228 0.413-165.493 199.608c10.258 4.258-8.587 8.515-13.959 12.809 19.33 18.145 25.995 49.008 25.995 74.626v17.965c0 38.229-37.169 89.807-89.825 89.807-27.935 0-53.895-25.061-53.895-53.895v-107.789c0-14.929 6.144-26.337 17.965-35.912-24.702-25.618-24.899-63.811-2.317-106.568l191.254-218.741c11.821-26.66 32.481-33.99 62.572-33.99h89.825c9.683-50.176 38.265-89.843 89.825-89.843h17.965v-107.772h-53.895c-36.541 0-71.86-35.588-71.86-71.878v-35.912c0-10.689 7.222-16.887 17.965-17.983h323.368c10.761 0 17.965 7.294 17.965 17.983v35.912c0 36.289-29.983 71.878-71.842 71.878h-53.913v107.772h17.965c51.577 0 80.141 39.667 89.825 89.843h53.895l143.719-125.772c26.911-22.438 80.106-38.086 109.999-4.599 30.576 34.241 10.204 85.459-20.175 112.388zM988.052 600.738c-2.138-28.834-23.804-34.888-53.895-35.93h-53.895c-30.091 0-43.277 6.018-53.895 35.93h161.684zM528.959 758.775l-116.053 100.316c33.307 16.115 82.746 23.498 110.682-9.593 20.408-25.618 23.642-62.967 5.372-90.723zM53.877 762.404c0 7.473 10.438 17.983 17.965 17.983 31.169 0 53.895-22.959 53.895-53.895v-17.965c0-30.989-22.726-71.86-53.895-71.86-7.527 0-17.965 10.474-17.965 17.947v107.789zM220.555 360.655l-156.888 191.057c-11.803 13.869 1.006 34.169 4.312 45.882l6.431 5.336c13.977 11.749 43.619 9.629 46.224-4.258l154.049-181.464c-30.486-8.533-48.757-29.858-54.128-56.554zM646.737 25.86c15.037-10.456 35.912-21.001 35.912-35.948v-17.965h-287.439v17.965c0 16.025 19.815 35.948 35.93 35.948h215.597zM520.964 61.79v107.772h35.93v-107.772h-35.93zM610.789 205.492h-143.719c-30.073 0-45.29 25.079-53.895 53.913h251.509c-8.587-28.834-23.786-53.913-53.895-53.913zM790.438 331.246c0-20.282-4.114-35.912-35.93-35.912h-467.088c-47.266 0-35.93 50.14-35.93 35.912v17.983c0 20.264 14.444 35.912 35.93 35.912h467.088c31.636 0 35.93-15.647 35.93-35.912v-17.983zM978.926 154.022c-14.534-13.707-37.331-15.396-53.446-15.019l-128.952 123.455c20.408 4.815 29.84 44.23 29.84 68.788l148.534-123.239c15.037-13.869 18.917-53.374 4.024-53.985z" />
<glyph unicode="&#xe90f;" glyph-name="16" d="M85.811 425.199l41.097 32.836c33.041 30.857 143.428 30.788 117.214-0.341l107.383-107.179 482.031 546.475c15.155 17.067 36.591 27.034 108.544 27.853-26.419 0.614-4.301-8.055 11.81-24.166 31.744-31.471 32.427-130.458 1.57-115.029-140.834-147.729-446.942-482.167-502.17-757.146-44.373-14.882-57.685-33.792-73.318-48.128-15.565-13.653-30.583 28.058 9.148 41.847-108.749 107.998-194.219 200.294-297.233 269.926-6.554 14.473-35.567 38.707-36.796 64.99-1.161 26.214 10.24 4.164 30.72 68.062z" />
<glyph unicode="&#xe910;" glyph-name="17" horiz-adv-x="1045" d="M1016.661 342.379l-479.872-397.931c-5.128-4.294-11.796-6.902-19.072-6.902s-13.944 2.608-19.119 6.94l0.047-0.038-479.851 397.931c-6.618 5.517-10.798 13.764-10.798 22.987 0 7.268 2.596 13.93 6.912 19.109l-0.039-0.048c10.539 12.672 43.371 14.421 42.069 3.883l135.040-109.44c6.635 175.232 175.381 308.096 325.739 308.096 167.083 0 321.643-133.312 328.277-308.523l132.523 109.867c5.010 3.932 11.405 6.305 18.354 6.305 16.495 0 29.867-13.372 29.867-29.867 0-8.889-3.883-16.871-10.046-22.343l-0.031-0.027zM517.717 534.485c-30.976-0.043-63.211-6.123-94.912-17.109 11.541-23.829 53.44-46.485 89.173-46.507 35.797-0.021 75.477 20.053 101.867 44.907-22.976 10.752-65.195 18.709-96.128 18.709zM660.373 493.419c-11.413-30.592-76.608-72.704-142.613-72.704-60.779 0-123.221 42.112-142.677 72.704-26.516-16.804-49.052-37.085-67.761-60.553l-0.421-0.546c37.76-82.389 128.277-125.611 210.795-125.611 103.765 0 192.384 63.659 210.837 125.611-6.891 15.829-42.091 44.736-68.16 61.099zM767.979 385.536c-57.835-75.52-153.152-138.069-250.261-138.069s-182.549 62.549-240.405 138.069c-15.381-33.813-28.395-80.171-28.395-119.659 0-13.056 0.981-26.197 2.859-39.125l265.941-220.544 265.941 220.544c1.899 12.928 5.653 17.728 5.653 30.784 0 24.917-5.931 94.187-21.333 128zM797.461 783.872c-5.313-8.754-14.793-14.513-25.618-14.513-16.495 0-29.867 13.372-29.867 29.867 0 5.32 1.391 10.315 3.829 14.641l-0.077-0.15 29.867 51.669c5.313 8.754 14.793 14.513 25.618 14.513 16.495 0 29.867-13.372 29.867-29.867 0-5.32-1.391-10.315-3.829-14.641l0.077 0.15-29.867-51.669zM707.861 628.779c-5.525-9.557-15.573-14.933-25.899-14.933-5.056 0-10.197 1.28-14.912-3.072-14.293 15.317-19.179 33.557-10.923 47.851l29.867 51.691c8.235 7.552 26.496 19.157 53.845 10.901 1.237-8.213 6.144-26.475-2.112-40.747l-29.867-51.691zM517.717 657.835c-16.487 0-29.855 13.36-29.867 29.844v59.692c0.012 16.486 13.379 29.845 29.867 29.845v0c24.576 0 29.867-13.355 29.867-29.845v-59.691c0-16.491-5.291-29.845-29.867-29.845zM517.717 836.907c-16.487 0-29.855 13.36-29.867 29.844v59.713c0.024 16.477 13.387 29.824 29.867 29.824 0 0 0 0 0 0v0c24.576 0 29.867-13.376 29.867-29.824v-59.712c0-16.491-5.291-29.845-29.867-29.845zM368.384 610.773c4.523 4.352-9.835 3.072-14.891 3.072 5.973 0-20.373 5.376-25.899 14.933l-29.867 51.691c-2.522 4.281-4.012 9.431-4.012 14.93 0 10.983 5.946 20.578 14.794 25.741l0.141 0.076c14.293 8.256 32.555-3.349 40.789-10.901l29.888-51.691c8.256-14.293 3.349-32.533-10.944-47.851zM291.84 772.928c-17.771-2.709-22.891-3.989-27.947-3.989-10.347 0-20.373 5.333-25.899 14.933l-29.867 51.669c-2.244 4.092-3.564 8.966-3.564 14.148 0 16.495 13.372 29.867 29.867 29.867 10.684 0 20.058-5.61 25.336-14.045l0.073-0.125 29.867-51.669c8.256-14.293 3.371-32.555 2.133-40.789z" />
<glyph unicode="&#xe911;" glyph-name="18" horiz-adv-x="878" d="M731.404-62.196c-136.509 0-243.81 107.447-243.81 243.761v137.192c-6.656-5.071-29.647-15.287-48.762-15.287-18.139 0-39.619 7.607-48.762 16.238v-138.142c0-136.314-82.895-243.761-219.429-243.761h-170.642v536.332h316.928v146.261h-48.762v48.762h97.524v73.143h-73.143v194.999h438.857v-48.738h-97.524l-48.762-146.261h-73.143v-73.143h97.524v-48.762h-48.762v-146.261h316.952v-536.332h-146.286zM341.309 352.232c-18.334 17.676-18.578 47.445-24.381 73.143h-268.19v-438.808h121.905c109.909 0 170.667 90.819 170.667 194.999v170.667zM542.574 792.332l42.545 96.232h-243.81v-97.499l201.265 1.268zM414.452 742.302v-73.143h48.762v73.143h-48.762zM511.976 620.398h-146.286v-195.023c0-40.911 32.207-73.143 73.143-73.143 40.96 0 73.143 32.232 73.143 73.143v195.023zM828.928 425.374h-268.19c-6.022-32.963-4.779-55.198-24.381-73.143v-170.667c0-120.832 97.182-194.999 195.048-194.999h97.524v438.808zM670.452 181.565c-47.128 0-85.333 38.205-85.333 85.333s38.205 85.333 85.333 85.333v0c47.128 0 85.333-38.205 85.333-85.333s-38.205-85.333-85.333-85.333v0zM670.452 303.47c-20.199-0.007-36.571-16.383-36.571-36.584 0-20.205 16.379-36.584 36.584-36.584 0.004 0 0.009 0 0.013 0h-0.001c20.199 0.007 36.571 16.383 36.571 36.584 0 20.205-16.379 36.584-36.584 36.584-0.004 0-0.009 0-0.013 0h0.001zM731.404 59.685h-48.762v48.738h48.762v-48.738zM207.214 181.565c-47.128 0-85.333 38.205-85.333 85.333s38.205 85.333 85.333 85.333v0c47.128 0 85.333-38.205 85.333-85.333s-38.205-85.333-85.333-85.333v0zM207.214 303.47c-20.199-0.007-36.571-16.383-36.571-36.584 0-20.205 16.379-36.584 36.584-36.584 0.004 0 0.009 0 0.013 0h-0.001c20.199 0.007 36.571 16.383 36.571 36.584 0 20.205-16.379 36.584-36.584 36.584-0.004 0-0.009 0-0.013 0h0.001zM195.023 59.685h-48.762v48.738h48.762v-48.738z" />
<glyph unicode="&#xe912;" glyph-name="19" horiz-adv-x="1434" d="M1092.233-61.474v989.764s341.333-169.062 341.333-511.966c0-335.974-341.333-477.798-341.333-477.798zM1160.499 791.757v-716.766c114.449 83.456 204.8 196.437 204.8 341.333 0 144.862-90.351 291.977-204.8 375.433zM477.833-61.474c-276.924 0-477.833 220.706-477.833 511.932 0 277.060 235.042 477.833 511.966 477.833s477.867-234.906 477.867-511.966c0-291.226-235.076-477.798-512-477.798zM511.966 860.023c-230.332 0-443.733-179.132-443.733-409.566 0-230.502 179.268-443.699 409.6-443.699 101.786 0 214.972 42.462 287.505 103.219-98.987 75.605-150.972 179.712-150.972 306.347s51.985 259.209 150.972 334.746c-72.533 60.757-151.586 108.954-253.372 108.954zM921.566 416.324c0 78.268-28.638 187.836-96.7 273.647-67.925-24.542-142.234-170.086-142.234-273.647s78.473-223.369 142.234-245.248c17.306 27.307 96.7 87.074 96.7 245.248z" />
<glyph unicode="&#xe913;" glyph-name="20" horiz-adv-x="1365" d="M1194.638 620.686v-85.333h-142.222v-85.305h-113.778c-20.452 193.792-114.29 357.575-160.796 419.783 10.382 7.879 41.074 11.321 31.573 14.421 31.403 4.864 26.908 22.727 21.959 39.765 9.444 17.067-22.699 26.908-39.794 21.988-122.027-35.186-222.777-95.175-283.278-165.888-124.075 83.883-253.98 76.117-259.726 75.691-16.786-1.181-29.956-15.088-29.956-32.071 0-17.754 14.392-32.146 32.146-32.146 0.771 0 1.535 0.027 2.292 0.080l-0.102-0.006c1.081 0.085 104.306 5.746 185.259-55.666-18.183-17.909-35.55-36.401-52.177-55.553l-1.014-1.194c-118.983 74.212-245.39 26.14-250.795 17.067-16.469 0.398-24.548-18.148 2.873-34.645-14.535-34.19 4.068-24.661 20.594-18.29 1.052 0.37 97.451 36.295 210.944-14.393-40.761-21.22-52.907-42.496-69.66-63.602-128.427 40.562-236.686-30.635-235.548-49.977-20.622 6.201-24.462-13.767-14.535-28.501 6.201-9.216 16.327-14.165 26.681-14.165 6.172 0 36.494-15.36 17.948 5.518 0.825 0.54 83.115 51.143 170.155 30.18-14.82-25.515-28.16-50.432-39.879-74.069-129.593 5.916-186.823-70.741-198.172-96.455-11.292 8.704-9.444-11.264 14.763-22.727-4.75-5.092 2.617-7.566 9.956-7.566 31.858 0 18.148 3.84 24.519 11.207 1.877 2.19 57.116 45.739 119.154 50.972-32.085-74.78-46.478-127.915-48.27-134.798-0.683-12.43 1.223-25.572 11.349-33.479 18.688-24.036 341.362-262.428 717.483-262.428 30.236 0 19.086 0.171 28.644 0.484 17.264 0.62 31.024 14.764 31.024 32.123 0 0.397-0.007 0.792-0.021 1.186l0.002-0.057c-0.626-2.987-15.644 32.171-33.252 31.033-12.316-0.427-24.576-0.427-36.836-0.256 19.828 35.699 38.153 77.46 52.603 120.988l1.526 5.306c1.166 2.332 1.991 1.508 2.56 7.509 27.904 89.742 22.699 174.279 17.806 255.744h113.778v-85.333h142.222v-85.333h170.667v398.194h-170.667zM625.749 421.604c-0.028 141.284 108.117 270.507 185.202 269.966 19.934-40.917 38.242-89.349 52.207-139.589l1.468-6.189c-6.808 2.047-14.631 3.226-22.73 3.226-0.899 0-1.795-0.015-2.687-0.043l0.13 0.003c-60.7-2.816-102.428-69.717-99.812-127.374 3.015-65.877 54.756-113.266 107.036-113.266 1.252 0 2.475 0 3.755 0.085 11.521 0.583 22.23 3.512 31.837 8.316l-0.463-0.21c0-7.566 3.612-20.907-16.014-139.833-110.165-4.722-239.929 95.972-239.929 244.907zM896.284 430.45c-11.093-43.236-34.901-63.602-48.64-64.199l-0.882-0.028c-17.977 0-34.105 19.2-50.347 55.381-1.934 43.264 31.801 68.949 45.54 69.547l0.967 0.028c17.522 0 19.797-8.647 24.064-13.909 9.529-11.748 21.333-28.786 29.298-46.82zM214.187 239.474c19.769 103.566 233.728 537.543 502.3 610.617 14.734-19.627 38.628-53.703 64.171-99.442-116.139-38.684-208.924-143.36-211.797-329.045 0-192.199 148.679-306.972 275.228-309.106-13.596-37.12-33.536-67.925-51.541-104.533-227.47 5.262-495.474 167.652-578.361 231.509zM1109.305 364.715v113.778h85.333v-113.778h-85.333zM1308.416 279.381h-56.889v284.444h56.889v-284.444z" />
<glyph unicode="&#xe914;" glyph-name="21" horiz-adv-x="1604" d="M1501.833 655.223v102.4h102.4v68.267h-102.4v102.4h-1399.467v-102.4h-102.366v-68.267h102.366v-102.4h341.333v-204.766h-443.699v-170.667l273.033-238.933c49.425-50.005 140.083-102.775 215.791-102.673 139.947 0.273 262.11 89.088 262.076 239.206v477.833h102.4v-477.833c0-150.118 125.747-238.933 257.331-238.933 73.182 0 136.977 18.261 186.402 68.301l307.2 273.033v170.667h-443.733v204.766h341.333zM170.633 860.023h1262.933v-136.533h-1262.933v136.533zM68.233 382.191h273.067c-59.221-20.309-118.477-138.411-102.4-204.8l-170.667 136.533v68.267zM489.506 6.417c-97.143-0.307-182.374 76.39-182.682 188.791-0.273 97.143 85.572 185.242 182.716 186.129 86.050 0.819 220.433-90.556 210.193-187.699-17.067-111.343-123.563-186.948-210.227-187.221zM682.633 348.058c-24.439 51.883-131.721 102.4-170.667 102.4v204.766h170.667v-307.166zM1110.016 7.236c-116.531 0-185.003 82.944-185.003 187.665 0 65.365 84.036 187.46 183.91 187.46 118.511 0 191.556-95.846 191.556-189.065 0-106.428-78.473-186.061-190.464-186.061zM1535.966 313.924l-170.667-136.533c0 59.665-46.421 173.67-102.4 204.8h273.067v-68.267zM1092.233 450.458c-48.299-8.636-147.866-53.828-170.667-102.4v307.166h170.667v-204.766z" />
<glyph unicode="&#xe915;" glyph-name="22" d="M779.292 135.652l36.722-36.722-40.164-40.164-105.301 105.273 105.301 105.273 40.164-40.164-36.722-36.722h227.072v-56.775h-227.072zM816.014 382.891l-40.164-40.135-105.301 105.273 105.301 105.273 40.164-40.164-36.722-39.538h227.072v-53.988h-227.072l36.722-36.722zM787.598 666.88l-40.164-40.164-105.273 101.177 105.273 109.369 40.164-40.135-36.722-41.074h255.488v-56.036h-255.488l36.722-33.138zM358.542-2.56l-25.742-43.804v465.977h-196.722l55.922-36.693-59.392-40.164-105.273 105.273 105.273 105.273 59.392-40.164-55.922-39.538h196.722v459.065l25.742-34.076c147.911-125.753 238.564-260.409 238.564-450.56 0-190.123-90.596-339.627-238.564-450.588zM381.156 800.142v-720.128c101.86 101.092 159.147 214.67 159.147 368.014 0 143.36-57.287 266.894-159.147 352.114z" />
<glyph unicode="&#xe916;" glyph-name="23" horiz-adv-x="1321" d="M285.167-41.208h75.181c145.078 0 263.102 127.207 263.102 251.706 0 40.531 18.729 58.104 66.263 58.104-4.823 0 13.907-17.573 13.907-58.104 0-124.499 118.024-251.706 263.102-251.706h75.181c145.078 0 263.102 127.207 263.102 251.706v180.224l-257.387 482.403c-16.979 31.81-47.17 46.575-82.878 58.434-35.708 5.318-52.389-21.438-96.322-31.777l-116.174-116.174 53.116-53.116 116.207 116.141c8.489 8.522 20.216-4.889 32.107 10.603 11.892-1.751 21.966-8.886 27.648-19.489l223.463-418.849h-388.393c-51.965-0.063-95.705-35.202-108.821-83.010l-0.185-0.793c-13.774 5.649-28.639 8.654-17.672 8.654-41.389 0-56.254-3.006-70.028-8.654-12.817 48.161-44.924 83.803-109.006 83.803h-388.393l223.463 418.849c5.561 10.359 15.592 17.697 27.443 19.464l0.205 0.025c11.892-15.492 29.267-2.081 32.107-10.603l116.207-116.141 53.116 53.116-116.174 116.174c-25.534 10.339-45.75 37.095-96.322 31.777-35.708-11.859-65.932-26.624-82.878-58.434l-257.387-482.403v-180.224c0-124.499 118.024-251.706 263.102-251.706zM778.802 306.159c0 20.711 42.711 37.591 37.591 37.591h413.432v-133.252c0-83.076-84.298-167.341-187.921-167.341h-75.181c-103.622 0-187.921 84.265-187.921 167.341v95.661zM97.247 343.75h413.432c46.906 0 37.591-16.879 37.591-37.591v-95.661c0-83.076-70.623-167.341-187.921-167.341h-75.181c-103.622 0-187.921 84.265-187.921 167.341v133.252z" />
<glyph unicode="&#xe917;" glyph-name="24" d="M365.17 614.628l-60.018 119.979 53.675 26.852 59.989-120.007-53.646-26.823zM281.6 541.184l-143.019 60.018 26.823 53.646 128.427-59.989-12.231-53.675zM605.184 641.451l59.989 120.007 53.646-26.852-59.989-119.979-53.646 26.823zM738.588 594.859l120.007 59.989 26.823-53.646-119.979-60.018-26.852 53.675zM1023.972-63.972h-1023.972v545.906l175.502-21.077c28.331-4.096 58.88-18.802 98.987-44.715 17.607 98.19 103.765 168.676 207.502 180.196v181.675h-60.018v121.998h-421.973v59.989h1023.972v-59.989h-421.973v-121.998h-46.194v-181.675c89.913-11.52 176.071-82.005 210.318-180.196 21.932 24.178 52.095 40.541 86.034 44.649l0.665 0.066 171.15 21.077v-545.906zM555.804 900.011h-73.813v-62.009h73.813v62.009zM511.972 538.027c-19.314 0-53.817-11.236-77.938-15.019 15.904-27.037 44.824-44.917 77.926-44.999h0.012c33.114 0.082 62.034 17.962 77.708 44.576l0.23 0.423c-24.092 3.783-50.404 15.019-77.938 15.019zM641.82 492.971c-26.283-70.571-75.321-88.775-129.849-88.775-33.252 0-103.538 18.204-129.82 88.775-48.999-38.756-80.156-98.209-80.156-164.939 0-0.003 0-0.007 0-0.010v0.001c0-115.797 94.18-210.005 209.977-210.005 133.717 0 210.005 94.208 210.005 210.005 0 0.003 0 0.006 0 0.010 0 66.73-31.157 126.183-79.718 164.604l-0.439 0.335zM963.982 414.094l-103.765-12.772c-43.065-5.404-76.715-61.696-78.194-82.688-5.12-142.080-121.856-260.608-270.052-260.608-149.106 0-264.903 119.495-270.023 260.551-1.508 21.049-35.129 77.34-78.222 82.745l-103.737 12.772v-418.076h903.993v418.076z" />
<glyph unicode="&#xe918;" glyph-name="25" horiz-adv-x="870" d="M790.016 286.643c-69.85 31.078-137.485 52.467-204.096 65.907-15.243 16.342-26.258 36.82-31.182 59.566l-0.152 0.837c41.229 32.23 74.406 80.602 90.086 138.202 58.688 7.219 67.648 80.602 41.229 120.768 86.95 380.979-576.768 381.76-491.878 0.819-19.917-40.141-7.526-114.496 40.781-121.626 17.062-57.613 48.858-105.971 90.086-138.202-4.928-23.603-5.274-45.338-33.216-62.669-31.539-13.35-50.944-10.138-51.354-10.611-129.165-35.533-232.307-76.006-228.045-234.47 0-223.078 855.194-223.283 855.194 0 8.781 71.514-16.346 148.762-77.453 181.478zM440.307 927.488c132.71 0 238.067-105.344 218.637-229.453-8.858 4.275-19.494 4.454-29.030 2.304-12.291 38.317-19.255 57.884-26.442 77.344l5.936-18.362c-1.344 2.598-3.546 4.966-5.286 7.36-135.014 79.782-191.373-88.026-312.614-7.002-0.717 4.608-1.203 8.346-1.843 8.845-6.182 1.574-13.133 0.525-17.062-5.056-12.544-25.267-19.149-53.274-23.296-63.13-9.152 2.342-19.2 2.15-27.866-1.843-19.43 127.104 69.082 231.014 218.867 228.992zM261.082 572.288c-7.693 19.469-20.454 5.632-28.813 12.019-18.944 12.877-23.654 78.746 0.691 85.645 12.659 4.173 30.976-11.955 35.712-2.714 3.328 2.624 5.542 6.387 6.234 5.146 1.126 10.522 9.178 34.010 17.971 58.278 138.176-63.411 167.898 81.114 289.344 13.056 16.013-39.078 16.371-59.814 28.544-76.442 11.827-9.306 23.104 6.989 35.725 2.714 9.702-2.714 18.88-21.158 16.602-46.042-1.882-20.723-4.275-33.984-15.898-39.616-8.986-5.837-22.643 7.36-28.8-11.994-53.786-223.68-302.464-223.744-357.312-0.051zM352.563 394.458c25.063-14.484 55.13-23.030 87.194-23.030s62.131 8.546 88.048 23.484l-0.855-0.454c6.694-23.245 18.765-44.57 35.226-67.93-8.038-22.912-65.92-67.648-122.33-102.63-56.627 35.008-114.509 80.87-122.355 102.63 26.061 23.386 31.053 44.71 35.072 67.93zM43.379 105.165c-11.533 126.758 57.958 158.195 164.467 192.986-4.257-16.573-8.226-37.502-11.019-58.802l-0.309-2.882c-66.035-29.363-62.477-80.691-52.109-136.397-14.49-19.699 17.382-46.515 30.938-33.613 15.59 8.499 14.989 32.525-0.73 40.538-5.862 40.819-17.024 91.277 38.874 99.571 52.966 2.342 53.952-48.96 57.971-87.757-13.581-11.738-7.45-35.149 9.869-39.322 22.771-6.925 40 24.243 21.21 39.322-3.43 52.378-11.597 103.91-74.65 119.296 11.597 23.68 8.333 47.13 14.694 70.208 10.099 2.637 14.746 4.186 47.462 10.163 20.045-47.014 103.475-102.323 134.323-121.178v-231.718c-191.782 2.189-380.992 64.282-380.992 139.584zM836.237 105.165c0-72.64-177.946-134.81-381.056-139.584v231.718c42.739 10.829 115.904 75.482 145.651 120.909 4.454-1.28 19.238-5.069 33.83-8.947 8.166-28.477 14.513-62.168 17.794-96.751l0.177-2.308c-72.205-25.984-35.366-139.418 37.658-110.502 55.219 16.922 49.984 101.914-6.541 112.307-3.129 32.782-8.18 62.36-15.203 91.165l0.892-4.33c107.059-34.56 178.765-66.189 166.797-193.677zM671.526 182.528c35.469-0.346 35.546-62.208-0.038-54.349-35.597 0.269-39.181 53.683-0.090 54.17l0.128 0.179z" />
<glyph unicode="&#xe919;" glyph-name="26" d="M962.106 94.176h-9.294c-2.852-8.944-4.122-17.654-10.447-26.093l35.438-15.114c28.698-9.035 34.803-29.813 34.751-58.251-0.156-26.131-25.73-51.718-57.344-51.861h-17.823c-0.021 0-0.046 0-0.070 0-9.142 0-17.717 2.429-25.115 6.676l0.246-0.13-55.27 31.653c-25.684-13.495-56.118-21.414-88.401-21.414-27.685 0-54.010 5.824-77.817 16.314l1.237-0.486c-52.811 23.193-92.573 67.791-108.755 122.511l-0.347 1.367c-29.806 8.157-55.23 23.958-74.892 45.174l-0.093 0.102c-19.764-21.307-45.184-37.105-73.875-45.015l-1.11-0.261c-16.021-55.529-45.302-100.987-109.114-123.878-22.563-9.994-48.88-15.812-76.556-15.812-32.287 0-62.724 7.918-89.476 21.919l1.064-0.507-53.922-31.627c-8.905-4.303-17.525-6.585-16.721-6.585h-27.389c-15.282-0.078-29.942 0.92-40.623 16.993-10.797 10.629-16.825 25.185-16.721 34.868-0.052 28.439 13.636 49.23 34.764 58.251l35.425 15.179c-3.607 7.15-7.147 15.762-10.059 24.658l-0.388 1.37h-9.294c-24.822 0-50.448 16.164-50.448 50.448 0 27.842 25.626 48.802 50.448 48.802h4.796c21.452 87.066 92.86 149.141 180.302 152.913 87.429-2.294 166.471-51.706 192.655-135.194 0.752 0.739 1.568 1.283 2.294 2.061 19.106 17.421 50.228 32.262 73.974 32.262 28.089 0 54.894-14.842 73.987-32.262 0.726-0.778 5.055-1.322 12.573-2.061 15.969 83.411 94.973 131.344 182.35 135.038 87.377-3.759 161.312-65.769 180.263-152.757h4.796c27.855 0 50.448-20.96 50.448-48.802 0-34.285-22.593-50.448-50.448-50.448zM71.187 161.423h-17.071c-9.285 0-16.812-7.527-16.812-16.812s7.527-16.812 16.812-16.812v0h16.825c9.063 0.292 16.299 7.709 16.299 16.816 0 9.021-7.099 16.383-16.015 16.806l-0.038 0.001zM51.667 22.055c-8.749-3.759-14.401-12.353-14.362-27.337-0.039-0.752 10.136-6.727 6.896-11.083 4.381-4.602 10.46-7.168 16.812-7.142h26.87c-6.144-0.026-3.253 0.726-0.687 2.178l39.91 22.865c-13.584 10.81-25.613 23.422-30.668 31.55l-44.771-11.031zM258.333 312.741c-84.629-0.272-148.7-50.85-166.108-122.543 17.383-8.108 29.214-25.437 29.214-45.529 0-18.424-9.948-34.525-24.766-43.223l-0.235-0.128c4.018-11.847 9.423-27.013 16.099-33.727 0.156-0.337 0.493-0.57 0.635-0.92v-0.246c28.88-44.32 78.204-73.209 134.275-73.209 5.495 0 10.926 0.277 16.278 0.819l-0.674-0.055c59.573-3.020 110.89 33.922 132.926 100.196h-5.574c-27.855 0-50.435 16.164-50.435 50.448 0 27.842 22.58 48.802 50.435 48.802h5.055c1.996-7.259 3.992 1.944 5.963 2.32-19.041 69.256-82.101 117.19-143.088 116.995zM567.737 190.367c-20.35 13.688-40.908 21.465-59.625 21.491-19.453-0.036-36.971-8.291-49.271-21.477l-0.037-0.040c-15.628-17.521-38.162-28.595-63.288-28.918l-0.057-0.001h-5.055c-9.285 0-16.812-7.527-16.812-16.812s7.527-16.812 16.812-16.812v0h5.055c44.732 0.48 65.367 8.335 87.895 39.716 6.184 6.606 14.957 10.723 24.693 10.723s18.509-4.117 24.675-10.704l0.017-0.019c22.567-31.64 54.453-39.262 88.025-39.716h5.055c9.004 0.365 16.164 7.752 16.164 16.812s-7.161 16.447-16.131 16.811l-0.033 0.001h-5.055c-21.53 0.324-47.195 10.81-53.028 28.944zM768.739 312.741c-0.147 0-0.321 0.001-0.495 0.001-72.903 0-134.36-49.007-153.223-115.875l-0.27-1.121c1.996-0.376 3.992-9.579 6.014-2.32h5.055c27.842 0 50.435-20.96 50.435-48.802 0-34.285-22.593-50.448-50.435-50.448h-5.522c22.035-66.275 73.339-103.217 132.926-100.196 4.677-0.486 10.105-0.763 15.598-0.763 56.073 0 105.399 28.888 133.906 72.594l0.376 0.614v0.246c0.143 0.35 0.467 0.583 0.635 0.92 6.675 6.714 12.081 21.88 16.099 33.727-16.203 9.397-25.807 27.026-20.143 45.73-3.902 18.691 7.337 35.334 24.343 43.151-17.574 70.689-80.375 122.29-155.269 122.543h-0.029zM889.117 1.536l39.988-22.917c2.528-1.4 16.345-2.152 8.283-2.126h17.823c6.235-0.052 12.197 2.424 16.54 6.896 4.589-3.318 7.181 10.46 7.168 11.329 0.039 14.984 4.9 23.578-14.336 27.337l-39.664 11.031c-10.188-8.127-22.23-20.739-35.801-31.55zM962.106 161.423h-17.071c-9.232-0.070-16.689-7.57-16.689-16.812 0-9.285 7.527-16.812 16.812-16.812 0.043 0 0.087 0 0.13 0h16.818c9.285 0 16.812 7.527 16.812 16.812s-7.527 16.812-16.812 16.812v0zM20.661 846.66h0.156c9.294 0 16.825-7.531 16.825-21.724 0-4.368-7.531-11.912-16.825-11.912-9.281-0.026-16.851 7.453-16.89 11.134-0.052 14.88 7.44 22.45 16.734 22.502zM931.451 522.882l-259.111 122.737c3.318-33.001 11.886-61.259 18.795-76.878 2.398-64.162-31.692-121.415-61.764-171.928l-4.187-7.090c-9.838-16.488-16.099-31.938-46.858-31.679-8.736 0-17.304 7.388-24.913 11.666-14.673 8.27-57.837 43.928 3.124 155.609 4.2 1.892 2.126 3.902 2.891-2.528 9.579 30.992 5.418 56.955-10.694 75.309-8.88 9.339-19.332 17.082-30.948 22.825l-0.64 0.286c-27.596 13.079-52.626 17.926-65.16 12.56-4.614-1.944-8.049-5.975-9.255-15.969-6.001-16.228-5.237-38.925 2.217-61.44 6.053-17.965 13.74-37.020 34.518-55.335-0.415-23.682-5.146-51.796-23.461-70.513-11.233-11.252-26.761-18.213-43.915-18.213-20.869 0-39.331 10.302-50.579 26.098l-0.129 0.19c-6.222 16.319-25.030 36.527-40.351 59.405-16.436 25.393-33.87 52.587-50.837 80.948-14.551 24.704-32.744 45.578-54.118 62.634l-0.452 0.349c-16.931 12.681-38.288 20.306-61.426 20.306-18.562 0-35.977-4.907-51.020-13.495l0.506 0.266-45.069-24.706c-5.13-2.878-11.259-4.573-17.783-4.573-7.009 0-13.561 1.956-19.14 5.352l0.163-0.092c-10.957 6.503-18.186 18.272-18.186 31.73 0 0.069 0 0.137 0.001 0.206v-0.011 105.692c0.26 9.089 7.69 16.358 16.818 16.358s16.558-7.269 16.818-16.334l0.001-0.024v-105.692c-0.052-1.27 0.609-2.463 2.878-3.072 10.758-0.648 1.244-0.648 2.294 0l45.056 24.459c47.13 26.261 105.303 13.39 148.519-9.955 25.302-24.874 46.637-44.473 70.371-81.389 9.281-18.847 26.507-45.756 42.632-70.682 25.289-22.424 28.555-42.438 48.88-58.614-4.277-6.766 3.215-11.095 11.433-11.77 0.816-0.083 1.763-0.131 2.721-0.131 9.587 0 18.061 4.765 23.182 12.057l0.060 0.090c10.046-1.996 6.701 19.287 2.242 28.503-8.98 17.342-17.441 37.881-24.167 59.189l-0.772 2.834c-9.462 27.467-3.681 57.201-1.789 85.044 7.44 13.947 14.505 25.315 27.92 31.070 29.787 12.742 71.058-14.336 95.141-13.156 13.351-7.57 27.454-17.888 39.379-30.461 15.395-17.064 24.813-39.78 24.813-64.696 0-13.168-2.631-25.722-7.395-37.164l0.236 0.64c-1.475-4.191-3.177-7.785-5.197-11.167l0.154 0.279c-34.051-62.386-32.198-100.78-15.969-109.918 9.462-4.653 20.895-1.218 26.261 7.842l4.29 7.194c28.763 48.335 58.498 98.343 53.442 151.591-6.622 43.784-26.669 82.011-55.746 111.249l0.009-0.009c-5.755 5.911-6.52 15.062 8.438 21.854-5.716 6.65 6.222 9.047 10.279 5.677l318.97-150.943c3.793-1.854 8.253-2.938 12.966-2.938 5.933 0 11.465 1.717 16.126 4.682l-0.122-0.073c8.736 5.496 14.051 5.613 14.077 25.38-0.039 10.875 1.789 20.895-15.386 26.248-93.158 51.68-568.942 309.352-780.495 309.352-48.193 0.143-96.243-5.068-135.466-15.541-9.307-0.428-10.331-1.815-10.266-3.37-0.26-9.089-7.69-16.358-16.818-16.358s-16.558 7.269-16.818 16.334l-0.001 0.024c-0.156 17.317 11.782 32.392 28.672 29.333 49.463 17.926 100.015 23.422 150.697 23.28 97.552 0 243.906-49.8 386.891-110.981 97.63-14.79 267.99-43.591 327.887-78.083 27.337-6.714 48.4-29.268 57.603-57.292 8.568-17.188 2.813-35.283-4.122-51.576 10.655-5.807 20.169-11.083 28.581-15.71 19.626-11.116 32.654-31.858 32.654-55.643 0-10.683-2.628-20.752-7.273-29.595l0.167 0.349c-15.788-30.539-52.963-43.073-73.974-28.296zM922.805 695.108c-7.077 16.54-21.634 32.949-40.053 40.001-29.294 14.686-97.202 32.042-192.655 49.645 89.905-42.347 171.876-92.16 241.612-116.775-7.129 8.71-6.65 18.16-8.905 27.13z" />
<glyph unicode="&#xe91a;" glyph-name="27" horiz-adv-x="1011" d="M880.096 73.929c71.356 0 129.413-58.044 129.413-129.413h-32.353c0 53.533-40.39 97.073-97.060 97.073h-227.795c-7.894-64.11-45.808-97.073-111.953-97.073h-64.706c-56.929 0-104.059 32.962-105.187 97.073h-234.561c-53.533 0-97.060-43.539-97.060-97.073h-32.353c0 71.369 58.057 129.413 129.413 129.413h226.498v65.601c-114.571 45.212-194.132 161.74-194.132 306.461v122.206c-49.269 44.11-80.896 107.468-80.896 175.493v203.776h32.353v-203.776c0-0.037 0-0.081 0-0.125 0-49.794 18.388-95.294 48.743-130.080l-0.201 0.235v139.627h271.943c0.186-0.001 0.406-0.001 0.626-0.001 62.099 0 118.299 25.257 158.888 66.058l31.002 31.015h42.269l-4.044-10.071c35.467-52.754 94.929-87.001 162.39-87.001 0.077 0 0.154 0 0.231 0h16.165v-139.627c30.155 34.551 48.543 80.051 48.543 129.845 0 0.044 0 0.088 0 0.132v-0.007 203.776h32.353v-203.763c0-68.038-29.527-131.396-80.896-175.506v-122.206c0-144.721-79.561-261.25-194.132-306.461v-65.601h226.498zM394.746 57.752c0-50.072 36.294-80.883 80.896-80.883h64.706c44.602 0 80.896 30.811 80.896 80.883v68.349c-33.693-12.474-72.61-19.731-113.211-19.819h-0.039c-39.755 0-77.772 7.22-113.249 19.819v-68.349zM200.613 494.521h17.291c-0.661 5.301-1.115 0.791-1.115 16.177 0 5.509 0.635 10.836 1.296 16.177h-17.473v-32.353zM815.376 721.564c-68.323 2.139-130.826 40.040-170.36 96.489h-0.894l-17.667-21.517c-52.561-48.724-117.345-75.543-186.251-75.543h-239.59v-161.753h25.924c14.077 34.855 42.658 52.081 79.807 74.506l4.213 22.541h-77.591v32.353h229.467c6.701 18.782 24.498 32.353 45.562 32.353s38.86-13.571 45.562-32.353h229.467v-32.353h-77.591l4.2-22.541c37.149-22.424 65.73-39.651 79.807-74.506h25.937v162.323zM583.045 656.287h-29.515c-6.811-18.967-24.616-32.298-45.542-32.353h-0.007c-20.935 0.057-38.743 13.387-45.455 32.016l-0.106 0.338h-29.515l25.25-80.883c10.681-14.997 14.232-31.511 16.397-48.53h66.871c2.178 17.019 7.699 33.533 20.35 48.53l21.271 80.883zM572.701 510.697c0-53.52 43.539-97.060 97.073-97.060s97.073 43.539 97.073 97.060c0 0.090 0 0.196 0 0.302 0 45.668-31.697 83.934-74.292 93.996l-0.655 0.131-10.279 2.385-9.112 48.776h-55.594l-30.344-95.815c-8.684-14.202-13.838-31.383-13.869-49.765v-0.009zM524.171 672.463c0 8.938-7.245 16.183-16.183 16.183s-16.183-7.245-16.183-16.183v0c0-8.938 7.245-16.183 16.183-16.183s16.183 7.245 16.183 16.183v0zM429.419 560.471l7.401 3.513-37.797 92.303h-55.542l-9.099-48.776-5.146-2.385c-49.269-10.305-80.092-49.126-80.092-94.428 0-53.52 43.539-97.060 97.073-97.060s97.060 43.539 97.060 97.060c0 17.46-4.796 34.673-13.856 49.774zM815.376 526.874h-17.473c0.661-5.34 1.296-10.668 1.296-16.177 0-15.386-0.454-10.875-1.115-16.177h17.291v32.353zM815.376 445.991v16.19h-25.691c-19.249-54.492-65.705-80.896-119.899-80.896-65.873 0-120.301 49.502-128.311 113.236h-66.949c-8.011-63.734-62.438-113.236-128.311-113.236-54.194 0-100.65 26.404-119.899 80.896h-25.704v-16.19c0-169.478 137.877-307.343 307.381-307.343 169.491 0 307.381 137.864 307.381 307.343zM346.216 429.814c-44.652 0.052-80.837 36.232-80.896 80.877v0.006c0 44.602 36.294 80.883 80.896 80.883 44.65-0.052 80.831-36.233 80.883-80.878v-0.005c0-44.589-36.281-80.883-80.883-80.883zM346.216 559.24c-26.792-0.037-48.5-21.75-48.53-48.54v-0.003c0.029-26.788 21.741-48.495 48.528-48.517h0.002c26.786 0.029 48.493 21.732 48.53 48.513v0.004c-0.037 26.79-21.741 48.499-48.526 48.543h-0.004zM669.774 591.58c44.652-0.052 80.837-36.232 80.896-80.877v-0.006c0-44.589-36.294-80.883-80.896-80.883s-80.883 36.294-80.883 80.883c0.052 44.65 36.233 80.831 80.878 80.883h0.005zM669.774 462.18c26.786 0.029 48.493 21.732 48.53 48.513v0.004c-0.037 26.79-21.741 48.499-48.526 48.543h-0.004c-26.789-0.044-48.493-21.753-48.53-48.539v-0.004c0.037-26.785 21.744-48.487 48.527-48.517h0.003z" />
<glyph unicode="&#xe91b;" glyph-name="28" horiz-adv-x="1101" d="M1082.509 374.784h-91.43c-10.112 0-18.304 16.448-18.304 26.534s8.192 18.253 18.304 18.253h91.43c10.086 0 18.278-8.166 18.278-18.253s-8.192-26.534-18.278-26.534zM1032.294 580.275l-50.675-21.069c-2.072-0.884-4.483-1.397-7.014-1.397-10.109 0-18.304 8.195-18.304 18.304 0 2.517 0.508 4.916 1.427 7.099l-0.045-0.12c1.856-6.707 5.414 8.026 9.907 9.894l50.65 17.446c8.576 6.067 12.954 5.184 18.138 1.216s7.872-13.632 7.027-16.87c-0.845-10.97-5.082-12.006-11.11-14.502zM875.469 698.317c-0.205-4.749-11.392-6.656-8.909-4.979-15.27 1.677-20.262 6.643-21.926 13.043-1.677 6.387 6.566 13.158 4.979 17.754l64.64 64.55c3.353 3.631 8.138 5.898 13.453 5.898 1.596 0 3.144-0.204 4.62-0.588l-0.127 0.028c6.515-12.71 11.597-6.733 13.248-13.222s-0.41-18.56-5.35-17.92l-64.627-64.563zM879.514 239.206c59.302-10.944 123.366-17.587 179.597-19.93h0.038c11.541-0.479 21.205-8.012 24.825-18.38l0.059-0.193c3.635-10.714 0.294-32.384-4.736-29.837l-84.736-67.443 45.094-120.115c1.113-2.866 1.758-6.183 1.758-9.651 0-15.111-12.248-27.362-27.358-27.366v0c-1.126 0 3.29 0.051-3.354 0.192-132.271 18.434-251.934 55.164-362.474 107.929l7.415-3.187c-67.507-20.16-139.443-20.16-200.73 0-118.592-52.634-238.31-87.962-361.293-104.742-1.114-0.154-2.227-0.218 2.765-0.192-15.078 0.038-23.462 4.48-28.544 11.866s-6.234 16.794 3.968 25.165l38.003 120.102-81.062 67.443c-8.704-2.547-12.058 19.123-8.397 29.837 3.663 10.562 13.322 18.098 24.803 18.571l0.054 0.002c65.429 2.579 127.247 9.72 187.539 21.168l-7.84-1.238c-25.267 50.304-38.451 100.634-38.49 162.112 0 150.643 92.659 285.811 233.293 333.402 140.646 61.402 300.378 24.051 402.138-87.142 101.773-122.394 124.672-273.408 57.664-408.371zM999.974-15.27l-41.203 109.722c-34.798 4.319-65.644 10.526-95.636 18.793l4.641-1.091c-4.032 0.486-15.13 12.71-12.518 22.31 4.902 9.6 12.416 15.347 22.080 12.941 25.856-7.301 57.038-13.43 88.951-17.166l2.941-0.28 64.819 53.939c-64.092 3.674-123.621 11.435-181.718 23.146l8.162-1.373c-37.965-59.443-90.317-106.714-150.093-136.166 88.256-40.819 187.699-69.299 289.574-84.774zM70.285 183.898l64.819-53.939c34.854 4.017 66.036 10.146 96.302 18.483l-4.411-1.036c1.333 0.348 2.863 0.548 4.44 0.548 8.391 0 15.461-5.654 17.609-13.36l0.031-0.129c2.598-9.6-2.957-21.824-12.518-22.31-25.353-7.178-56.2-13.385-87.739-17.367l-3.256-0.335-41.216-109.722c110.743 17.132 210.294 46.708 303.631 87.801l-7.707-3.027c-64.154 29.453-116.621 76.723-150.669 136.166-63.040-11.213-115.84-18.509-179.315-21.773zM552.166 730.010c-181.811 0-329.178-147.149-329.178-328.691 0.218-181.453 147.456-328.486 329.178-328.691 181.798 0 329.178 147.149 329.178 328.691s-147.379 328.691-329.178 328.691zM820.992 473.92l-121.216-119.654 28.621-169.024c1.19-14.362-1.664-13.798-7.309-17.882-5.658-4.070-13.146-4.557-19.302-4.16l-149.619 82.522-149.645-82.522c-6.157-0.397-13.645 0.102-19.302 4.173s-8.512 3.507-7.347 17.869l28.659 169.024-121.267 119.654c-4.915 4.877-6.669 8.64-4.518 18.662 2.163 2.778 7.859 11.366 14.707 12.39l168.627 24.627 73.626 153.613c3.357 5.707 9.469 9.477 16.461 9.477s13.103-3.77 16.412-9.388l0.048-0.089 74.803-153.613 167.373-24.627c6.861-1.024 12.544-9.613 14.707-12.39 2.15-10.022 0.41-13.786-4.518-18.662zM628.621 494.874c-5.978 0.87-11.136 4.646-9.869 10.074l-66.586 128.55-62.682-128.589c1.395-5.427-7.795-9.203-13.773-10.086l-140.659-20.685 101.952-100.608c4.25-4.186 6.17-10.176 5.184-24.218l-24.026-133.517 125.402 66.739c2.497 1.343 5.463 2.132 8.614 2.132s6.118-0.789 8.713-2.18l-0.099 0.048 125.414-66.739-24.013 133.901c-0.986 13.709 0.947 19.686 5.184 23.872l113.293 100.608-152.051 20.698zM744.154 816.154c-2.509-6.029-8.038-14.746-10.714-11.123-10.291-0.845-16.73 1.818-20.698 6.989-2.362 3.043-3.787 6.916-3.787 11.123 0 2.522 0.512 4.924 1.438 7.109l-0.045-0.119 21.030 50.586c3.878 9.318 14.579 13.747 32.781 9.882 0.461-3.853 14.336-14.554 1.024-23.859l-21.030-50.586zM552.166 821.312c-0.004 0-0.008 0-0.013 0-10.088 0-18.266 8.178-18.266 18.266v0 91.302c0 10.095 8.184 18.278 18.278 18.278s18.278-8.184 18.278-18.278v0-91.302c0-10.086-8.179-18.266-18.278-18.266zM386.176 805.12c-4.186-9.216-6.566-0.243-8.973-0.243-0.007 0-0.016 0-0.025 0-7.562 0-14.049 4.601-16.814 11.157l-0.045 0.12-21.043 50.586c-0.882 2.067-1.395 4.471-1.395 6.996 0 7.566 4.607 14.057 11.169 16.819l0.12 0.045c16.909 3.776 19.904-0.627 23.782-9.882l21.146-50.586c1.869-4.467 1.869-9.51 0.013-13.978s-5.414-8.026-7.936-11.034zM228.877 698.317l-64.64 64.55c-3.311 3.3-5.359 7.865-5.359 12.909s2.048 9.608 5.358 12.908v0c3.31 3.3 7.878 5.34 12.922 5.34s9.611-2.040 12.922-5.34v0l64.653-64.55c6.938-7.155 6.835-18.56-0.218-25.6-3.311-3.305-7.882-5.348-12.93-5.348-4.939 0-9.421 1.956-12.714 5.136l0.005-0.005zM122.714 559.258l-50.675 21.018c-6.029 2.496-10.266 3.533-11.11 14.502-0.845 3.238 1.83 12.902 7.027 16.87 5.184 3.968 12.096 4.851 18.138-1.216l50.65-17.446c6.594-2.849 11.125-9.297 11.125-16.804 0-2.527-0.514-4.935-1.442-7.124l0.045 0.12c-2.834-6.666-9.327-11.256-16.893-11.256-2.474 0-4.833 0.491-6.986 1.38l0.122-0.044zM131.558 401.318c0-10.086-8.192-26.534-18.304-26.534h-91.43c-10.099 0-18.291 16.448-18.291 26.534s8.192 18.253 18.291 18.253h91.43c10.112 0 18.304-8.166 18.304-18.253z" />
<glyph unicode="&#xe91c;" glyph-name="29" horiz-adv-x="1513" d="M995.817-59.927h-80.57c-0.069-0.001-0.151-0.001-0.233-0.001-17.727 0-32.107 14.331-32.186 32.040v0.007c0 17.734 14.522 18.572 32.419 18.572h80.5c233.821 1.862 442.275 190.813 446.906 416.908-65.264-88.214-168.941-144.781-285.83-144.781-0.288 0-0.577 0-0.865 0.001h0.045c-195.095 0-353.443 156.207-353.443 348.625 0 192.372 158.348 343.901 353.443 343.901 205.219 0 353.21-151.249 353.466-343.436l0.023-0.442v-162.257c0-286.301-229.935-508.881-513.676-509.137zM1156.003 895.837c-159.232 0-288.582-127.372-288.582-284.393 0-156.998 129.35-284.346 288.582-284.346 159.255 0 304.128 127.348 304.128 284.346 0 157.021-144.873 284.393-304.128 284.393zM193.233-58.508h-80.547c-2.839-0.070-32.442 14.289-32.442 32.047 0 17.734 29.603 25.297 32.442 25.297h80.477c233.263 7.052 424.844 183.273 446.767 408.576-65.276-88.106-168.893-144.594-285.705-144.594-0.275 0-0.55 0-0.825 0.001h0.042c-195.119 0-353.443 156.23-353.443 348.625 0 192.372 158.324 343.901 353.443 343.901 194.304 0 352.14-150.249 353.42-341.551l0.047-0.908v-162.281c0-281.041-229.958-508.881-513.676-509.114zM353.443 895.837c-159.255 0-288.605-127.372-288.605-284.393 0-156.998 129.35-284.346 288.605-284.346 165.306 0 288.605 127.348 288.605 284.346 0 157.021-123.299 284.393-288.605 284.393z" />
<glyph unicode="&#xe91d;" glyph-name="30" horiz-adv-x="1609" d="M1528.539 740.718l-724.114-724.114-723.968 724.114 206.848 96.402 517.12-406.674 563.346 406.674 160.768-96.402z" />
<glyph unicode="&#xe91e;" glyph-name="31" d="M511.99-63.969c-281.364 0-511.99 230.625-511.99 512s230.625 508.897 511.99 508.897c281.252 0.307 511.703-227.656 512-508.897 0-281.375-230.625-512-512-512zM511.99 919.071c-258.857 0-471.040-212.173-471.040-471.040s212.183-471.040 471.040-471.040c258.867 0 471.040 212.173 471.040 471.040-0.276 258.755-212.285 468.552-471.040 471.040zM612.27 427.93v-0.102l-139.612-90.286c-19.436-9.339-32.348 0.358-32.348 18.319v184.33c0 20.797 26.532 25.057 32.348 18.442l139.612-91.484c23.706-15.165 8.356-34.642 0-39.219z" />
<glyph unicode="&#xe91f;" glyph-name="32" horiz-adv-x="1166" d="M933.888 481.65h-141.796l-120.946-140.601c-9.33 10.126-23.353 7.31-35.556 12.373-11.925 5.051-20.139 16.656-20.139 30.18v0 100.352c-111.311 16.793-195.671 111.741-195.755 226.409v0.009c0 126.094 102.457 228.722 228.38 228.722h285.81c127.118 0 230.542-102.628 230.542-228.722 0-126.123-103.424-228.722-230.542-228.722zM933.888 865.28h-285.81c-89.941 0-150.585-64.825-150.585-154.908s60.644-163.385 150.585-163.385c18.034 0 32.626-23.324 32.626-32.683v-51.826l74.809 74.923c6.116 6.144 31.829 9.586 23.068 9.586h155.307c100.352 0 165.291 73.301 165.291 163.385s-64.939 154.908-165.291 154.908zM943.588 658.062c-23.431 0-42.425 18.994-42.425 42.425s18.994 42.425 42.425 42.425v0c23.431 0 42.425-18.994 42.425-42.425s-18.994-42.425-42.425-42.425v0zM789.077 656.754c-23.816 0-43.122 19.306-43.122 43.122s19.306 43.122 43.122 43.122v0c23.816 0 43.122-19.306 43.122-43.122s-19.306-43.122-43.122-43.122v0zM638.521 658.489c-23.285 0.016-42.155 18.896-42.155 42.183 0 0.030 0 0.060 0 0.090v-0.005c0 23.289 18.88 42.169 42.169 42.169s42.169-18.88 42.169-42.169v0c0-23.353-18.887-42.268-42.183-42.268zM291.442 459.236c41.899-87.666 147.257-192.228 236.373-234.581l83.058 55.438c5.101 3.446 11.388 5.5 18.155 5.5 3.68 0 7.219-0.608 10.52-1.728l-0.23 0.068 195.3-82.546c13.284 12.715 22.272 0.228 22.272-13.824v-130.674c0-54.073-43.719-98.048-97.422-98.048-180.452 0-365.824 81.664-508.587 224.028-142.933 142.535-224.882 327.794-224.882 508.331 0 53.817 43.918 92.729 97.877 92.729h130.503c14.023 0 26.51-4.124 38.884-17.465l57.316-195.584c3.186-13.938 1.792-20.11-3.812-28.473l-55.324-83.172zM227.243 480.626l56.377 84.708-52.736 158.094h-107.008c-18.29 0-32.626-14.165-32.626-32.228 0-342.869 324.75-667.022 668.217-667.022 0.010 0 0.022 0 0.033 0 17.752 0 32.142 14.391 32.142 32.142 0 0.2-0.002 0.4-0.005 0.599v-0.030 107.122l-157.867 52.821-84.594-56.462c-5.091-3.432-11.363-5.478-18.112-5.478-4.356 0-8.514 0.852-12.314 2.399l0.219-0.079c-54.556 21.874-115.854 64.853-172.629 121.116-57.145 56.604-100.551 117.732-122.254 172.032-1.475 3.591-2.331 7.759-2.331 12.128 0 6.759 2.050 13.040 5.563 18.254l-0.074-0.117z" />
<glyph unicode="&#xe920;" glyph-name="33" d="M1023.987 435.213h-499.2v-499.2h-25.6v499.2h-499.187v25.6h499.187v499.187h25.6v-499.187h499.2v-25.6z" />
<glyph unicode="&#xe921;" glyph-name="34" horiz-adv-x="967" d="M771.243 833.707h-19.115v59.904c0 29.582-20.082 48.754-48.754 48.754-28.729 0-48.811-19.172-48.811-48.754v-59.904h-317.554v59.904c0 29.582-19.115 48.754-15.019 48.754-63.431 0-82.546-19.172-82.546-48.754v-59.904h-44.032c-92.729 0-171.179-67.015-171.179-173.511v-502.613c0-92.615 78.45-170.894 171.179-170.894h575.829c92.786 0 171.236 78.279 171.236 170.894v502.613c0 106.496-78.45 173.511-171.236 173.511zM195.413 747.577h575.829c39.253 0 73.671-34.361 73.671-87.381v-53.988h-723.115v53.988c0 53.020 34.418 87.381 73.614 87.381zM771.243 84.992h-575.829c-39.196 0-73.614 34.418-73.614 28.501v395.435h722.148v-395.435c0.967 5.916-33.451-28.501-72.704-28.501z" />
<glyph unicode="&#xe922;" glyph-name="35" horiz-adv-x="967" d="M919.324 244.281c-113.152 181.248-273.067 227.271-282.795 224.37 67.36 49.613 110.582 128.615 110.592 217.712v0.002c0 148.878-104.277 237.227-270.108 237.227-148.935 0-270.052-88.348-270.052-237.227 0-89.259 43.577-168.562 110.535-217.714 8.761 2.901-169.643-43.122-274.603-224.37-6.997-12.117-6.997-56.832 0-39.196 87.097-150.471 249.572-259.356 434.119-259.356 184.491 0 347.022 108.772 442.311 259.356-1.138-17.636-1.138 27.079 0 39.196zM477.013 866.987c105.756 0 180.508-74.98 180.508-180.622 0-105.7-74.809-190.521-180.565-221.867-105.529 41.358-173.852 147.911-173.852 221.867 0 0 12.516 180.622 173.909 180.622zM144.498 223.289c39.196 83.001 167.481 184.092 332.516 184.092s285.412-104.334 337.806-182.841c-52.053-72.021-195.925-191.602-337.806-191.602 0.057 0-193.877-13.938-332.516 190.35z" />
<glyph unicode="&#xe923;" glyph-name="36" horiz-adv-x="750" d="M378.996 955.777c-203.29 0-368.682-161.57-368.682-364.84 0-252.263 329.939-622.603 343.99-638.248 6.105-6.77 14.906-11.007 24.697-11.007s18.593 4.237 24.671 10.977l0.026 0.030c14.051 15.645 343.99 385.985 343.99 638.248-0.011 203.269-165.392 364.84-368.693 364.84zM378.996 405.467c-102.273 0-185.492 83.197-185.492 185.471 0 102.263 83.218 185.471 185.492 185.471 102.284 0 185.492-83.208 185.492-185.471 0-102.273-83.208-185.471-185.492-185.471z" />
<glyph unicode="&#xe924;" glyph-name="37" horiz-adv-x="967" d="M755.428 306.005c-60.671-0.18-114.399-29.745-147.722-75.204l-0.36-0.515-230.514 153.316c14.564 38.684 14.564 81.294 0 107.634l230.514 165.604c53.476-72.306 151.666-100.75 231.595-53.76 59.24 30.982 98.975 92 98.975 162.299 0 20.532-3.39 40.272-9.64 58.692l0.379-1.286c-28.331 85.333-114.517 114.46-203.378 122.994-88.86-14.45-132.494-91.25-129.081-181.134 2.844-6.656 9.671-13.312 19.911-19.968l-290.304-164.807c-32.467 29.28-75.681 47.193-123.079 47.193-27.053 0-52.743-5.835-75.881-16.316l1.157 0.469c-23.893-29.468-109.113-95.118-109.113-207.588 0-32.54 85.22-98.247 109.113-139.947 66.332-17.18 143.872-4.892 197.803 43.634l290.304-164.864c-10.24-6.599-17.067-13.312-19.911-19.968 0-87.495 20.196-141.084 110.933-169.472 46.649-28.388 125.724-12.686 178.347 28.501 52.565 23.324 68.324 142.62 39.822 211.228-28.405 67.069-93.674 113.266-169.733 113.266-0.048 0-0.097 0-0.145 0h0.007zM755.428 856.348c37.205 0 70.713-22.357 84.935-56.604 25.486-34.247 6.372-73.728-19.911-99.954-26.283-44.715-65.82-34.076-100.181-19.911-5.177 14.222-56.718 3.641-56.718 84.764 0 50.688 41.131 91.705 91.876 91.705zM203.89 351.801c-37.205 0-70.713 22.357-38.343 56.718-60.814-12.857-52.964 73.671-26.681 99.897 16.635 16.628 39.613 26.912 64.992 26.912 12.696 0 24.792-2.574 35.792-7.228l-0.603 0.227c34.361-14.222 56.775-47.616 56.775-124.7 0-10.752-41.188-51.826-91.932-51.826zM755.428 30.777c-37.148 0-51.712 22.3-84.878 56.661-14.279 34.247-6.372 51.655 19.911 99.954 16.646 16.593 39.614 26.852 64.978 26.852 12.701 0 24.8-2.572 35.807-7.224l-0.604 0.227c34.361-14.222 56.718-83.513 56.718-84.764 0-50.688-41.131-91.705-91.932-91.705z" />
<glyph unicode="&#xe925;" glyph-name="38" horiz-adv-x="1638" d="M1398.374-3.891l-579.277 579.174-579.174-579.174-144.896 144.794 724.070 724.070 789.606-724.070-210.33-144.794z" />
<glyph unicode="&#xe926;" glyph-name="39" horiz-adv-x="1638" d="M1608.704 755.302l-789.606-788.582-724.070 788.582 144.896 144.794 579.174-579.277 579.277 579.277 210.33-144.794z" />
<glyph unicode="&#xe927;" glyph-name="40" horiz-adv-x="1073" d="M1037.897 558.251l-257.755-220.696 77.19-328.119c5.51-22.772-19.651-40.862-39.79-64.171l-292.376 209.53-292.279-209.53c-20.187 23.552-45.3 41.399-39.79 64.171l77.141 328.119-257.999 220.696c-6.68 15.506 29.208 44.422 15.409 46.47l339.968 28.721 132.974 310.321c9.118 10.825 78.214 10.825 49.201 0l142.629-310.321 330.313-28.721c23.552-2.048 33.256-31.305 15.165-46.47zM827.977 529.969l-206.946 17.457-48.079 188.904c-38.473 13.214-57.295 13.214-62.854 0l-80.945-188.904-206.946-17.457c-8.374-0.653-14.921-7.609-14.921-16.094 0-4.857 2.145-9.212 5.54-12.171l0.019-0.016 157.062-134.388-47.006-199.729c-3.316-13.848 11.947-24.674 24.235-17.408l177.932 105.911 177.981-105.911c12.239-7.412 27.55 3.56 24.235 17.408l-47.006 199.729 156.916 134.388c11.020 9.216 5.071 27.014-9.216 28.282z" />
<glyph unicode="&#xe928;" glyph-name="41" d="M867.489-63.985h-710.992c-86.221 0-156.496 70.276-156.496 156.496v401.584c0 34.026 14.204 66.487 39.205 89.556l198.495 183.223v30.574c0 28.965 23.888 52.853 52.868 52.853h48.786l103.746 83.866c16.735 17.247 42.818 25.834 68.886 25.834 26.083 0 52.151-8.587 72.719-25.834l99.928-83.866h48.786c28.965 0 52.853-23.888 52.853-52.853v-30.574l198.51-183.223c28.687-23.069 39.205-55.53 39.205-89.556v-401.584c0-86.221-70.276-156.496-156.496-156.496zM156.496-27.414h710.992c21.636 0 41.589-4.403 59.070 16.077l-314.719 286.281-36.425-10.869c-18.074-11.154-39.98-17.762-63.429-17.762s-45.356 6.609-63.958 18.065l0.528-0.303-36.498 10.138-314.646-285.55c17.496-20.48 37.449-16.077 59.085-16.077zM237.7 717.078l-173.641-160.271c4.111-4.242-8.631-8.967-12.142-14l185.783-120.847v295.117zM38.064 508.357c-0.857-4.243-1.401-9.169-1.505-14.203l-0.001-0.089v-401.554c0-31.393 12.259-59.597 31.861-80.925l310.93 293.639-341.285 203.132zM561.211 906.094c-13.107 10.986-31.173 16.486-49.225 16.486s-36.103-5.5-49.211-16.486l-54.784-55.793h219.707l-66.487 55.793zM749.714 797.447c0 4.593-1.799 8.645-4.71 11.571-2.938 2.912-6.983 4.711-11.449 4.711-0.043 0-0.086 0-0.129-0.001h-442.858c-4.608 0-8.645-1.799-2.092-4.71-12.405-2.926-14.204-6.978-14.204-11.571v-387.013l193.141-114.922h0.366c6.832-4.155 14.102-7.27 21.577-17.642 6.841 1.971 14.698 3.105 22.821 3.105s15.98-1.134 23.423-3.251l-0.602 0.147c18.403 10.372 14.746 13.488 27.765 17.642l186.953 115.068v386.867zM959.985 556.807l-173.714 160.271v-293.8l185.651 119.662c-3.601 5.2-7.529 9.741-11.89 13.824l-0.047 0.043zM987.414 494.095c0 4.959-0.731 9.83-1.565 14.629l-333.853-203.337 303.572-293.8c19.588 21.328 31.846 49.547 31.846 80.925v401.584zM431.499 423c-20.392 21.402-31.276 52.517-28.862 88.869 2.194 32.812 12.010 68.827 29.433 98.421 9.713 0.965 15.74 23.274 25.922 32.388 14.863 13.327 32.958 22.104 53.994 22.104 35.43 0 62.493-24.898 79.931-54.506 17.423-29.594 27.224-65.609 29.418-98.421 2.136-31.788 3.013-59.611-21.65-80.399l-1.39-1.712c-0.688-0.878-1.375-1.77-2.092-2.619-1.2-1.404-2.428-2.779-3.701-4.125-20.392-21.372-49.445-32.49-80.501-32.49-31.071 0-60.109 11.118-80.501 32.49zM511.985 628.209c-18.154 0-34.684-13.078-48.435-36.425-3.789-6.437-7.139-13.605-10.138-21.065l114.176 25.922c-23.596 20.027-38.868 31.568-55.603 31.568zM573.264 562.922l-131.657-32.856c-1.243-7.036 3.54-14-0.848-20.641-2.004-5.647 0-10.723 3.657-15.726l138.489 31.876c-2.321 14.184-5.673 26.749-10.106 38.792l0.465-1.445zM584.192 488.433l-134.144-29.872c2.37-3.76 4.974-7.241 7.929-10.357 12.859-13.473 31.481-21.138 54.009-21.138 22.513 0 41.209 7.665 54.067 21.138 9.348 9.816 15.916 23.025 18.139 40.229z" />
<glyph unicode="&#xe929;" glyph-name="42" horiz-adv-x="967" d="M15.474-42.268v832c0 40.846 0.341 59.221 0.341 59.221h178.176v89.088h89.088v-89.088h412.672v89.088h77.312v-89.088h178.176s0.341-18.318 0.341-59.221v-832h-936.107zM862.151 759.865h-89.088v-44.544h-77.312v44.544h-412.672v-44.544h-89.088v44.544h-89.088v-133.632h757.248v133.632zM862.151 537.145h-757.248v-514.105h757.248v514.105zM327.623 314.368h-133.632v133.689h133.632v-133.689zM327.623 136.192h-133.632v133.632h133.632v-133.632zM550.343 314.368h-133.632v133.689h133.632v-133.689zM550.343 136.192h-133.632v133.632h133.632v-133.632zM773.063 314.368h-133.632v133.689h133.632v-133.689zM773.063 136.192h-133.632v133.632h133.632v-133.632z" />
<glyph unicode="&#xe92a;" glyph-name="43" horiz-adv-x="605" d="M577.815 41.798l-65.862-65.815-472.064 472.064 472.064 472.064 65.862-65.815-406.249-406.249 406.249-406.249z" />
<glyph unicode="&#xe92b;" glyph-name="44" horiz-adv-x="605" d="M565.155 448.047l-472.111-472.064-65.815 65.815 406.249 406.249-406.249 406.249 65.815 65.815 472.111-472.064z" />
<glyph unicode="&#xe92c;" glyph-name="45" d="M988.314-63.949h-389.478c-19.709 0-35.686 15.977-35.686 35.686v0 389.427c0 19.712 15.974 35.686 35.686 35.686h389.478c19.712 0 35.635-15.974 35.635-35.686v-389.427c0-0.015 0-0.033 0-0.051 0-19.681-15.954-35.635-35.635-35.635 0 0 0 0 0 0v0zM947.149 297.165c0 12.646-10.24 22.886 1.587 22.886h-285.901c-12.646 0-22.886-10.24-22.886-22.886v-285.389c0 11.315 10.24 1.075 22.886 1.075h285.901c-11.827 0-1.587 10.24-1.587-1.075v285.389zM988.314 499.251h-389.478c-19.709 0-35.686 15.977-35.686 35.686v0 389.427c0 19.712 15.974 35.635 35.686 35.635h389.478c19.712 0 35.635-15.923 35.635-35.635v-389.427c0-0.015 0-0.033 0-0.051 0-19.681-15.954-35.635-35.635-35.635 0 0 0 0 0 0v0zM947.149 860.365c0 12.646-10.24 22.886 1.587 22.886h-285.901c-12.646 0-22.886-10.24-22.886-22.886v-285.389c0 11.315 10.24 1.075 22.886 1.075h285.901c-11.827 0-1.587 10.24-1.587-1.075v285.389zM425.114-63.949h-389.478c0 0 0 0 0 0-19.681 0-35.635 15.954-35.635 35.635 0 0.018 0 0.036 0 0.054v-0.003 389.427c0 19.712 15.923 35.686 35.635 35.686h389.478c19.712 0 35.635-15.974 35.635-35.686v-389.427c0-0.015 0-0.033 0-0.051 0-19.681-15.954-35.635-35.635-35.635 0 0 0 0 0 0v0zM383.949 297.165c0 12.646-10.24 22.886 1.587 22.886h-285.901c-12.646 0-22.886-10.24-22.886-22.886v-285.389c0 11.315 10.24 1.075 22.886 1.075h285.901c-11.827 0-1.587 10.24-1.587-1.075v285.389zM425.114 499.251h-389.478c0 0 0 0 0 0-19.681 0-35.635 15.954-35.635 35.635 0 0.018 0 0.036 0 0.054v-0.003 389.427c0 19.712 15.923 35.635 35.635 35.635h389.478c19.712 0 35.635-15.923 35.635-35.635v-389.427c0-0.015 0-0.033 0-0.051 0-19.681-15.954-35.635-35.635-35.635 0 0 0 0 0 0v0zM383.949 860.365c0 12.646-10.24 22.886 1.587 22.886h-285.901c-12.646 0-22.886-10.24-22.886-22.886v-285.389c0 11.315 10.24 1.075 22.886 1.075h285.901c-11.827 0-1.587 10.24-1.587-1.075v285.389z" />
<glyph unicode="&#xe92d;" glyph-name="46" d="M0-48.256v86.656h1023.936v-86.656h-1023.936zM0 486.4h1023.936v-86.656h-1023.936v86.656zM0 934.4h1023.936v-86.656h-1023.936v86.656z" />
<glyph unicode="&#xe92e;" glyph-name="47" d="M873.418 230.804h-582.548c-57.991 233.526-115.389 441.506-173.218 649.378h-82.405v71.949h137.108l49.96-180.17h798.019l-146.917-541.157zM345.465 328.408h473.627l105.903 371.658h-682.631l103.101-371.658zM414.882 197.821c69.147 0 142.929-56.805 142.929-125.898s-73.782-125.844-142.929-125.844c-69.413 0.274-125.617 56.44-125.952 125.812v0.032c0.335 69.415 56.532 125.594 125.923 125.898h0.029zM414.882 18.028c30.235 0 54.003 5.282 54.003 53.895 0.001 0.145 0.002 0.316 0.002 0.488 0 29.527-23.936 53.464-53.464 53.464-0.19 0-0.38-0.001-0.57-0.003h0.029c-0.177 0.002-0.387 0.003-0.596 0.003-29.468 0-53.356-23.888-53.356-53.356 0-0.21 0.001-0.419 0.004-0.628v0.032c0-48.613 23.714-53.895 53.949-53.895zM738.735 197.821c69.147 0 147.294-56.805 147.294-125.898s-78.147-125.844-147.294-125.844c-69.413 0.274-125.617 56.44-125.952 125.812v0.032c0.335 69.415 56.532 125.594 125.923 125.898h0.029zM738.735 18.028c30.235 0 54.003 5.282 54.003 53.895 0.001 0.145 0.002 0.316 0.002 0.488 0 29.527-23.936 53.464-53.464 53.464-0.19 0-0.38-0.001-0.57-0.003h0.029c-0.177 0.002-0.387 0.003-0.596 0.003-29.468 0-53.356-23.888-53.356-53.356 0-0.21 0.001-0.419 0.004-0.628v0.032c0-48.613 23.714-53.895 53.949-53.895z" />
<glyph unicode="&#xe92f;" glyph-name="48" horiz-adv-x="1216" d="M607.232-16.384c-9.6 0-19.136 3.52 13.568-41.216l-469.824 453.184c-62.656 58.432-97.152 136.512-97.152 219.712 0 33.664 34.496 161.28 97.152 219.712 114.432 107.072 334.144 107.008 415.040 0l41.216-38.4 41.152 38.4c114.432 107.072 300.8 107.072 415.168 0 62.656-58.496 97.088-186.048 97.088-219.712 0-83.2-34.432-161.28-97.088-219.712l-429.632-453.184c-7.488 44.736-17.024 41.216-26.688 41.216zM358.528 835.392c-0.44 0.003-0.961 0.005-1.482 0.005-58.929 0-112.574-22.626-152.72-59.665l0.154 0.141c-46.080-43.136-26.56-100.032-26.56-160.448 0-60.48-19.52-117.44 26.56-160.512l402.816-376.384 402.944 376.384c46.080 43.072 71.36 100.032 71.36 160.512 0 60.416-25.28 117.312-71.36 160.448-85.056 79.424-223.232 79.424-308.288 0l-67.84-63.424c-15.104-64.768-38.272-64.768-11.392 0l-103.68 63.424c-48.896 39.68-104.704 59.52-160.512 59.52z" />
<glyph unicode="&#xe930;" glyph-name="49" horiz-adv-x="1103" d="M945.152-63.842v945.231l126.346-19.377 1.575-925.223-127.921-0.63zM630.075-63.842v1015.966h121.698l-5.908-1015.966h-115.791zM314.998 645.159h119.887v-708.214h-96.177l-23.71 708.214zM39.385 881.388h81.605l1.497-944.443h-83.102v944.443z" />
<glyph unicode="&#xe931;" glyph-name="50" d="M461.704 936.689c241.604 0 438.152-196.608 438.152-438.152 0-104.568-36.804-200.584-98.123-276.058l183.477-183.416-64.090-64.090-183.477 183.416c-74.454-61.056-170.669-98.063-275.527-98.063-0.145 0-0.289 0-0.433 0h0.022c-241.604 0-438.212 196.548-438.212 438.212 0 241.544 196.608 438.152 438.212 438.152zM461.704 150.92c191.849 0.274 347.292 155.759 347.497 347.598v0.020c-0.24 191.809-155.684 347.232-347.478 347.437h-0.020c-191.826-0.206-347.284-155.621-347.558-347.411v-0.026c0.24-191.867 155.696-347.344 347.532-347.618h0.026z" />
<glyph unicode="&#xe932;" glyph-name="51" horiz-adv-x="1097" d="M580.754 887.077l124.123-289.573 317.221-26.843c21.943-1.902 31.013-29.184 14.117-43.301l-240.494-205.97 72.046-306.176c5.12-21.211-18.359-38.107-37.157-26.697l-272.823 121.563-272.75-121.563c-18.798-11.118-42.277 5.486-37.157 26.697l72.046 306.176-186.807 205.97c-70.583 14.482-61.513 41.399-39.57 43.301l317.221 26.843 124.123 289.573c3.862 9.031 12.671 15.243 22.93 15.243s19.068-6.213 22.869-15.081l0.062-0.162z" />
<glyph unicode="&#xe933;" glyph-name="52" horiz-adv-x="585" d="M183.808 29.257c-28.891-29.184-80.823-48.933-110.665-19.602-28.891 28.306-28.891 117.979 0 146.286l219.429 219.429c-0.512 0 41.033 35.913 41.033 73.362 0 35.84-41.033 72.923-41.033 72.923l-219.429 219.355c-28.891 29.403-28.891 117.979 0 146.286 29.842 29.403 81.847 5.851 110.665-23.625l377.271-365.202c82.578-28.306 82.578-75.557 0-103.79l-377.271-365.422z" />
<glyph unicode="&#xe934;" glyph-name="53" horiz-adv-x="585" d="M401.262 29.257c28.891-29.184 80.823-48.933 110.665-19.602 28.891 28.306 28.891 117.979 0 146.286l-219.429 219.429c43.959 0-41.033 35.913-41.033 73.362 0 35.84 41.033 72.923 41.033 72.923l219.429 219.355c28.891 29.403 28.891 117.979 0 146.286-29.842 29.403-81.847 5.851-110.665-23.625l-377.271-365.202c34.523-28.306 34.523-75.557 0-103.79l377.271-365.422z" />
<glyph unicode="&#xe935;" glyph-name="54" d="M977.408 86.016l-103.424-103.424-362.057 362.057-329.070-362.057-136.411 103.424 362.057 362.057-362.057 329.801 136.411 135.68 329.070-362.057 362.057 362.057 103.424-135.68-362.057-329.801 362.057-362.057z" />
<glyph unicode="&#xe936;" glyph-name="55" d="M1023.898 345.702h-409.6v-409.6h-204.8v409.6h-409.498v204.8h409.498v409.498h204.8v-409.498h409.6v-204.8z" />
<glyph unicode="&#xe937;" glyph-name="56" horiz-adv-x="5120" d="M0 960h5119.488v-1023.488h-5119.488v1023.488z" />
<glyph unicode="&#xe938;" glyph-name="57" horiz-adv-x="1004" d="M996.472-41.151c-4.036-5.823 6.847-9.296-17.789-9.296h-952.34c-11.952 0.032-21.628 9.728-21.628 21.685 0 2.704 0.495 5.292 1.399 7.679l-0.050-0.149 129.867 346.152c3.192 8.433 11.264 14.035 20.279 14.035h198.556l-74.611 131.694c-12.147 21.424-29.596 57.404-35.8 80.213-3.895 1.988-20.681 49.895-20.681 102.862 0 160.427 123.703 290.977 283.909 290.977 150.086 0 283.708-130.55 283.708-290.977 0-52.927-10.642-100.794-18.673-102.802-17.95-22.849-35.378-58.85-47.526-80.274l-74.732-131.694h198.455c9.035 0 17.107-5.602 20.259-14.035l129.867-346.152c2.49-6.626 1.586-14.075-2.47-19.918zM687.425 491.992c11.204 19.717 27.869 54.152 45.437 75.174 1.205 0.402 7.73 42.285 7.73 86.558 0 136.573-106.797 247.708-233.010 247.708-136.333 0-243.15-111.134-243.15-247.728 0-44.574 22.689-86.116 19.075-86.538 6.425-21.002 23.11-55.477 34.274-75.194l182.252-321.496c0.944-1.646 1.787-2.791 7.549-3.554 6.827 0.763-3.474 1.928-2.55 3.594l89.249 157.475c0.1 0.141 0.241 0.281 0.321 0.422l92.823 163.579zM833.817 280.144h-207.992l-78.286-130.972-26.202-37.627c-7.69-13.553-29.977-13.553-21.584 0l-32.125 37.527-0.602 0.080-87.743 130.992h-208.073l-113.624-287.322h889.876l-113.644 287.322zM351.011 663.462c0 83.506 67.986 151.432 156.572 151.432 78.467 0 146.452-67.925 146.452-151.432s-67.986-151.432-146.452-151.432c-88.586 0-156.572 67.925-156.572 151.432zM610.746 663.462c0 59.633-48.55 108.163-103.163 108.163s-113.283-48.53-113.283-108.163c0-59.653 58.669-108.183 113.283-108.183s103.163 48.53 103.163 108.183z" />
<glyph unicode="&#xe939;" glyph-name="58" horiz-adv-x="924" d="M906.039 165.095c0-5.301-12.951-18.231-28.933-18.231-15.962 0-21.283 14.436-21.283 30.399v295.434l-361.091-262.626c-5.080-3.694-26.845-16.404-22.889-16.404-15.922 0-37.687 12.71-42.767 16.404l-361.070 279.030v-459.555c0-10.059 6.345-32.828 16.404-32.828h787.817c15.962 0 46.562-0.462 46.562-16.424 0-15.942-30.579-32.808-46.562-32.808h-787.817c-41.944 0-65.656 41.683-65.656 83.587v512.984l0.040 1.365-0.040 1.144v44.614c0 10.22 28.431 40.538 49.252 62.042l377.334 290.414c4.715 3.481 10.642 5.572 17.057 5.572s12.342-2.091 17.136-5.628l-0.079 0.056 392.774-324.166c20.821 2.168 33.812-18.071 33.812-28.291v-44.614l-0.040-1.144 0.040-1.365v-378.96zM737.902 539.979c-15.961 0-28.901 12.933-28.913 28.892v0.001c0 15.962 15.962 18.713 31.945 18.713h114.889c0 16.725-383.98 308.766-383.98 308.766s-403.837-281.801-403.837-308.766v-49.232l403.837-295.454 400.384 295.454-134.325 1.626zM511.137 587.585h114.909c15.962 0 26.062-2.751 26.062-18.713s-12.951-28.893-22.247-28.893h-119.447c-0.006 0-0.013 0-0.020 0-15.961 0-28.901 12.933-28.913 28.892v0.001c0 15.962 13.693 18.713 29.656 18.713z" />
<glyph unicode="&#xe93a;" glyph-name="59" horiz-adv-x="1202" d="M1063.424 453.521h-296.693l-59.704-59.704c-4.385-4.385-10.24-6.701-9.372-6.701-9.773 0-12.755 0.557-15.583 1.736-8.548 3.539-3.117 11.887-3.117 21.148v43.52h-64.467c-64.477 0.051-116.736 52.287-116.825 116.75v251.845c0.089 64.476 52.345 116.717 116.819 116.781h448.941c64.378 0 120.409-52.38 120.409-116.781v-251.837c0-64.401-56.031-116.758-120.409-116.758zM1134.414 822.116c0 39.135-31.855 59.971-70.99 59.971h-448.935c-39.157 0-71.012-20.836-71.012-59.971v-251.837c0.051-39.194 31.816-70.952 71.009-70.99h83.17c5.832 0 4.541-5.142 4.541-17.786v-41.294l38.867 52.38c4.296 4.296 6.478 6.055 12.555 6.055l309.805 0.646c39.186 0.051 70.939 31.804 70.99 70.985v251.842zM1065.183 660.636h-113.998c-0.301-0.014-0.655-0.022-1.010-0.022-12.651 0-22.906 10.256-22.906 22.906s10.256 22.906 22.906 22.906c0.355 0 0.708-0.008 1.059-0.024l-0.050 0.002h113.998c-4.408 0 5.855-10.24 5.855-22.884s-10.262-22.884-5.855-22.884zM1065.183 752.217h-113.998c-0.301-0.014-0.655-0.022-1.010-0.022-12.651 0-22.906 10.256-22.906 22.906s10.256 22.906 22.906 22.906c0.355 0 0.708-0.008 1.059-0.024l-0.050 0.002h113.998c-4.408 0 5.855-10.24 5.855-22.884s-10.262-22.884-5.855-22.884zM676.797 306.71l94.564-94.52c26.067-26.067 38.979-62.063 35.439-104.559 13.067-30.898-23.151-63.733-53.76-99.951l-3.161 13.49-0.045-0.045-26.847-18.031-38.378-25.133c-32.879-18.81-69.409-28.049-96.924-28.049-63.955 0-105.071 21.215-159.855 62.353l-95.699 114.087c-27.381-0.467-27.381 23.441 0 32.39-9.461 8.927 5.031 8.927 13.98 0l114.109-114.087c56.52-56.498 145.675-74.151 211.99-28.739l29.162 27.826-203.731 201.461-15.004-8.904c-9.465-7.019-21.374-11.235-34.268-11.235-15.874 0-30.255 6.39-40.711 16.738l-108.049 108.005c-19.99 19.99-22.372 39.201-5.498 66.137l13.846 24.264-205.69 212.703-20.391-38.667c-44.633-66.293-23.775-155.403 20.525-222.119l114.131-103.869c4.148-4.139 6.714-9.862 6.714-16.184s-2.566-12.045-6.714-16.183v0c-8.949-15.36-23.441-15.36-32.39 0l-114.131 114.065c-50.643 71.947-57.077 185.433-26.134 269.846l34.326 32.59 0.067 1.113 2.783 21.549c20.591 30.586 61.863 50.154 90.157 53.715 36.708 3.539 72.726-9.35 98.794-51.445l94.564-78.514c42.785-42.741 47.839-111.616 11.776-160.189l-45.457-61.173c-1.428-1.926-2.286-4.349-2.286-6.972 0-3.238 1.307-6.171 3.422-8.299l108.053-107.986c4.074-4.096 10.641-7.168 15.271-1.135l61.195 45.434c48.573 36.063 117.471 30.987 160.256-11.776zM753.308 70.122c-4.319 12.511 6.144 29.741 7.88 47.727 2.226 23.018-5.877 45.613-22.239 52.335l-94.564 104.159c-14.011 13.872-33.292 22.443-54.576 22.443-17.292 0-33.263-5.658-46.163-15.223l0.209 0.148-13.067-5.899 222.52-205.69zM332.154 475.96l7.413 9.973c9.404 12.682 15.054 28.64 15.054 45.918 0 21.281-8.571 40.561-22.45 54.574l-94.558 94.536c-13.918 13.956-33.165 22.59-54.429 22.59-2.665 0-5.298-0.136-7.893-0.4l0.326 0.027c-5.766-1.781-35.194-9.973-47.816-22.951l204.355-204.266zM265.127 230.2c6.010 0 11.932-2.449 16.184-23.73 4.274 12.755 6.723 6.856 6.723 0.846 0-22.662-2.471-11.932-6.723-16.206-4.153-4.123-9.868-6.678-16.179-6.701h-0.004c-6.033 0-11.932 2.471-16.206 6.701-4.274 4.274-6.701-6.456-6.701 16.206 0 6.010 2.426 11.91 6.701-0.846 4.274 21.281 10.151 23.73 16.206 23.73z" />
</font>
</defs>
</svg>
