<?xml version="1.0" standalone="no"?>
<!DOCTYPE svg PUBLIC "-//W3C//DTD SVG 1.1//EN" "http://www.w3.org/Graphics/SVG/1.1/DTD/svg11.dtd" >
<!--
2021-1-1: Created with FontForge (http://fontforge.org)
-->
<svg xmlns="http://www.w3.org/2000/svg" xmlns:xlink="http://www.w3.org/1999/xlink" version="1.1">
<metadata>
Created by FontForge 20170731 at Fri Jan  1 09:41:16 2021
 By root

</metadata>
<defs>
<font id="Flaticon" horiz-adv-x="512" >
  <font-face 
    font-family="Flaticon"
    font-weight="400"
    font-stretch="normal"
    units-per-em="512"
    panose-1="2 0 5 3 0 0 0 0 0 0"
    ascent="448"
    descent="-64"
    bbox="-0.012207 -64.002 513.707 448.001"
    underline-thickness="25.6"
    underline-position="-51.2"
    unicode-range="U+0020-F197"
  />
    <missing-glyph />
    <glyph glyph-name="space" unicode=" " horiz-adv-x="200" 
 />
    <glyph glyph-name="070-big-envelope" unicode="&#xf145;" 
d="M512 30.1172c0 -5.99414 -2.30762 -11.4453 -6.05664 -15.5635c-0.0576172 -0.0683594 -0.121094 -0.130859 -0.179688 -0.198242c-4.2334 -4.54297 -10.2471 -7.40527 -16.9307 -7.40527h-465.666c-6.69141 0 -12.7129 2.86914 -16.9453 7.42188
c-0.0537109 0.0605469 -0.111328 0.117188 -0.162109 0.178711c-3.75098 4.11719 -6.05957 9.57129 -6.05957 15.5664v323.766c0 5.99219 2.30664 11.4424 6.05371 15.5596c0.0634766 0.0742188 0.134766 0.145508 0.199219 0.219727
c4.23145 4.53223 10.2393 7.3877 16.9141 7.3877h465.666c6.68359 0 12.6973 -2.8623 16.9307 -7.40527c0.0585938 -0.0673828 0.12207 -0.130859 0.179688 -0.198242c3.74902 -4.11816 6.05664 -9.56934 6.05664 -15.5635v-323.766zM113.566 124.746
c4.61426 -4.43066 4.76367 -11.7646 0.333008 -16.3779l-75.1348 -78.251h434.471l-139.379 145.157l-53.4551 -55.6729c-6.47363 -6.74023 -15.1387 -10.4541 -24.4014 -10.4541s-17.9277 3.71289 -24.4014 10.4541l-53.4551 55.6729l-36.873 -38.4023
c-2.27539 -2.36914 -5.31445 -3.56055 -8.35742 -3.56055c-2.88574 0 -5.77637 1.07227 -8.02051 3.22754c-4.61523 4.43164 -4.76465 11.7646 -0.333984 16.3789l37.5254 39.082l-138.917 144.677v-289.354l74.0215 77.0889
c4.43066 4.61523 11.7646 4.76465 16.3779 0.333984zM263.69 135.647l209.544 218.235h-434.47l209.545 -218.235c2.06445 -2.14844 4.79492 -3.33301 7.69043 -3.33301s5.62695 1.18457 7.69043 3.33301zM349.916 192l138.919 -144.681l-0.00195312 289.357z" />
    <glyph glyph-name="006-money-bag" unicode="&#xf105;" 
d="M273.244 126.643c24.6953 0 44.8135 -20.1182 44.8135 -44.8135c0 -24.4814 -19.6924 -44.4932 -44.1748 -44.8125h-0.319336h-2.12891v-18.2021c0 -7.02539 -5.74805 -12.7734 -12.7734 -12.7734s-12.7734 5.74805 -12.7734 12.7734v18.2021h-25.1211
c-7.02539 0 -12.7734 5.74805 -12.7734 12.7734s5.74805 12.7734 12.7734 12.7734h52.4775c10.6445 0 19.2666 8.62109 19.2666 19.2656s-8.62207 19.2666 -19.2666 19.2666h-29.2725c-24.6953 0 -44.8135 20.1182 -44.8135 44.8135s20.1182 44.8135 44.8135 44.8135
h1.80957v17.7764c0 7.02539 5.74805 12.7734 12.7734 12.7734s12.7734 -5.74805 12.7734 -12.7734v-17.7764h24.1631c7.02539 0 12.7734 -5.74805 12.7734 -12.7734s-5.74805 -12.7734 -12.7734 -12.7734h-51.5195c-10.6445 0 -19.2666 -8.62207 -19.2666 -19.2666
s8.62207 -19.2666 19.2666 -19.2666h29.2725zM450.581 155.596c16.8184 -38.8525 25.334 -79.4082 25.334 -120.495c0 -54.6064 -44.4941 -99.1006 -99.0996 -99.1006h-241.631c-54.6055 0 -99.0996 44.4941 -99.0996 99.1006c0 41.0869 8.51562 81.6426 25.334 120.495
c13.4121 30.8691 32.04 60.7803 55.3516 88.7754c27.7812 33.3174 55.457 55.8838 69.9336 66.6348l-58.5449 88.4551c-3.29883 5.00293 -2.66016 11.709 1.49023 15.9668c19.9053 20.4375 40.2363 30.0176 64.0801 30.0176c18.8408 0 38.3203 -5.74805 63.6543 -15.0088
c1.91602 -0.745117 3.83203 -1.06445 6.06738 -1.06445c7.34473 0 16.3926 3.83203 25.9727 7.77051c12.1348 5.10938 26.0791 10.8574 41.3008 10.8574c16.6055 0 31.5078 -6.70605 45.5586 -20.4375c4.15137 -3.93848 5.00293 -10.1123 2.3418 -15.1152l-54.2871 -100.696
c14.3701 -10.5381 42.5781 -33.3174 70.8916 -67.3799c23.418 -27.9951 41.9395 -57.9062 55.3516 -88.7754zM155.409 404.783l55.6709 -84.0918h88.9883l51.0938 94.9492c-8.72852 6.17383 -15.6475 7.02539 -20.5439 7.02539
c-10.1123 0 -20.5439 -4.36426 -31.5078 -8.94141c-11.3896 -4.79004 -23.3115 -9.68652 -35.7656 -9.68652c-5.10938 0 -10.1123 0.851562 -14.7959 2.55469c-22.6729 8.40918 -39.7041 13.5186 -54.8193 13.5186c-14.1572 0 -25.9727 -4.68359 -38.3203 -15.3281z
M376.815 -38.4531c40.5547 0 73.5527 32.998 73.3398 73.5537c0 68.3369 -24.9082 132.949 -74.1914 192.346c-31.082 37.5752 -62.5898 60.9932 -72.2764 67.6992h-95.5879c-9.58008 -6.8125 -41.1943 -30.124 -72.2764 -67.6992
c-49.1768 -59.3965 -74.1914 -124.115 -74.1914 -192.346c0 -40.5557 32.998 -73.5537 73.5527 -73.5537h241.631z" />
    <glyph glyph-name="071-email-3" unicode="&#xf146;" 
d="M344.113 279.609c5.80762 0 10.5205 -4.70605 10.5205 -10.5215c0 -5.81445 -4.71387 -10.5205 -10.5205 -10.5205h-176.22c-5.81348 0 -10.5205 4.70605 -10.5205 10.5205c0 5.81543 4.71387 10.5215 10.5205 10.5215h176.22zM344.113 349.745
c5.80762 0 10.5205 -4.70605 10.5205 -10.5215c0 -5.81445 -4.71387 -10.5205 -10.5205 -10.5205h-176.22c-5.81348 0 -10.5205 4.70605 -10.5205 10.5205c0 5.81543 4.71387 10.5215 10.5205 10.5215h176.22zM330.086 209.472c5.80762 0 10.5215 -4.70605 10.5215 -10.5205
c0 -5.81543 -4.71484 -10.5215 -10.5215 -10.5215h-148.164c-5.80762 0 -10.5205 4.70605 -10.5205 10.5215c0 5.81445 4.71387 10.5205 10.5205 10.5205h148.164zM480.438 279.672c15.4365 0 28.0547 -12.626 28.0557 -28.0547v-287.562
c0 -15.4307 -12.6182 -28.0547 -28.0547 -28.0547h-448.878c-15.4229 0 -28.0547 12.625 -28.0547 28.0547v287.562c0 15.4307 12.6318 28.0547 28.0547 28.0547h42.083v140.273c0 15.4307 12.6318 28.0547 28.0557 28.0547h308.602
c15.4375 0 28.0557 -12.624 28.0547 -28.0547v-140.273h42.082zM438.357 258.63v-26.5752l32.4805 26.5752h-32.4805zM94.6846 419.945v-205.108l146.267 -119.668c3.7666 -3.10742 9.32812 -4.96582 15.0508 -4.95215c5.72168 -0.0126953 11.2988 1.84473 15.0508 4.95215
l146.264 119.674v205.103c0 3.80078 -3.2041 7.0127 -7.01367 7.0127h-308.603c-3.79492 0 -7.01562 -3.21191 -7.01562 -7.0127zM73.6445 258.631h-32.4805l32.4805 -26.5752v26.5752zM487.452 -26.2314v271.27l-203.082 -166.154
c-8.17773 -6.66309 -18.3555 -9.69238 -28.3701 -9.70703c-10.0146 0.0214844 -20.1777 3.04395 -28.3701 9.70703l-203.082 166.154v-271.276l111.056 137.188c3.6543 4.51562 10.2832 5.20996 14.793 1.55566c4.52344 -3.66113 5.21777 -10.2822 1.56348 -14.7988
l-113.875 -140.667h435.831l-113.874 140.667c-3.65527 4.51562 -2.95996 11.1445 1.56445 14.7988c4.5166 3.65527 11.1377 2.96094 14.792 -1.55566z" />
    <glyph glyph-name="130-double-check" unicode="&#xf181;" 
d="M473.074 327.271l38.9258 -38.9277l-242.222 -242.221l-60.1377 60.1367l-60.1377 -60.1367l-149.503 149.503l38.9258 38.9258l110.578 -110.577l21.2109 21.2109l-61.0469 61.0479l38.9258 38.9258l61.0469 -61.0469l153.766 153.765l38.9258 -38.9258
l-153.765 -153.765l21.2119 -21.2119z" />
    <glyph glyph-name="010-shopping-cart" unicode="&#xf109;" 
d="M164.961 147.996c-8.25391 -0.0195312 -14.9609 -6.73828 -14.9609 -14.9961c0 -8.26953 6.73047 -15 15 -15h272c8.28516 0 15 -6.71484 15 -15s-6.71484 -15 -15 -15h-272c-24.8125 0 -45 20.1875 -45 45c0 18.4648 11.1836 34.3594 27.125 41.2891
c-2.84375 12.793 -52.2578 235.16 -54.1562 243.711h-77.9688c-8.28516 0 -15 6.71484 -15 15s6.71484 15 15 15h90c7.03125 0 13.1172 -4.88281 14.6445 -11.7461l10.7227 -48.2539h366.633c4.70703 0 9.14062 -2.21094 11.9766 -5.96875
c2.83203 -3.75781 3.73828 -8.625 2.44531 -13.1523l-60 -210c-1.83984 -6.4375 -7.72656 -10.8789 -14.4219 -10.8789h-271.957c-0.0195312 0 -0.0390625 -0.00390625 -0.0585938 -0.00390625h-0.0234375zM477.113 358h-340.082l40 -180h248.652zM477.113 358zM150 43
c0 24.8125 20.1875 45 45 45s45 -20.1875 45 -45s-20.1875 -45 -45 -45s-45 20.1875 -45 45zM195 58c-8.26953 0 -15 -6.73047 -15 -15s6.73047 -15 15 -15s15 6.73047 15 15s-6.73047 15 -15 15zM195 58zM362 43c0 24.8125 20.1875 45 45 45s45 -20.1875 45 -45
s-20.1875 -45 -45 -45s-45 20.1875 -45 45zM407 58c-8.26953 0 -15 -6.73047 -15 -15s6.73047 -15 15 -15s15 6.73047 15 15s-6.73047 15 -15 15zM407 58z" />
    <glyph glyph-name="032-paper-plane" unicode="&#xf11f;" 
d="M0.0449219 191.941c-0.626953 10.5479 5.32617 20.1553 15.0381 24.541l479.332 195.075c4.38574 1.77441 9.29395 1.04395 12.9492 -1.98438c3.55078 -2.92383 5.32617 -7.72852 4.38574 -12.3232l-78.0088 -397.563
c-2.50586 -11.6963 -12.7402 -20.0508 -24.541 -20.0508c-5.11719 0 -10.0254 1.56641 -14.2021 4.49023l-93.9863 65.0605l-66.3135 -73.4141c-2.50586 -2.82031 -5.95215 -4.28223 -9.60742 -4.28223c-1.35742 0 -2.81934 0.208984 -4.17676 0.731445
c-4.9082 1.6709 -8.35449 6.16113 -8.66797 11.2783l-6.89258 129.284l-187.556 56.7051c-10.1299 3.02832 -17.126 11.9053 -17.7529 22.4521zM236.056 15.5596l43.7568 48.3516l-48.0381 33.208zM408.783 5.63867l68.8184 350.467l-239.875 -232.043zM451.285 366.339
l-424.506 -172.831l187.347 -56.6006z" />
    <glyph glyph-name="074-worldwide" unicode="&#xf149;" 
d="M256.091 447.946c141.356 -0.0195312 255.931 -114.63 255.909 -255.984c-0.0214844 -141.355 -114.63 -255.93 -255.985 -255.908c-32.9961 -0.0185547 -65.6846 6.3457 -96.2627 18.7441c-130.923 53.084 -194.023 202.251 -140.939 333.174l-1.2373 3.71094
l3.19043 1.05762c40.3174 94.1641 132.893 155.222 235.325 155.206zM456.852 62.9561c46.3916 71.8994 50.6211 163.167 11.0791 239.05l-47.1455 -15.7148c-1.31836 -0.442383 -2.72363 -0.554688 -4.0957 -0.324219l-51.1895 8.53125
c-2.3252 0.384766 -4.38867 1.7168 -5.69824 3.67676l-14.5039 21.7988h-43.0928l-20.0752 -20.0664l7.24316 -50.7461l52.6484 -22.5908l31.3447 7.83105c2.33984 0.589844 4.81934 0.162109 6.8252 -1.17676l25.5947 -17.0635
c2.37305 -1.58203 3.79688 -4.24609 3.79688 -7.09766v-32.1133l33.2734 -66.4521c0.575195 -1.18848 0.867188 -2.49316 0.852539 -3.81348v-30.5947zM421.664 363.877c-16.5029 15.9219 -35.2041 29.3936 -55.5322 40.0039l-29.5195 -14.7588
c-1.18457 -0.59082 -2.49023 -0.897461 -3.81348 -0.896484h-28.8535l-10.3066 -20.6123l13.9072 -4.63281l31.7197 7.92578c1.57227 0.400391 3.22559 0.333984 4.76074 -0.1875l25.0918 -8.35254l38.6729 -7.7373zM162.568 411.833
c-56.1621 -24.042 -101.056 -68.5771 -125.55 -124.544l12.874 -38.6221l35.4912 -23.667v14.6572l-14.5635 14.5635c-1.59961 1.59961 -2.5 3.76855 -2.5 6.03223v25.5938c0.00585938 4.24707 3.13281 7.84375 7.33789 8.43848l58.0146 8.28418l39.3555 23.6152
l24.5029 40.832c1.04883 1.74219 2.68652 3.05176 4.61523 3.69434l21.542 7.19141l4.03613 12.0723l-41.3447 6.89355c-1.19141 0.196289 -2.3291 0.644531 -3.33496 1.31348zM138.279 132.108c3.97266 -0.810547 6.82617 -4.30664 6.8252 -8.36133v-83.6768
l14.9814 -37.4707l10.6133 -3.51562v30.8164c0 2.68555 1.26465 5.21387 3.41309 6.8252l30.7129 23.0352v21.3291c0.00390625 2.26367 0.90625 4.43359 2.50879 6.03223l32.3008 32.2998l5.97168 29.9199h-23.7178c-2.99414 0.00195312 -5.76953 1.57129 -7.31152 4.13867
l-23.1123 38.5195h-54.8916c-3.2334 -0.000976562 -6.19043 1.82617 -7.63574 4.71777l-11.7646 23.5391l-31.7891 -31.7891v-20.0488l14.333 -28.5898zM112.634 0.956055c105.507 -79.1562 255.205 -57.793 334.36 47.7139l-17.8486 17.8564
c-1.59961 1.59961 -2.49902 3.76855 -2.49902 6.03223v32.1123l-33.2734 66.4521c-0.576172 1.18848 -0.868164 2.49316 -0.853516 3.81348v29.5625l-18.624 12.4385l-30.4658 -7.61816c-1.80664 -0.458984 -3.71582 -0.306641 -5.42676 0.43457l-59.7207 25.5947
c-2.74805 1.16309 -4.68945 3.67578 -5.11914 6.62891l-8.53125 59.7217c-0.380859 2.65918 0.513672 5.34375 2.41406 7.24316l25.5947 25.5947c1.59961 1.59961 3.76953 2.49902 6.03223 2.49902h51.1895c2.83691 -0.0136719 5.48145 -1.43652 7.05566 -3.7959
l15.0156 -22.5234l45.4473 -7.57617l41.9756 13.9922c-7.51855 12.1689 -16.1064 23.6436 -25.6631 34.2881l-19.418 -12.9512c-1.88086 -1.26074 -4.18945 -1.71484 -6.40723 -1.2627l-42.6582 8.53125c-0.348633 0.0625 -0.69043 0.154297 -1.02344 0.273438
l-23.2402 7.73828l-31.7197 -7.92578c-1.57227 -0.400391 -3.22559 -0.333984 -4.76074 0.1875l-25.5947 8.53125c-0.380859 0.126953 -0.751953 0.280273 -1.11133 0.459961c-4.2168 2.10156 -5.93066 7.22461 -3.82812 11.4414l17.0625 34.127
c1.45312 2.90527 4.42871 4.73535 7.67871 4.71777h32.1123l15.5879 7.78027c-52.2422 21.4121 -110.392 23.5752 -164.079 6.10059l8.67676 -5.78418l49.3799 -8.2334c0.428711 -0.0722656 0.852539 -0.176758 1.26562 -0.313477
c4.47363 -1.47852 6.90137 -6.30371 5.42383 -10.7773l-8.53223 -25.5947c-0.836914 -2.55273 -2.83984 -4.55469 -5.3916 -5.3916l-22.5996 -7.54199l-23.9746 -39.9541c-0.71875 -1.19629 -1.7207 -2.19824 -2.91699 -2.91699l-42.6582 -25.5947
c-0.974609 -0.585938 -2.05664 -0.97168 -3.18262 -1.13477l-52.4004 -7.48242v-14.666l14.5635 -14.5635c1.59961 -1.59961 2.5 -3.76855 2.5 -6.03125v-13.5312l11.0732 11.0312c1.92285 1.96387 4.68848 2.85742 7.39746 2.38867
c2.70996 -0.436523 5.04297 -2.15137 6.27051 -4.60645l14.6572 -29.4082h54.4482c2.99512 -0.000976562 5.76953 -1.57129 7.31152 -4.1377l23.1123 -38.5205h29.2969c0.560547 0 1.11816 -0.0556641 1.66699 -0.165039
c4.62109 -0.923828 7.61816 -5.41797 6.69434 -10.0391l-8.53125 -42.6572c-0.330078 -1.65137 -1.14062 -3.16895 -2.3291 -4.35938l-31.627 -31.627v-22.0625c0 -2.68555 -1.26465 -5.21387 -3.41211 -6.8252l-30.7139 -23.0352v-38.3926
c0 -4.71094 -3.82031 -8.53125 -8.53223 -8.53125c-0.901367 0.00488281 -1.79785 0.15332 -2.65332 0.443359l-25.5938 8.53223c-2.38281 0.791016 -4.2959 2.59277 -5.23047 4.92285l-17.0625 42.6572c-0.401367 1.00684 -0.607422 2.08203 -0.606445 3.16504v78.3281
l-35.832 7.1582c-2.58594 0.511719 -4.79102 2.19043 -5.97266 4.54785l-17.0625 34.126c-0.59082 1.18457 -0.897461 2.49023 -0.896484 3.81348v25.5947c0 2.2627 0.900391 4.43262 2.5 6.03223l9.7002 9.70801l-42.5293 28.3506
c-1.57617 1.05371 -2.75586 2.60352 -3.35352 4.40234l-7.08887 21.2607c-29.375 -96.1758 4.64355 -200.449 85.085 -260.798z" />
    <glyph glyph-name="097-play-button-1" unicode="&#xf160;" 
d="M477.606 319.945c34.1748 -59.1943 43.2559 -128.152 25.5645 -194.176c-17.6895 -66.0215 -60.0332 -121.201 -119.225 -155.377c-39.4287 -22.7637 -83.1904 -34.3926 -127.529 -34.3926c-22.2285 0 -44.5996 2.92188 -66.6455 8.83008
c-66.0215 17.6895 -121.203 60.0332 -155.378 119.225c-34.1748 59.1924 -43.2539 128.152 -25.5635 194.173c17.6895 66.0225 60.0312 121.202 119.225 155.379c59.1953 34.1768 128.153 43.2559 194.174 25.5635c66.0225 -17.6895 121.202 -60.0332 155.378 -119.225z
M477.429 132.667c15.8496 59.1475 7.71484 120.925 -22.9014 173.954c-30.6162 53.0303 -80.0518 90.9619 -139.197 106.81c-19.7432 5.29102 -39.792 7.90918 -59.7021 7.90918c-39.7246 0 -78.9238 -10.417 -114.249 -30.8115
c-53.0293 -30.6182 -90.9609 -80.0518 -106.81 -139.197c-15.8496 -59.1475 -7.7168 -120.926 22.8994 -173.954c30.6172 -53.0303 80.0508 -90.9619 139.198 -106.81c59.1465 -15.8467 120.924 -7.71484 173.952 22.9023c53.0303 30.6162 90.9619 80.0518 106.81 139.197z
M378.778 216.148c8.72949 -5.04004 13.9414 -14.0684 13.9414 -24.1484c0 -10.0811 -5.21094 -19.1094 -13.9404 -24.1514l-164.528 -94.9883c-4.36523 -2.51953 -9.1543 -3.78125 -13.9443 -3.78125c-4.78906 0 -9.5752 1.25879 -13.9404 3.78027
c-8.73242 5.04102 -13.9443 14.0684 -13.9443 24.1494v189.98c0 10.0811 5.21289 19.1094 13.9443 24.1494c8.73047 5.03809 19.1553 5.04004 27.8857 -0.000976562zM365.452 190.926c0.200195 0.116211 0.619141 0.358398 0.619141 1.07227
s-0.416992 0.955078 -0.618164 1.07129l-164.526 94.9893c-0.123047 0.0712891 -0.325195 0.188477 -0.604492 0.188477c-0.180664 0 -0.391602 -0.0478516 -0.632812 -0.188477c-0.618164 -0.356445 -0.618164 -0.838867 -0.618164 -1.07031v-189.98
c0 -0.231445 0 -0.713867 0.618164 -1.07129c0.615234 -0.357422 1.03418 -0.116211 1.23535 0zM413.303 313.56c4.50391 -5.81836 3.43848 -14.1875 -2.38086 -18.6914c-2.42578 -1.87988 -5.29688 -2.78906 -8.14551 -2.78906
c-3.98145 0 -7.91992 1.77637 -10.5459 5.16797c-27.4492 35.46 -68.7207 59.2881 -113.232 65.3691c-7.29102 0.99707 -12.3945 7.71484 -11.3994 15.0059c0.99707 7.29297 7.72363 12.3955 15.0068 11.3994c51.3711 -7.01953 99.0088 -34.5234 130.697 -75.4619z" />
    <glyph glyph-name="057-call-1" unicode="&#xf138;" 
d="M470.917 111.931c22.6523 0 41.083 -18.4307 41.084 -41.083v-93.7637c0 -22.6533 -18.4307 -41.084 -41.084 -41.084c-259.666 0 -470.917 211.249 -470.917 470.916c0 22.6533 18.4307 41.084 41.084 41.084h94.0264c22.6533 0 41.084 -18.4307 41.083 -41.085
c0 -31.3604 4.91699 -62.124 14.5977 -91.4443c4.70898 -15 0.77832 -30.9863 -10.1807 -41.9307l-42.1797 -56.0693c35.1523 -66.2627 76.2773 -107.375 143.041 -143.014l57.5693 43.459c8.72266 8.95898 26.292 13.4307 40.584 8.55566
c29.167 -9.63867 59.9453 -14.541 91.292 -14.541z" />
    <glyph glyph-name="098-padlock-1" unicode="&#xf161;" 
d="M256.001 171.327c28.0146 0 50.8086 -22.793 50.8105 -50.8105c0 -13.8975 -5.77832 -27.3359 -15.8564 -36.8906v-45.875c0 -19.2734 -15.6797 -34.9531 -34.9531 -34.9531s-34.9531 15.6797 -34.9531 34.9531v45.875
c-10.083 9.56055 -15.8574 22.9961 -15.8574 36.8906c0 28.0176 22.793 50.8105 50.8096 50.8105zM273.979 101.442c5.30273 5 8.22461 11.7744 8.22266 19.0742c0 14.4473 -11.7549 26.2021 -26.2021 26.2021s-26.2021 -11.7549 -26.2021 -26.2021
c0 -7.2998 2.92188 -14.0742 8.22949 -19.0771c4.84766 -4.57031 7.62988 -10.958 7.62988 -17.5273v-46.1611c0 -5.70508 4.64062 -10.3447 10.3447 -10.3447c5.70508 0 10.3447 4.63965 10.3447 10.3447v46.1611c0 6.57031 2.78223 12.959 7.63281 17.5303z
M404.979 238.124c20.3535 0 36.9111 -16.5586 36.9111 -36.9121v-228.3c0 -20.3535 -16.5576 -36.9111 -36.9111 -36.9111h-297.957c-20.3535 0 -36.9111 16.5576 -36.9111 36.9111v228.301c0 20.3525 16.5576 36.9111 36.9111 36.9111h36.9082v97.8037
c0 61.7969 50.2754 112.072 112.071 112.072c61.7939 0 112.07 -50.2754 112.07 -112.072v-97.8037h36.9072zM168.536 335.928v-97.8037h174.927v97.8037c0 48.2275 -39.2363 87.4639 -87.4629 87.4639c-48.2275 0 -87.4639 -39.2363 -87.4639 -87.4639zM417.283 -27.0889
v228.301c0 6.78516 -5.52051 12.3037 -12.3047 12.3037h-297.957c-6.78418 0 -12.3047 -5.51953 -12.3047 -12.3037v-228.301c0 -6.78516 5.52051 -12.3037 12.3047 -12.3037h297.957c6.78418 0 12.3047 5.51953 12.3047 12.3037v0z" />
    <glyph glyph-name="008-magnifying-glass" unicode="&#xf107;" 
d="M495 -18.2002c8 -7.89941 8 -20.8994 0 -28.7998c-8 -8 -20.9004 -8 -28.9004 0l-117.8 117.7c-35.5996 -29.2002 -81.0996 -46.7002 -130.8 -46.7002c-114.1 0 -206.5 92.5 -206.5 206.5s92.4004 206.5 206.5 206.5c114 0 206.5 -92.5 206.5 -206.5
c0 -49.7002 -17.5996 -95.2998 -46.7998 -130.9zM217.5 65.0996c91.2002 0 165.5 74.2002 165.5 165.4s-74.2998 165.5 -165.5 165.5c-91.2998 0 -165.5 -74.2998 -165.5 -165.5s74.2002 -165.4 165.5 -165.4z" />
    <glyph glyph-name="082-back-1" unicode="&#xf151;" 
d="M155.784 192.014l231.12 -231.228c5.68652 -5.6875 5.68652 -14.8076 0 -20.4941c-2.79004 -2.89746 -6.54492 -4.29199 -10.1934 -4.29199s-7.40332 1.50195 -10.1934 4.29199l-241.528 241.421c-5.68652 5.68652 -5.68652 14.8066 0 20.4941l241.528 241.528
c5.68652 5.68652 14.8076 5.68652 20.4941 0c5.68652 -5.6875 5.68652 -14.8076 0 -20.4941z" />
    <glyph glyph-name="065-close" unicode="&#xf140;" 
d="M340.479 191.984l158.394 -158.389c17.501 -17.4736 17.501 -45.8467 0 -63.3535l-21.1152 -21.1152c-17.4736 -17.501 -45.8467 -17.501 -63.3535 0l-158.389 158.394l-158.394 -158.394c-17.4736 -17.501 -45.8467 -17.501 -63.3477 0l-21.1162 21.1152
c-17.5059 17.4736 -17.5059 45.8467 0 63.3535l158.389 158.389l-158.421 158.421c-17.501 17.4736 -17.501 45.8467 0 63.3535l21.1484 21.1152c17.4736 17.501 45.8467 17.501 63.3477 0l158.394 -158.421l158.389 158.389c17.4736 17.5059 45.8467 17.5059 63.3535 0
l21.1152 -21.1162c17.501 -17.4736 17.501 -45.8467 0 -63.3477zM340.479 191.984z" />
    <glyph glyph-name="033-smartphone" unicode="&#xf120;" 
d="M298.667 422.4c4.70996 0 8.5332 -3.82324 8.5332 -8.5332s-3.82324 -8.5332 -8.5332 -8.5332h-85.333c-4.70996 0 -8.5332 3.82324 -8.5332 8.5332s3.82324 8.5332 8.5332 8.5332h85.333zM358.4 422.4c4.70996 0 8.53223 -3.82324 8.53223 -8.5332
s-3.82227 -8.5332 -8.53223 -8.5332h-8.5332c-4.70996 0 -8.5332 3.82324 -8.5332 8.5332s3.82324 8.5332 8.5332 8.5332h8.5332zM266.598 12.7998c12.9717 0 23.5352 -10.5635 23.5352 -23.543v-4.12207c0 -12.9785 -10.5635 -23.5352 -23.543 -23.5352h-21.1875
c-12.9717 0 -23.5352 10.5566 -23.5352 23.5352v4.12207c0 12.9795 10.5635 23.543 23.543 23.543h21.1875zM273.067 -14.8652v4.12207c0 3.57617 -2.90137 6.47754 -6.47754 6.47754h-21.1797c-3.57617 0 -6.47754 -2.90234 -6.47754 -6.47754v-4.12207
c0 -3.56641 2.90234 -6.46777 6.47754 -6.46777h21.1885c3.56738 0 6.46875 2.90137 6.46875 6.46777zM370.227 448c16.999 0 30.8408 -13.8408 30.8398 -30.8477v-450.313c0 -16.998 -13.8418 -30.8389 -30.8486 -30.8389h-228.437
c-17.0068 0 -30.8486 13.8408 -30.8486 30.8477v450.305c0 17.0068 13.8418 30.8477 30.8486 30.8477h228.445zM384 -33.1523h-0.000976562v450.305c0 7.59375 -6.17773 13.7803 -13.7812 13.7803h-228.437c-7.60352 0 -13.7812 -6.18555 -13.7812 -13.7803v-450.312
c0 -7.58594 6.17773 -13.7725 13.7812 -13.7725h228.445c7.5957 0 13.7734 6.18555 13.7734 13.7803zM392.533 396.8c4.71094 0 8.53418 -3.82324 8.53418 -8.5332v-358.399c0 -4.70996 -3.82324 -8.5332 -8.5332 -8.5332h-273.067
c-4.70996 0 -8.5332 3.82324 -8.5332 8.5332v358.399c0 4.70996 3.82324 8.5332 8.5332 8.5332h273.066zM384 38.4004v341.333h-256v-341.333h256z" />
    <glyph glyph-name="146-briefing" unicode="&#xf190;" 
d="M290.941 320.73l24.5977 -24.6016l51.7578 51.7617c-13.6523 9.89453 -30.1094 15.2773 -47.1367 15.2773c-44.3281 0 -80.3945 -36.0664 -80.3945 -80.3945s36.0664 -80.3945 80.3945 -80.3945c8.16406 0 16.0352 1.19531 23.4492 3.42578
c0.398438 0.175781 0.820312 0.308594 1.25391 0.410156c31.5039 10.0508 54.4453 38.8555 55.6445 73.7422c0.144531 4.14844 3.64844 7.38672 7.76562 7.25c4.14844 -0.144531 7.39062 -3.62109 7.25 -7.76562c-0.851562 -24.7852 -11.1523 -47.9492 -28.9961 -65.2266
c-9.4375 -9.13672 -20.4688 -16.082 -32.4297 -20.6328v-232.898c0 -13.6094 -11.0742 -24.6836 -24.6836 -24.6836h-304.23c-13.6094 0 -24.6836 11.0742 -24.6836 24.6836v422.512c0 13.6133 11.0742 24.6875 24.6836 24.6875h49.9336
c4.14844 0 7.51172 -3.36328 7.51172 -7.51172s-3.36328 -7.51172 -7.51172 -7.51172h-49.9336c-5.32812 0 -9.66016 -4.33594 -9.66016 -9.66406v-422.512c0 -5.32812 4.33203 -9.66016 9.66016 -9.66016h304.227c5.32812 0 9.66406 4.33203 9.66406 9.66016v228.555
c-6.16797 -1.23828 -12.4961 -1.88281 -18.9141 -1.88281c-52.6133 0 -95.418 42.8047 -95.418 95.418s42.8047 95.418 95.418 95.418c6.40234 0 12.7305 -0.664062 18.9141 -1.91406v6.91797c0 5.32812 -4.33594 9.66406 -9.66406 9.66406h-77.4023v-12.0508
c0 -9.66406 -7.86328 -17.5273 -17.5273 -17.5273h-114.363c-9.66406 0 -17.5273 7.86328 -17.5273 17.5273v35.6445c0 17.3945 14.1523 31.5469 31.5469 31.5469h86.3242c17.3945 0 31.5469 -14.1523 31.5469 -31.5469v-8.57031h77.4062
c13.6094 0 24.6836 -11.0742 24.6836 -24.6875v-11.2305c8.53516 -3.25 16.5898 -7.74219 23.9297 -13.3438l9.90625 9.90625c4.66016 4.66406 10.8594 7.23047 17.4531 7.23047s12.7969 -2.56641 17.457 -7.23047c4.66406 -4.66406 7.23047 -10.8633 7.23047 -17.457
c0 -6.58984 -2.56641 -12.7891 -7.23047 -17.4531l-89.8516 -89.8516c-4.66406 -4.66016 -10.8594 -7.23047 -17.4531 -7.23047s-12.7969 2.57031 -17.457 7.23047l-42.0547 42.0547c-4.66016 4.66016 -7.23047 10.8594 -7.23047 17.4531s2.57031 12.793 7.23438 17.457
c4.66016 4.66016 10.8594 7.23047 17.4531 7.23047s12.793 -2.57031 17.457 -7.23047zM236.984 380.809v35.6445c0 9.11328 -7.41406 16.5234 -16.5234 16.5234h-86.3242c-9.11328 0 -16.5234 -7.41016 -16.5234 -16.5234v-35.6445
c0 -1.38281 1.12109 -2.50391 2.50391 -2.50391h114.363c1.38281 0 2.50391 1.12109 2.50391 2.50391zM398.559 357.902l-77.7109 -77.707c-2.93359 -2.93359 -7.6875 -2.93359 -10.6211 0l-29.9102 29.9102c-1.82422 1.82422 -4.25391 2.83203 -6.83203 2.83203
c-2.58203 0 -5.00781 -1.00781 -6.83203 -2.83203c-1.82812 -1.82422 -2.83203 -4.25 -2.83203 -6.83203s1.00391 -5.00781 2.82812 -6.83203l42.0547 -42.0547c1.82422 -1.82422 4.25 -2.83203 6.83203 -2.83203s5.00781 1.00781 6.83203 2.83203l89.8555 89.8516
c3.76562 3.76562 3.76562 9.89844 0 13.6641c-1.82812 1.82422 -4.25391 2.83203 -6.83594 2.83203c-2.57812 0 -5.00391 -1.00391 -6.82812 -2.83203zM398.559 357.902zM204.938 259.453c4.14844 0 7.51172 -3.36328 7.51172 -7.51172
c0 -4.14453 -3.36328 -7.50781 -7.51172 -7.50781h-91.5273c-4.14844 0 -7.50781 3.36328 -7.50781 7.50781c0 4.14844 3.35938 7.51172 7.50781 7.51172h91.5273zM204.938 259.453zM99.0742 336.988c4.14844 0 7.51172 -3.36328 7.51172 -7.51172
s-3.36328 -7.51172 -7.51172 -7.51172h-50.543c-4.14844 0 -7.51172 3.36328 -7.51172 7.51172s3.36328 7.51172 7.51172 7.51172h50.543zM99.0742 336.988zM113.41 209.586c-4.14844 0 -7.50781 3.36328 -7.50781 7.51172c0 4.14453 3.35938 7.50781 7.50781 7.50781
h91.5273c4.14844 0 7.51172 -3.36328 7.51172 -7.50781c0 -4.14844 -3.36328 -7.51172 -7.51172 -7.51172h-91.5273zM113.41 209.586zM236.555 168.352c4.14844 0 7.51172 -3.36328 7.51172 -7.51172s-3.36328 -7.51172 -7.51172 -7.51172h-123.145
c-4.14844 0 -7.50781 3.36328 -7.50781 7.51172s3.35938 7.51172 7.50781 7.51172h123.145zM236.555 168.352zM113.41 118.48c-4.14844 0 -7.50781 3.36328 -7.50781 7.51172s3.35938 7.51172 7.50781 7.51172h61.5742c4.14844 0 7.50781 -3.36328 7.50781 -7.51172
s-3.35938 -7.51172 -7.50781 -7.51172h-61.5742zM113.41 118.48zM113.41 62.1289c-4.14844 0 -7.50781 3.36328 -7.50781 7.51172s3.35938 7.51172 7.50781 7.51172h91.5273c4.14844 0 7.51172 -3.36328 7.51172 -7.51172s-3.36328 -7.51172 -7.51172 -7.51172h-91.5273z
M113.41 62.1289zM113.41 27.2852c-4.14844 0 -7.50781 3.36328 -7.50781 7.51172c0 4.14453 3.35938 7.50781 7.50781 7.50781h123.145c4.14844 0 7.51172 -3.36328 7.51172 -7.50781c0 -4.14844 -3.36328 -7.51172 -7.51172 -7.51172h-123.145zM113.41 27.2852z
M64.4727 265.965c16.7305 0 30.3398 -13.6094 30.3398 -30.3398s-13.6094 -30.3398 -30.3398 -30.3398s-30.3398 13.6094 -30.3398 30.3398s13.6094 30.3398 30.3398 30.3398zM64.4727 220.309c8.44531 0 15.3164 6.87109 15.3164 15.3164
s-6.87109 15.3164 -15.3164 15.3164s-15.3164 -6.87109 -15.3164 -15.3164s6.87109 -15.3164 15.3164 -15.3164zM64.4727 220.309zM64.4727 173.758c16.7305 0 30.3398 -13.6133 30.3398 -30.3398c0 -16.7305 -13.6094 -30.3398 -30.3398 -30.3398
s-30.3398 13.6094 -30.3398 30.3398c0 16.7266 13.6094 30.3398 30.3398 30.3398zM64.4727 128.098c8.44531 0 15.3164 6.87109 15.3164 15.3164c0 8.44922 -6.87109 15.3203 -15.3164 15.3203s-15.3164 -6.87109 -15.3164 -15.3203
c0 -8.44531 6.87109 -15.3164 15.3164 -15.3164zM64.4727 128.098zM64.4727 82.5586c16.7305 0 30.3398 -13.6094 30.3398 -30.3398s-13.6094 -30.3398 -30.3398 -30.3398s-30.3398 13.6094 -30.3398 30.3398s13.6094 30.3398 30.3398 30.3398zM64.4727 36.9023
c8.44531 0 15.3164 6.87109 15.3164 15.3164s-6.87109 15.3164 -15.3164 15.3164s-15.3164 -6.87109 -15.3164 -15.3164s6.87109 -15.3164 15.3164 -15.3164zM64.4727 36.9023z" />
    <glyph glyph-name="152-shopping-bag-1" unicode="&#xf196;" 
d="M467.638 -42.6143c0.161133 -0.977539 0.245117 -1.98438 0.24707 -3.00586c0 -10.1494 -8.22559 -18.377 -18.377 -18.377h-0.0488281h-386.965c-5.15723 0 -10.0801 2.16797 -13.5615 5.97559c-3.48242 3.80762 -5.20215 8.90234 -4.74121 14.043l31.2773 348.328
c0.850586 9.47461 8.79199 16.7324 18.3037 16.7324h64.293v28.9775c0 54.0039 43.9287 97.9404 97.9287 97.9404c54.002 0 97.9355 -43.9365 97.9355 -97.9404v-28.9775h64.249c9.51172 0 17.4531 -7.25781 18.3037 -16.7324zM194.82 350.06v-28.9775h122.357v28.9775
c0 33.7383 -27.4463 61.1865 -61.1816 61.1865c-33.7324 0 -61.1758 -27.4482 -61.1758 -61.1865zM82.5967 -27.2461h346.76l-27.9775 311.574h-47.4473v-32.8633c0 -10.1494 -8.22559 -18.377 -18.377 -18.377s-18.377 8.22754 -18.377 18.377v32.8633h-122.357v-32.8633
c0 -10.1494 -8.22559 -18.377 -18.3779 -18.377c-10.1514 0 -18.377 8.22754 -18.377 18.377v32.8633h-47.4912z" />
    <glyph glyph-name="078-magnifying-glass-1" unicode="&#xf14d;" 
d="M507.516 -37.8887c5.90332 -5.90332 5.90332 -15.667 0 -21.5703c-2.95117 -3.06543 -6.9248 -4.54102 -10.7852 -4.54102c-3.85938 0 -7.83301 1.58984 -10.7842 4.54102l-124.425 124.424c-38.3711 -33.376 -88.4355 -53.584 -143.155 -53.584
c-120.337 0 -218.31 97.9727 -218.31 218.31s97.8594 218.31 218.31 218.31c120.337 0 218.31 -97.8594 218.31 -218.31c0 -54.7197 -20.207 -104.784 -53.584 -143.155zM30.5947 229.69c0 -103.535 84.2363 -187.771 187.658 -187.771
c103.535 0 187.657 84.3496 187.657 187.771s-84.1221 187.657 -187.657 187.657c-103.422 0 -187.658 -84.1221 -187.658 -187.657z" />
    <glyph glyph-name="034-edit" unicode="&#xf121;" 
d="M397.736 369.622c-6.8252 0 -12.3594 5.5332 -12.3594 12.3584v38.9922c0 1.27441 -1.03027 2.31152 -2.29688 2.31152h-249.079v-75.3604c0 -14.8965 -12.1182 -27.0166 -27.0156 -27.0166h-75.3604v-357.88c0 -1.27441 1.03711 -2.31152 2.31055 -2.31152h349.146
c1.26562 0 2.29688 1.03711 2.29688 2.31152v188.684c0 6.8252 5.53418 12.3584 12.3584 12.3584s12.3574 -5.53418 12.3564 -12.3584v-188.684c0 -14.9023 -12.1172 -27.0273 -27.0137 -27.0273h-349.145c-14.9023 0 -27.0264 12.125 -27.0273 27.0283v370.238
c0 3.27734 1.30273 6.42188 3.62012 8.73828l102.375 102.375c2.31836 2.31738 5.46191 3.62012 8.73828 3.62012h261.439c14.8965 0 27.0137 -12.125 27.0137 -27.0273v-38.9922c0 -6.8252 -5.53418 -12.3584 -12.3574 -12.3584zM109.285 347.925v57.8789
l-60.1777 -60.1797h57.8779c1.26758 0 2.2998 1.03223 2.2998 2.30078zM492.865 347.604c16.3027 -16.3037 16.3027 -42.8311 0.000976562 -59.1338l-239.438 -239.435c-1.50684 -1.50684 -3.37891 -2.59961 -5.43262 -3.16895c0 0 -77.9316 -21.625 -77.9971 -21.6426
c-0.398438 -0.103516 -3.10645 -0.40918 -3.10742 -0.40918h-63.332c-6.82422 0 -12.3574 5.53223 -12.3574 12.3574s5.5332 12.3584 12.3574 12.3584h53.9365l19.0879 68.7471c0.571289 2.05371 1.66113 3.9248 3.16895 5.43262l0.199219 0.199219h-76.3926
c-6.82422 0 -12.3574 5.5332 -12.3574 12.3574c0 6.8252 5.5332 12.3584 12.3574 12.3584h101.109l74.3789 74.3789h-175.488c-6.82422 0 -12.3574 5.5332 -12.3574 12.3584c0 6.82422 5.5332 12.3574 12.3574 12.3574h200.204l115.423 115.423
c16.3066 16.3027 42.834 16.3047 59.1387 0zM184.644 53.9268l36.3271 10.0859l-26.2393 26.2402zM244.69 75.248l197.648 197.648l-38.7217 38.7207l-197.648 -197.648zM475.387 305.946c6.66699 6.66602 6.66699 17.5137 0 24.1807l-14.541 14.541
c-6.66406 6.66699 -17.5117 6.66797 -24.1807 0l-15.5713 -15.5713l38.7227 -38.7217z" />
    <glyph glyph-name="113-soccer-cup" unicode="&#xf170;" 
d="M476.018 396.1c4.04004 0 7.31445 -3.27148 7.31445 -7.31348v-18.4648c0 -58.9639 -28.7393 -114.45 -76.875 -148.429l-8.68164 -6.12793c-1.14062 -0.800781 -2.43555 -1.17773 -3.73242 -1.26367c-13.3975 -42.0645 -45.5566 -75.7227 -86.5645 -91.3867v-37.2432
h55.4434c4.03906 0 7.31348 -3.27148 7.31348 -7.31348v-49.8789h32.7256c4.03906 0 7.31445 -3.27148 7.31445 -7.31445v-63.4219c0 -4.04199 -3.27539 -7.31348 -7.31445 -7.31348h-293.922c-4.03906 0 -7.31445 3.27148 -7.31445 7.31348v63.4219
c0 4.04297 3.27539 7.31445 7.31445 7.31445h32.7256v49.8789c0 4.04199 3.27441 7.31348 7.31348 7.31348h55.4434v37.2432c-41.0078 15.6641 -73.167 49.3223 -86.5645 91.3867c-1.29688 0.0859375 -2.5918 0.462891 -3.73242 1.26367l-8.68164 6.12793
c-48.1357 33.9785 -76.875 89.4648 -76.875 148.429v18.4648c0 4.04199 3.27441 7.31348 7.31445 7.31348h75.1465v21.4502c0 8.72168 7.0957 15.8213 15.8213 15.8213h258.1c8.72559 0 15.8213 -7.09961 15.8213 -15.8213v-21.4502h75.1465zM43.2969 370.321
c0 -53.9238 26.1553 -104.672 69.9893 -135.951c-1.3125 7.82324 -2.15723 15.8037 -2.15723 23.9941v123.107h-67.832v-11.1504zM395.646 -34.7432v48.793h-32.7246h-213.844h-32.7246v-48.793h279.293zM355.607 28.6787v42.5645h-199.215v-42.5645h199.215z
M292.85 85.8711v32.5518c-11.7891 -3.1084 -24.0967 -4.92969 -36.8496 -4.92969s-25.0605 1.82129 -36.8496 4.92969v-32.5518h73.6992zM386.243 258.364v159.186c0 0.657227 -0.536133 1.19336 -1.19336 1.19336h-258.1c-0.657227 0 -1.19336 -0.536133 -1.19336 -1.19336
v-159.186c0 -57.3389 37.293 -106.044 88.8633 -123.39c0.03125 -0.0136719 0.0644531 -0.0224609 0.0966797 -0.0361328c12.9912 -4.35742 26.8438 -6.81738 41.2832 -6.81738s28.292 2.45996 41.2832 6.81738
c0.0322266 0.0136719 0.0654297 0.0224609 0.0966797 0.0361328c51.5703 17.3457 88.8633 66.0508 88.8633 123.39zM468.703 370.321v11.1504h-67.832v-123.107c0 -8.19043 -0.844727 -16.1709 -2.15723 -23.9941c43.834 31.2793 69.9893 82.0273 69.9893 135.951z
M333.479 326.028c2.75391 -0.399414 5.04297 -2.32812 5.90332 -4.97852c0.861328 -2.64258 0.143555 -5.5498 -1.85352 -7.49219l-35.457 -34.5645l8.37109 -48.8076c0.46875 -2.74316 -0.660156 -5.51367 -2.91016 -7.14941
c-1.27539 -0.928711 -2.78613 -1.40039 -4.2998 -1.40039c-1.16504 0 -2.33203 0.27832 -3.4043 0.842773l-43.8281 23.043l-43.8281 -23.043c-2.45801 -1.30664 -5.44336 -1.08594 -7.7041 0.557617c-2.25 1.63574 -3.37891 4.40625 -2.91016 7.14941l8.37109 48.8076
l-35.457 34.5645c-1.99707 1.94238 -2.71484 4.84961 -1.85352 7.49219c0.860352 2.65039 3.14941 4.5791 5.90332 4.97852l49.0039 7.12891l21.917 44.4004c2.46484 5 10.6504 5 13.1152 0l21.917 -44.4004zM289.11 286.786l27.5967 26.8994l-38.1426 5.5498
c-2.38184 0.342773 -4.43945 1.84277 -5.50391 4l-17.0605 34.5576l-17.0605 -34.5576c-1.06445 -2.15723 -3.12207 -3.65723 -5.50391 -4l-38.1426 -5.5498l27.5967 -26.8994c1.72461 -1.67871 2.51074 -4.10059 2.10645 -6.47168l-6.51367 -37.9932l34.1143 17.9355
c1.06445 0.564453 2.23535 0.842773 3.40332 0.842773s2.33887 -0.27832 3.40332 -0.842773l34.1143 -17.9355l-6.51367 37.9932c-0.404297 2.37109 0.381836 4.79297 2.10645 6.47168z" />
    <glyph glyph-name="079-avatar" unicode="&#xf14e;" 
d="M254.145 172.12c-31.0654 0.530273 -56.1934 11.4512 -74.6426 32.3379c-40.8203 46.0156 -34.0342 124.898 -33.292 132.427c2.65039 56.9355 29.793 83.9727 52.0586 96.5898c22.1602 12.6172 45.2734 14.5254 57.042 14.5254h0.636719h0.423828h0.742188
c21.417 -0.423828 40.6084 -5.51367 57.042 -14.9492c22.0537 -12.6172 48.7725 -39.6543 51.4229 -96.166c0.742188 -7.52832 7.52734 -86.4111 -33.292 -132.427c-18.5547 -20.8867 -43.6836 -31.8076 -74.749 -32.3379h-1.05957h-0.636719h-1.69629zM174.519 334.234
c-0.105469 -0.636719 -7.31543 -73.0527 26.2949 -110.798c13.2529 -15.0557 31.1719 -22.4775 54.4971 -22.6895h0.530273v0h0.530273c23.4316 0.211914 41.2441 7.63379 54.6035 22.6895c33.7158 37.958 26.2939 110.056 26.1885 110.798
c-0.106445 0.211914 -0.106445 0.529297 -0.106445 0.847656c-3.28613 71.8857 -51.9521 83.5488 -80.5791 84.1846h-0.848633h-0.423828c-23.1143 0 -77.0811 -8.16406 -80.5801 -84.1846c0 -0.211914 -0.106445 -0.530273 -0.106445 -0.847656zM473.725 41.2842
c0.106445 -5.51367 0.211914 -33.8223 -5.08887 -47.9238c-1.06055 -2.75684 -3.0752 -5.08984 -5.51367 -6.67969c-3.18066 -2.01465 -79.4141 -50.6807 -206.963 -50.6807c-127.55 0 -203.782 48.5596 -206.963 50.6807
c-2.54492 1.58984 -4.45312 3.92285 -5.51367 6.67969c-5.61914 14.207 -5.51367 42.5166 -5.40723 48.0293v0.318359c0.106445 0.848633 0.106445 1.69629 0.106445 2.65039c0.635742 20.8877 2.01367 69.9775 48.0293 85.7754
c0.318359 0.106445 0.636719 0.211914 1.06055 0.318359c48.0293 12.1924 87.5771 39.7598 88.002 40.0771c6.4668 4.55957 15.373 2.96875 19.9326 -3.49805c4.55859 -6.46777 2.96875 -15.374 -3.49902 -19.9336c-1.80273 -1.16602 -44.001 -30.6416 -96.8018 -44.2129
c-24.7041 -8.7998 -27.4609 -35.2002 -28.2031 -59.374c0 -0.954102 -0.105469 -1.80273 -0.105469 -2.65137c-0.212891 -9.54199 0.529297 -24.2793 2.22656 -32.7617c17.2822 -9.75391 85.0322 -43.5762 187.029 -43.5762c102.422 0 169.748 33.7158 186.924 43.4707
c1.69727 8.48145 2.33301 23.2197 2.22656 32.7617c-0.105469 0.847656 -0.105469 1.69629 -0.105469 2.65039c-0.742188 24.1738 -3.49902 50.5742 -28.2031 59.375c-52.8008 13.5713 -94.999 42.9404 -96.8018 44.2129
c-6.46777 4.55859 -8.05762 13.4648 -3.49902 19.9326c4.55957 6.46777 13.4658 8.05762 19.9326 3.49902c0.424805 -0.318359 40.1846 -27.8848 88.002 -40.0781c0.318359 -0.105469 0.742188 -0.211914 1.06055 -0.318359
c46.0156 -15.6914 47.3936 -64.7812 48.0293 -85.7744c0 -0.954102 0.106445 -1.80273 0.106445 -2.65137v-0.317383z" />
    <glyph glyph-name="121-send-1" unicode="&#xf178;" 
d="M512 448l-79.999 -448.001l-116.24 43.0527l-91.7598 -107.053v141.023l0.191406 -0.0585938l-0.15625 0.0585938l191.965 258.978l-252.376 -236.603l-163.625 60.6025z" />
    <glyph glyph-name="150-edit-1" unicode="&#xf194;" 
d="M74.3438 293.656l11.3125 -11.3125l-18.3438 -18.3438l18.3438 -18.3438l-11.3125 -11.3125l-24 24c-3.12891 3.12891 -3.12891 8.18359 0 11.3125zM74.3438 293.656zM149.656 234.344l-11.3125 11.3125l18.3438 18.3438l-18.3438 18.3438l11.3125 11.3125l24 -24
c3.12891 -3.12891 3.12891 -8.18359 0 -11.3125zM149.656 234.344zM96.4102 242.539l16 48.0039l15.1797 -5.05859l-16 -48.0039zM96.4102 242.539zM496 448c8.82422 0 16 -7.17578 16 -16v-480c0 -8.82422 -7.17578 -16 -16 -16h-240c-8.82422 0 -16 7.17578 -16 16v480
c0 8.82422 7.17578 16 16 16h240zM496 -48v480h-240v-480h240zM496 -48zM280 48c-4.41406 0 -8 3.58594 -8 8v320c0 4.41406 3.58594 8 8 8h32v-16h-24v-304h24v-16h-32zM280 48zM464 64v304h-24v16h32c4.41406 0 8 -3.58594 8 -8v-320c0 -4.41406 -3.58594 -8 -8 -8h-32v16
h24zM464 64zM328 384h96v-16h-96v16zM328 384zM376 32c17.6484 0 32 -14.3516 32 -32s-14.3516 -32 -32 -32s-32 14.3516 -32 32s14.3516 32 32 32zM376 -16c8.82422 0 16 7.17578 16 16s-7.17578 16 -16 16s-16 -7.17578 -16 -16s7.17578 -16 16 -16zM376 -16zM336 416h80
v-16h-80v16zM336 416zM328 64h96v-16h-96v16zM328 64zM0 392c0 4.41406 3.58594 8 8 8h216v-16h-208v-48h208v-16h-208v-320h208v-16h-216c-4.41406 0 -8 3.58594 -8 8v400zM0 392zM32 368h16v-16h-16v16zM32 368zM64 368h16v-16h-16v16zM64 368zM96 368h16v-16h-16v16z
M96 368zM48 208h64v-16h-64v16zM48 208zM128 208h96v-16h-96v16zM128 208zM176 176h48v-16h-48v16zM176 176zM48 176h112v-16h-112v16zM48 176zM48 144h64v-16h-64v16zM48 144zM128 144h96v-16h-96v16zM128 144zM176 112h48v-16h-48v16zM176 112zM48 112h112v-16h-112v16z
M48 112zM48 48h64v-16h-64v16zM48 48zM128 48h32v-16h-32v16zM128 48zM304 88v48c0 4.41406 3.58594 8 8 8h48c4.41406 0 8 -3.58594 8 -8v-48c0 -4.41406 -3.58594 -8 -8 -8h-48c-4.41406 0 -8 3.58594 -8 8zM320 128v-32h32v32h-32zM320 128zM440 144
c4.41406 0 8 -3.58594 8 -8v-48c0 -4.41406 -3.58594 -8 -8 -8h-48c-4.41406 0 -8 3.58594 -8 8v48c0 4.41406 3.58594 8 8 8h48zM432 96v32h-32v-32h32zM432 96zM304 344c0 4.41406 3.58594 8 8 8h128c4.41406 0 8 -3.58594 8 -8v-96c0 -4.41406 -3.58594 -8 -8 -8h-128
c-4.41406 0 -8 3.58594 -8 8v96zM320 336v-80h112v80h-112zM320 336zM448 216v-48c0 -4.41406 -3.58594 -8 -8 -8h-128c-4.41406 0 -8 3.58594 -8 8v48c0 4.41406 3.58594 8 8 8h128c4.41406 0 8 -3.58594 8 -8zM432 176v32h-112v-32h112zM432 176z" />
    <glyph glyph-name="059-quote-1" unicode="&#xf13a;" 
d="M0 192c0 121 98.4287 219.429 219.429 219.429v-73.1436c-80.6602 0 -146.285 -65.625 -146.285 -146.285h146.285v-219.429h-219.429v219.429zM512 338.285c-80.6602 0 -146.285 -65.625 -146.285 -146.285h146.285v-219.429h-219.429v219.429
c0 121 98.4287 219.429 219.429 219.429v-73.1436z" />
    <glyph glyph-name="108-web-search-engine" unicode="&#xf16b;" 
d="M362.667 234.667c-58.8164 0 -106.667 47.8506 -106.667 106.666c0 58.8164 47.8506 106.667 106.667 106.667c58.8154 0 106.666 -47.8506 106.666 -106.667c0 -58.8154 -47.8506 -106.666 -106.666 -106.666zM362.667 416c-41.1738 0 -74.667 -33.4932 -74.667 -74.667
c0 -41.1729 33.4932 -74.666 74.667 -74.666c41.1729 0 74.666 33.4932 74.666 74.666c0 41.1738 -33.4932 74.667 -74.666 74.667zM496 192c-4.0957 0 -8.19238 1.55762 -11.3066 4.69336l-60.1172 60.1172c-6.25098 6.25098 -6.25098 16.3838 0 22.6348
s16.3838 6.25098 22.6348 0l60.1172 -60.1172c6.25098 -6.25098 6.25098 -16.3838 0 -22.6348c-3.13574 -3.13574 -7.23242 -4.69336 -11.3281 -4.69336zM453.333 -64h-394.666c-32.3633 0 -58.667 26.3037 -58.667 58.667v352c0 32.3623 26.3037 58.666 58.667 58.666
h157.227c8.83203 0 16 -7.16797 16 -16s-7.16797 -16 -16 -16h-157.227c-14.6992 0 -26.667 -11.9678 -26.667 -26.666v-352c0 -14.6992 11.9678 -26.667 26.667 -26.667h394.666c14.6992 0 26.667 11.9678 26.667 26.667v149.333c0 8.83203 7.16797 16 16 16
s16 -7.16797 16 -16v-149.333c0 -32.3633 -26.3037 -58.667 -58.667 -58.667zM210.56 298.667h-194.56c-8.83203 0 -16 7.16797 -16 16s7.16797 16 16 16h194.56c8.83203 0 16 -7.16797 16 -16s-7.16797 -16 -16 -16zM293.333 32
c-3.69043 0 -7.38086 1.28027 -10.4102 3.86133c-6.69922 5.75977 -7.48828 15.8506 -1.72852 22.5703l23.0615 26.9014l-23.083 26.9229c-5.75977 6.69922 -4.96973 16.8105 1.72852 22.5713c6.71973 5.75977 16.8105 4.94922 22.5703 -1.72852l32 -37.333
c5.1416 -5.99512 5.1416 -14.8271 0 -20.8428l-32 -37.334c-3.15723 -3.69043 -7.63672 -5.58887 -12.1387 -5.58887zM154.667 32c-4.50195 0 -8.98145 1.89844 -12.1602 5.58887l-32 37.334c-5.1416 5.99414 -5.1416 14.8262 0 20.8428l32 37.333
c5.73828 6.69824 15.8291 7.48828 22.5703 1.72852c6.69922 -5.76074 7.48828 -15.8516 1.72852 -22.5713l-23.0615 -26.9229l23.083 -26.9219c5.75977 -6.69922 4.96973 -16.8115 -1.72852 -22.5713c-3.0293 -2.55957 -6.74121 -3.83984 -10.4316 -3.83984zM208 0
c-1.19434 0 -2.38965 0.12793 -3.60547 0.426758c-8.61816 1.98438 -13.9736 10.5596 -12.0107 19.1787l32 138.667c1.98438 8.59668 10.582 14.0156 19.1787 11.9893c8.61914 -1.98438 13.9736 -10.5605 12.0107 -19.1787l-32 -138.667
c-1.68555 -7.42383 -8.27734 -12.416 -15.5732 -12.416z" />
    <glyph glyph-name="093-home" unicode="&#xf15c;" 
d="M506.555 239.936c5.92871 -4.34082 7.2168 -12.6641 2.87402 -18.5918c-2.60547 -3.55957 -6.64746 -5.44434 -10.7441 -5.44434c-2.72754 0 -5.47949 0.834961 -7.84766 2.56934l-234.837 171.943l-234.837 -171.944c-5.92676 -4.33887 -14.252 -3.05273 -18.5928 2.875
c-4.3418 5.92871 -3.05371 14.252 2.875 18.5928l242.697 177.697c4.67871 3.42578 11.0361 3.42578 15.7168 0zM442.246 215.457c7.34668 0 13.3027 -5.95605 13.3037 -13.3037v-225.054c0 -7.34668 -5.95605 -13.3027 -13.3027 -13.3027h-133.029
c-7 0 -12.7266 5.41211 -13.251 12.2793c-0.0322266 0.306641 -0.0517578 0.640625 -0.0517578 1.02344v128.891c0 22.0078 -17.9053 39.9141 -39.9141 39.9141s-39.9141 -17.9053 -39.9141 -39.9141v-128.891c0 -0.384766 -0.0195312 -0.724609 -0.0517578 -1.03516
c-0.530273 -6.8623 -6.25488 -12.2676 -13.251 -12.2676h-133.029c-7.3457 0 -13.3027 5.95605 -13.3027 13.3027v225.054c0 7.34668 5.95703 13.3027 13.3027 13.3027s13.3027 -5.95605 13.3027 -13.3027v-211.749h106.424v115.587
c0 36.6777 29.8418 66.5195 66.5195 66.5195s66.5205 -29.8398 66.5205 -66.5195v-115.586h106.422v211.749c0 7.34668 5.95703 13.3027 13.3027 13.3027z" />
    <glyph glyph-name="118-clock" unicode="&#xf175;" 
d="M511.013 168.35c4.53223 -45.5957 -6.6377 -91.751 -31.4521 -129.967c-3.00684 -4.63184 -9.19922 -5.94922 -13.833 -2.94141c-4.63086 3.00684 -5.94824 9.20117 -2.94043 13.833c46.4434 71.5234 36.3135 167.276 -24.0859 227.677
c-70.9648 70.9619 -186.43 70.9619 -257.392 0c-70.9629 -70.9639 -70.9629 -186.429 0 -257.392c60.4805 -60.4805 156.314 -70.5557 227.873 -23.958c4.62793 3.01465 10.8232 1.70508 13.8369 -2.92285s1.70508 -10.8232 -2.92285 -13.8369
c-32.6904 -21.2881 -71.2168 -32.582 -110.24 -32.582c-6.60156 0 -13.2129 0.323242 -19.8193 0.975586c-46.2861 4.57324 -89.9229 25.2354 -122.869 58.1816c-20.8584 20.8584 -36.1895 45.1816 -46 71.1328h-71.167c-5.52246 0 -10 4.47754 -10 10.001
c0 5.52246 4.47754 10 10 10h64.7852c-3.31934 12.6172 -5.40039 25.4932 -6.24414 38.4375h-44.541c-5.52246 0 -10 4.47656 -10 10s4.47754 10 10 10h44.2217c0.426758 12.9111 2.08105 25.7861 4.96289 38.4375h-103.186c-5.52148 0 -10 4.47754 -10 10
c0 5.52344 4.47852 10.001 10 10.001h108.837c4.5 13.2695 10.4121 26.1611 17.7441 38.4365h-58.4131c-5.52148 0 -10 4.47656 -10 10c0 5.52246 4.47852 10 10 10h71.2627c0.255859 0 0.506836 -0.0185547 0.757812 -0.0380859
c5.18066 6.69238 10.8408 13.1309 16.9795 19.2695c28.0479 28.0479 62.3623 46.0986 98.4785 54.1699v25.4795c-14.7959 3.68164 -25.7939 17.0752 -25.7939 32.9932c0 18.748 15.2529 34.001 34.001 34.001h72.001c18.748 0 34 -15.2529 34 -34.001
c0 -15.9189 -10.998 -29.3125 -25.7939 -32.9932v-25.4092c36.2266 -8.03711 70.6553 -26.1123 98.7832 -54.2393c32.915 -32.916 53.5723 -76.5078 58.1689 -122.746zM259.854 403.736c0 -7.71875 6.2793 -14 14 -14h1.79297h68.4141h1.79395c7.71973 0 14 6.28027 14 14
s-6.28027 14 -14 14h-72.001c-7.7207 0 -14 -6.28027 -14 -14zM285.646 348.702c16.0732 1.93652 32.3379 1.94824 48.4141 0.0361328v20.9971h-48.4141v-21.0332zM445.777 22.4932c2.62891 0 5.19922 -1.07031 7.06934 -2.92969
c1.86133 -1.86035 2.93066 -4.44043 2.93066 -7.07031s-1.07031 -5.20996 -2.93066 -7.07031c-1.87012 -1.87012 -4.43945 -2.92969 -7.06934 -2.92969c-2.63965 0 -5.21094 1.05957 -7.06934 2.92969c-1.87012 1.86035 -2.93164 4.44043 -2.93164 7.07031
s1.06152 5.20996 2.93164 7.07031c1.8584 1.85938 4.42871 2.92969 7.06934 2.92969zM310.006 303.389c85.5391 0 155.132 -69.5908 155.132 -155.132c0 -85.54 -69.5928 -155.131 -155.132 -155.131s-155.132 69.5908 -155.132 155.131
c0 85.541 69.5928 155.132 155.132 155.132zM310.006 13.126c74.5117 0 135.131 60.6201 135.131 135.131c0 74.5117 -60.6191 135.132 -135.131 135.132s-135.131 -60.6201 -135.131 -135.132c0 -74.5107 60.6191 -135.131 135.131 -135.131zM373.263 225.656
c3.90723 3.90527 10.2373 3.90527 14.1426 0c3.90527 -3.9043 3.90527 -10.2373 0 -14.1416l-1.45312 -1.45312v0l-48.0771 -48.0771c2.04785 -4.1416 3.20508 -8.80078 3.20508 -13.7256c0 -17.1348 -13.9395 -31.0752 -31.0742 -31.0752
c-17.1357 0 -31.0742 13.9404 -31.0742 31.0752c0 4.9248 1.15527 9.58398 3.20508 13.7256l-22.168 22.168c-3.9043 3.9043 -3.9043 10.2363 0 14.1416c3.90723 3.90527 10.2373 3.90527 14.1436 0l22.167 -22.167c4.14258 2.04785 8.80078 3.20508 13.7266 3.20508
c4.9248 0 9.58398 -1.15723 13.7266 -3.20508zM310.006 137.184c6.10645 0 11.0742 4.96777 11.0742 11.0732c0 6.10645 -4.96777 11.0742 -11.0742 11.0742s-11.0742 -4.96777 -11.0742 -11.0742c0 -6.10547 4.96777 -11.0732 11.0742 -11.0732zM416.927 158.136
c5.52148 0 10 -4.47754 10 -10c0 -5.52344 -4.47852 -10.001 -10 -10.001h-9.26562c-5.52148 0 -10 4.47754 -10 10.001c0 5.52246 4.47852 10 10 10h9.26562zM212.35 158.38c5.52148 0 10 -4.47754 10 -10.001c0 -5.52246 -4.47852 -10 -10 -10h-9.26465
c-5.52148 0 -10 4.47754 -10 10c0 5.52344 4.47852 10.001 10 10.001h9.26465zM310.128 235.914c-5.52246 0 -10 4.47656 -10 10v9.26367c0 5.52344 4.47754 10 10 10s10 -4.47656 10 -10v-9.26367c0 -5.52344 -4.47754 -10 -10 -10zM309.884 60.6006
c5.52246 0 10 -4.47656 10 -10v-9.26367c0 -5.52344 -4.47754 -10 -10 -10s-10 4.47656 -10 10v9.26367c0 5.52344 4.47754 10 10 10zM10 96.5547c2.62988 0 5.20996 -1.07031 7.06934 -2.93066c1.86133 -1.85938 2.93066 -4.43945 2.93066 -7.06934
c0 -2.63086 -1.07031 -5.20996 -2.93066 -7.07031c-1.85938 -1.86035 -4.43945 -2.93066 -7.06934 -2.93066s-5.20898 1.07031 -7.07031 2.93066c-1.86035 1.86035 -2.92969 4.42969 -2.92969 7.07031c0 2.62988 1.07031 5.20996 2.92969 7.06934
c1.86035 1.86035 4.44043 2.93066 7.07031 2.93066z" />
    <glyph glyph-name="055-user-2" unicode="&#xf136;" 
d="M256 448c74.4395 0 135 -60.5605 135 -135s-60.5605 -135 -135 -135s-135 60.5605 -135 135s60.5605 135 135 135zM256 208c57.8975 0 105 47.1025 105 105s-47.1025 105 -105 105s-105 -47.1025 -105 -105s47.1025 -105 105 -105zM423.966 89.8047
c36.7793 -37.3438 57.0342 -86.6377 57.0342 -138.805c0 -8.28418 -6.71582 -15 -15 -15h-420c-8.28418 0 -15 6.71582 -15 15c0 52.167 20.2549 101.461 57.0342 138.805c36.96 37.5283 85.958 58.1953 137.966 58.1953h60c52.0088 0 101.006 -20.667 137.966 -58.1953z
M61.6602 -34h388.68c-7.51465 85.0859 -78.3506 152 -164.34 152h-60c-85.9893 0 -156.825 -66.9141 -164.34 -152z" />
    <glyph glyph-name="142-campaign" unicode="&#xf18c;" 
d="M76.7998 -61.3711v187.733h324.267v-187.733h-324.267zM93.8662 109.296v-153.6h290.134v153.6h-290.134zM93.8662 109.296zM51.2002 211.696c-14.5088 0 -25.6006 11.0908 -25.6006 25.5996v85.333c0 14.5088 11.0918 25.6006 25.6006 25.6006h119.467v-17.0674
h-119.467c-5.12109 0 -8.5332 -3.41211 -8.5332 -8.5332v-85.333c0 -5.12109 3.41211 -8.5332 8.5332 -8.5332h136.533c5.12109 0 8.5332 3.41211 8.5332 8.5332v42.667h17.0664v-42.667c0 -14.5088 -11.0918 -25.5996 -25.5996 -25.5996h-136.533zM51.2002 211.696z
M384 271.429c14.5088 0 25.5996 -11.0908 25.5996 -25.5996v-76.7998c0 -14.5088 -11.0908 -25.6006 -25.5996 -25.6006h-119.467c-14.5078 0 -25.5996 11.0918 -25.5996 25.6006v76.7998c0 14.5088 11.0918 25.5996 25.5996 25.5996h119.467zM384 254.362h-119.467
h-1.70801l61.4414 -40.958l61.4414 40.958h-1.70801zM384 160.496c5.12109 0 8.5332 3.41211 8.5332 8.5332v69.1211l-68.2666 -45.2295l-68.2666 45.2295v-69.1211c0 -5.12109 3.41211 -8.5332 8.5332 -8.5332h119.467zM384 160.496zM159.575 279.963l-57.1748 -42.667
v85.333zM119.467 288.496v-17.0674l11.0918 8.53418zM119.467 288.496zM426.667 356.763c0 -11.0918 -6.8252 -20.4795 -17.0674 -23.8916v-44.375h-17.0664v42.666h-17.0664v-42.666h-17.0664v40.958l-139.946 -27.3037
c-1.70801 -0.854492 -3.41211 -0.854492 -5.12109 -0.854492c-14.5078 0 -25.5996 11.0918 -25.5996 25.5996v94.7207c0 1.70508 0 3.41309 0.854492 4.26758c2.55762 14.5039 16.2119 23.0371 29.8662 20.4785l149.333 -29.8662h33.2793
c14.5088 0 25.6006 -11.0918 25.6006 -25.6006v-34.1328zM409.6 390.896c0 5.12109 -3.41211 8.5332 -8.5332 8.5332h-25.5996v-51.1992h25.5996c5.12109 0 8.5332 3.41211 8.5332 8.5332v34.1328zM358.4 346.521v54.6172l-119.467 23.8916v-102.4zM215.042 318.362
l6.82422 0.854492v109.225l-6.82422 1.70898h-1.70898c-5.12012 0 -8.5332 -3.41309 -8.5332 -8.53418v-94.7207v-1.70801c0.854492 -5.11621 5.97559 -7.67871 10.2422 -6.8252zM215.042 318.362zM452.267 126.362h17.0664v-187.733h-17.0664v187.733zM452.267 126.362z
M486.4 126.362h17.0664v-187.733h-17.0664v187.733zM486.4 126.362zM59.7334 177.562c-23.8916 0 -42.667 -18.7754 -42.667 -42.667v-76.7998c0 -23.8916 18.7754 -42.667 42.667 -42.667v-17.0664c-33.2793 0 -59.7334 26.4541 -59.7334 59.7334v76.7998
c0 33.2793 26.4541 59.7334 59.7334 59.7334h162.133v-17.0664h-162.133zM59.7334 177.562zM460.8 382.362c28.1582 0 51.2002 -23.041 51.2002 -51.2002v-102.399c0 -28.1582 -23.042 -51.2002 -51.2002 -51.2002h-34.1328v17.0664h34.1328
c18.7754 0 34.1338 15.3584 34.1338 34.1338v102.399c0 18.7754 -15.3584 34.1338 -34.1338 34.1338h-17.0664v17.0664h17.0664zM460.8 382.362zM139.158 435.934l12.0713 12.0664l25.3418 -25.3418l-12.0674 -12.0664zM139.158 435.934zM136.533 382.362h34.1338v-17.0664
h-34.1338v17.0664zM136.533 382.362zM341.333 75.1621c0 -5.12012 3.41309 -8.5332 8.5332 -8.5332h17.0674v-68.2666h-17.0674c-5.12012 0 -8.5332 -3.41211 -8.5332 -8.5332v-17.0664h-204.8v17.0664c0 5.12109 -3.41211 8.5332 -8.5332 8.5332h-17.0664v68.2666h17.0664
c5.12109 0 8.5332 3.41309 8.5332 8.5332v17.0674h204.8v-17.0674zM349.866 15.4287v34.1338c-14.5078 0 -25.5996 11.0918 -25.5996 25.5996h-170.667c0 -14.5078 -11.0908 -25.5996 -25.5996 -25.5996v-34.1338c14.5088 0 25.5996 -11.0908 25.5996 -25.5996h170.667
c0 14.5088 11.0918 25.5996 25.5996 25.5996zM349.866 15.4287zM238.934 58.0957c14.5078 0 25.5996 -11.0918 25.5996 -25.5996c0 -14.5088 -11.0918 -25.6006 -25.5996 -25.6006c-14.5088 0 -25.6006 11.0918 -25.6006 25.6006c0 14.5078 11.0918 25.5996 25.6006 25.5996
zM238.934 23.9629c5.12012 0 8.5332 3.41211 8.5332 8.5332c0 5.12012 -3.41309 8.5332 -8.5332 8.5332c-5.12109 0 -8.5332 -3.41309 -8.5332 -8.5332c0 -5.12109 3.41211 -8.5332 8.5332 -8.5332zM238.934 23.9629zM281.6 41.0293h25.6006v-17.0664h-25.6006v17.0664z
M281.6 41.0293zM170.667 41.0293h25.5996v-17.0664h-25.5996v17.0664zM170.667 41.0293zM418.134 126.362h17.0664v-187.733h-17.0664v187.733zM418.134 126.362z" />
    <glyph glyph-name="100-chat-2" unicode="&#xf163;" 
d="M470.239 416.521c23.0264 0 41.7617 -18.7344 41.7598 -41.7627v-250.529c0 -23.0293 -18.7344 -41.7646 -41.7617 -41.7646h-272.237l-111.497 -111.499c-2.27637 -2.27637 -5.32324 -3.48633 -8.42188 -3.48633c-1.53418 0 -3.08008 0.295898 -4.55273 0.905273
c-4.44824 1.84375 -7.35059 6.18457 -7.35059 11v103.079h-24.415c-23.0273 0 -41.7627 18.7354 -41.7627 41.7646v250.53c0 23.0283 18.7354 41.7627 41.7617 41.7627h428.478zM470.239 106.277c9.89648 0 17.9482 8.05273 17.9482 17.9502v0v250.53
c0 9.89844 -8.05078 17.9502 -17.9492 17.9502h-428.477c-9.89746 0 -17.9492 -8.05176 -17.9492 -17.9502v-250.529c0 -9.89844 8.05176 -17.9512 17.9492 -17.9512h36.3154c6.20312 0 11.292 -4.74414 11.8496 -10.8008
c0.0419922 -0.324219 0.0634766 -0.691406 0.0634766 -1.10547v-86.2412l94.5898 94.5898c0.138672 0.140625 0.286133 0.270508 0.431641 0.40332c0.0185547 0.0175781 0.0410156 0.0380859 0.0595703 0.0556641c2.11328 1.91895 4.91113 3.09863 7.99121 3.09863h277.177z
M173.987 329.562c6.5752 0 11.9062 -5.33105 11.9062 -11.9053s-5.33008 -11.9062 -11.9062 -11.9062h-69.3994c-6.57617 0 -11.9053 5.33105 -11.9053 11.9062c0 6.57324 5.3291 11.9053 11.9053 11.9053h69.3994zM297.738 261.399
c6.5752 0 11.9062 -5.33203 11.9062 -11.9062c0 -6.5752 -5.33105 -11.9053 -11.9062 -11.9053h-193.151c-6.57617 0 -11.9053 5.33105 -11.9053 11.9053s5.3291 11.9062 11.9053 11.9062h193.151zM407.415 329.562c6.5752 0 11.9062 -5.33008 11.9062 -11.9053
c0 -6.57422 -5.33105 -11.9062 -11.9062 -11.9062h-163.907c-6.57617 0 -11.9062 5.33105 -11.9062 11.9062c0 6.57324 5.33008 11.9053 11.9062 11.9053h163.907zM407.415 261.399c6.5752 0 11.9062 -5.33008 11.9062 -11.9062
c0 -6.5752 -5.33105 -11.9053 -11.9062 -11.9053h-43.1025c-6.57422 0 -11.9062 5.33008 -11.9062 11.9053c0 6.57422 5.33105 11.9062 11.9062 11.9062h43.1025zM212.407 193.234c6.57617 0 11.9062 -5.33008 11.9062 -11.9062
c0 -6.57324 -5.33008 -11.9053 -11.9062 -11.9053h-107.82c-6.57617 0 -11.9053 5.33105 -11.9053 11.9053c0 6.57617 5.3291 11.9062 11.9053 11.9062h107.82zM407.415 193.234c6.5752 0 11.9062 -5.33008 11.9062 -11.9062
c0 -6.57324 -5.33105 -11.9053 -11.9062 -11.9053h-131.739c-6.57422 0 -11.9062 5.33105 -11.9062 11.9053c0 6.57617 5.33105 11.9062 11.9062 11.9062h131.739z" />
    <glyph glyph-name="058-quote" unicode="&#xf139;" 
d="M292.571 411.429h219.429v-219.429c0 -121 -98.4287 -219.429 -219.429 -219.429v73.1436c80.6602 0 146.285 65.625 146.285 146.285h-146.285v219.429zM0 192v219.429h219.429v-219.429c0 -121 -98.4287 -219.429 -219.429 -219.429v73.1436
c80.6602 0 146.285 65.625 146.285 146.285h-146.285z" />
    <glyph glyph-name="128-shopping-bag-3" unicode="&#xf17f;" 
d="M465.211 -25.7842c1.06543 -9.7207 -2.06738 -19.4736 -8.5957 -26.7549c-1.63281 -1.82129 -3.44141 -3.44727 -5.38965 -4.86328c-0.166992 -0.12207 -0.34082 -0.232422 -0.509766 -0.350586c-3.28027 -2.2959 -6.93066 -4.01172 -10.792 -5.05469
c-0.37793 -0.103516 -0.759766 -0.1875 -1.1416 -0.277344c-0.203125 -0.0478516 -0.405273 -0.104492 -0.610352 -0.148438c-0.294922 -0.0634766 -0.594727 -0.110352 -0.891602 -0.166992c-0.293945 -0.0556641 -0.587891 -0.118164 -0.885742 -0.166016
c-0.0527344 -0.00878906 -0.107422 -0.0126953 -0.161133 -0.0214844c-1.73633 -0.270508 -3.5 -0.412109 -5.27832 -0.412109h-349.91c-9.78027 0 -19.1338 4.17578 -25.6611 11.458c-6.52637 7.28223 -9.66016 17.0352 -8.5957 26.7568l35.0684 320
c1.91797 17.5059 16.6455 30.708 34.2568 30.708h26.6553v9.8457c0 62.4365 50.7969 113.231 113.231 113.231s113.231 -50.7949 113.23 -113.231v-9.8457h26.6553c17.6113 0 32.3389 -13.2012 34.2568 -30.708zM172.307 334.769v-9.8457h167.385v9.8457
c0 46.1484 -37.5439 83.6924 -83.6924 83.6924s-83.6924 -37.5439 -83.6924 -83.6924zM111.22 290.998l-26.4951 -241.767h342.55l-26.4951 241.766c-0.274414 2.5 -2.37695 4.38672 -4.89355 4.38672h-26.6553v-44.3076c0 -8.15625 -6.61328 -14.7695 -14.7695 -14.7695
s-14.7686 6.6123 -14.7686 14.7695v44.3076h-167.386v-44.3076c0 -8.15625 -6.6123 -14.7695 -14.7686 -14.7695s-14.7695 6.6123 -14.7695 14.7695v44.3076h-26.6553c-2.51562 0 -4.61914 -1.88477 -4.89355 -4.38574zM434.621 -32.8242
c0.547852 0.610352 1.43555 1.9209 1.22754 3.82227l-5.33691 48.6943h-349.022l-5.33789 -48.6943c-0.208984 -1.90137 0.679688 -3.21094 1.22754 -3.82227c0.548828 -0.610352 1.75391 -1.63672 3.66602 -1.63672h349.91c1.91309 0 3.11816 1.02637 3.66602 1.63672z" />
    <glyph glyph-name="148-delivery" unicode="&#xf192;" 
d="M338.132 47.4834c59.9834 -9.96875 94.3848 -29.125 94.3838 -52.5596c0 -17.5713 -18.957 -32.625 -54.8203 -43.5371c-32.6113 -9.92285 -75.8301 -15.3867 -121.695 -15.3867c-38.3223 0 -74.6211 3.77246 -104.973 10.9092
c-4.03223 0.948242 -6.53223 4.98438 -5.58398 9.0166c0.948242 4.0332 4.99316 6.53125 9.01758 5.58398c29.2432 -6.87598 64.3555 -10.5098 101.539 -10.5098c100.071 0 161.517 25.583 161.517 43.9229c0 11.6367 -25.6113 28.418 -81.8438 37.7627
c-4.08594 0.679688 -6.84766 4.54199 -6.16895 8.62891c0.677734 4.08594 4.53906 6.85059 8.62793 6.16895zM123.004 -28.7402c3.83203 -1.57129 5.66406 -5.95312 4.09082 -9.78516c-1.18848 -2.90039 -3.98828 -4.65527 -6.94043 -4.65527
c-0.948242 0 -1.91211 0.180664 -2.84473 0.5625c-17.2568 7.08008 -37.8262 19.3389 -37.8262 37.542c0 12.6123 9.58984 23.8213 28.5039 33.3174c16.1543 8.11035 38.9355 14.7637 65.8779 19.2422c4.08398 0.682617 7.94922 -2.08398 8.62793 -6.16895
c0.678711 -4.08691 -2.08301 -7.94922 -6.16895 -8.62891c-56.2314 -9.34473 -81.8408 -26.126 -81.8408 -37.7617c0 -7.49219 10.6631 -16.3379 28.5205 -23.6641zM101.101 288.892c4.05859 -0.831055 6.6748 -4.79395 5.84375 -8.85254
c-2.05176 -10.0166 -3.0918 -20.3262 -3.0918 -30.6406c0 -83.8135 68.2529 -152.001 152.147 -152.001s152.147 68.1885 152.147 152.002c0 83.8125 -68.2529 152.001 -152.147 152.001c-60.373 0 -115.077 -35.6895 -139.367 -90.9229
c-1.66699 -3.79199 -6.09375 -5.5127 -9.88477 -3.8457s-5.51367 6.0918 -3.8457 9.88379c26.6836 60.6777 86.7783 99.8848 153.098 99.8848c92.166 0 167.146 -74.916 167.146 -167s-74.9824 -167.001 -167.147 -167.001s-167.147 74.916 -167.147 167.001
c0 11.3223 1.14355 22.6445 3.39648 33.6484c0.831055 4.05859 4.79395 6.67578 8.85254 5.84277zM185.296 63.7314c-36.9922 14.0635 -68.6533 38.6006 -91.6387 71.041c-23.834 33.6367 -36.4336 73.2734 -36.4336 114.627c0 109.509 89.1709 198.601 198.776 198.601
c27.8027 0 54.7031 -5.625 79.9521 -16.7207c3.79199 -1.66602 5.51465 -6.09082 3.84863 -9.88281c-1.66602 -3.79297 -6.08789 -5.5166 -9.88379 -3.84961c-23.335 10.2539 -48.2051 15.4531 -73.917 15.4531c-101.334 0 -183.776 -82.3633 -183.776 -183.6
c0 -38.2285 11.6445 -74.8672 33.6729 -105.955c21.5537 -30.418 51.3477 -53.3203 86.1611 -66.2295c1.01172 -0.375 1.93066 -0.963867 2.69336 -1.72656l61.249 -61.1934l61.249 61.1934c0.761719 0.762695 1.68066 1.35156 2.69336 1.72656
c39.6025 14.6855 73.2246 42.8818 94.6738 79.3984c2.09668 3.57129 6.69434 4.76562 10.2656 2.66797c3.57129 -2.09863 4.7666 -6.69434 2.66797 -10.2656c-22.9141 -39.0117 -58.6846 -69.2451 -100.846 -85.2842l-65.4033 -65.3447
c-1.46387 -1.46289 -3.38281 -2.19336 -5.30078 -2.19336s-3.83691 0.730469 -5.30078 2.19336zM366.997 414.176c54.9639 -37.0283 87.7793 -98.6279 87.7803 -164.777c0 -24.0576 -4.26074 -47.5723 -12.6602 -69.8936
c-1.13184 -3.00586 -3.98828 -4.86035 -7.02148 -4.86035c-0.87793 0 -1.77051 0.155273 -2.64062 0.482422c-3.87695 1.45898 -5.83691 5.78516 -4.37793 9.66113c7.76172 20.627 11.6992 42.3643 11.6992 64.6104c0 61.1504 -30.3408 118.1 -81.1602 152.337
c-3.43555 2.31445 -4.34277 6.97559 -2.0293 10.4111c2.31445 3.43457 6.97461 4.34277 10.4102 2.0293zM332.7 165.2h-153.399c-4.14258 0 -7.5 3.35742 -7.5 7.5v153.397c0 4.14258 3.35742 7.5 7.5 7.5h153.399c4.14258 0 7.5 -3.35742 7.5 -7.5v-153.397
c0 -4.14258 -3.35742 -7.5 -7.5 -7.5zM278.5 318.598h-45v-57.0635l19.1465 9.57324c1.05469 0.527344 2.2041 0.791992 3.35352 0.791992s2.29785 -0.264648 3.35352 -0.791992l19.1465 -9.57324v57.0635zM186.801 318.598v-138.397h138.399v138.397h-31.7002v-69.1982
c0 -2.59961 -1.3457 -5.01367 -3.55664 -6.38086c-1.20508 -0.743164 -2.57227 -1.11914 -3.94336 -1.11914c-1.14648 0 -2.29492 0.262695 -3.35352 0.791992l-26.6465 13.3223l-26.6445 -13.3223c-2.3252 -1.16211 -5.08594 -1.03906 -7.29883 0.327148
c-2.21094 1.36719 -3.55664 3.78125 -3.55664 6.38086v69.1982h-31.6992zM276 219.342c4.14258 0 7.5 -3.35742 7.5 -7.5c0 -4.1416 -3.35742 -7.5 -7.5 -7.5h-40c-4.14258 0 -7.5 3.3584 -7.5 7.5c0 4.14258 3.35742 7.5 7.5 7.5h40z" />
    <glyph glyph-name="004-unlink" unicode="&#xf103;" 
d="M476.625 412.598c22.792 -22.792 35.3467 -53.1924 35.3467 -85.624c0 -32.4219 -12.5547 -62.832 -35.3467 -85.6143l-111.963 -111.964c-23.6016 -23.6016 -54.6084 -35.4023 -85.6143 -35.4023c-31.0068 0 -62.0127 11.8008 -85.6143 35.4023
c-7.27441 7.26562 -7.27441 19.0664 0 26.3408c7.27344 7.27344 19.0654 7.27344 26.3398 0c32.6924 -32.6738 85.8652 -32.6738 118.558 0l111.945 111.973c15.75 15.75 24.4307 36.7998 24.4307 59.2646c0 22.4746 -8.68066 43.5244 -24.4307 59.2744
s-36.7998 24.4307 -59.2744 24.4307c-22.4658 0 -43.5156 -8.68066 -59.2656 -24.4209l-85.6143 -85.6143c-7.27344 -7.27441 -19.0654 -7.27441 -26.3398 0c-7.27441 7.27344 -7.27441 19.0654 0 26.3398l85.6143 85.6143c47.2129 47.1846 124.025 47.2031 171.229 0z
M252.707 70.1309c7.27441 7.27441 19.0566 7.27441 26.3311 0s7.27441 -19.0654 0 -26.3398l-72.4443 -72.4443c-22.7822 -22.791 -53.1924 -35.3467 -85.6143 -35.3467c-32.4131 0 -62.8232 12.5557 -85.6045 35.3467c-22.792 22.7822 -35.3467 53.1924 -35.3467 85.6045
c0 32.4229 12.5547 62.833 35.3369 85.6152l105.379 105.388c47.2217 47.2031 124.034 47.1934 171.229 0c7.27441 -7.27441 7.27441 -19.0664 0 -26.3398c-7.27441 -7.27441 -19.0664 -7.27441 -26.3398 0c-15.75 15.7402 -36.7998 24.4209 -59.2656 24.4209
c-22.4746 0 -43.5244 -8.68066 -59.2744 -24.4209l-105.378 -105.379c-32.6826 -32.6826 -32.6826 -85.8662 0 -118.549c15.75 -15.75 36.8086 -24.4307 59.2744 -24.4307c22.4746 0 43.5244 8.68066 59.2744 24.4307z" />
    <glyph glyph-name="063-check" unicode="&#xf13e;" 
d="M450.585 379.448l61.415 -61.416l-313.48 -313.48l-198.52 198.521l61.415 61.415l137.104 -137.104z" />
    <glyph glyph-name="038-menu-2" unicode="&#xf125;" 
d="M490.667 241.776h-469.334c-11.7754 0 -21.333 9.55664 -21.333 21.333s9.55762 21.333 21.333 21.333h469.334c11.7754 0 21.333 -9.55664 21.333 -21.333s-9.55762 -21.333 -21.333 -21.333zM490.667 241.776zM490.667 405.333h-469.334
c-11.7754 0 -21.333 9.55762 -21.333 21.334c0 11.7754 9.55762 21.333 21.333 21.333h469.334c11.7754 0 21.333 -9.55762 21.333 -21.333c0 -11.7764 -9.55762 -21.334 -21.333 -21.334zM490.667 405.333zM490.667 78.2236h-469.334
c-11.7754 0 -21.333 9.55762 -21.333 21.334c0 11.7754 9.55762 21.333 21.333 21.333h469.334c11.7754 0 21.333 -9.55762 21.333 -21.333c0 -11.7764 -9.55762 -21.334 -21.333 -21.334zM490.667 78.2236z" />
    <glyph glyph-name="106-location-pin" unicode="&#xf169;" 
d="M290.107 251.841c-0.0625 -51.7744 -42.0195 -93.7275 -93.79 -93.79c-51.7988 0 -93.7891 41.9912 -93.7891 93.79s41.9902 93.7891 93.7891 93.7891c51.7949 0 93.79 -41.9902 93.79 -93.7891zM119.581 251.841c0.0458984 -42.3613 34.376 -76.6914 76.7363 -76.7373
c42.3779 0 76.7373 34.3555 76.7373 76.7373s-34.3594 76.7363 -76.7373 76.7363c-42.3818 0 -76.7363 -34.3545 -76.7363 -76.7363zM119.581 251.841zM0.211914 -12.8418c0 31.3076 76.0547 43.3477 122.583 47.748l-80.6592 95.8594
c-5.68262 7.21875 -10.8486 14.8252 -15.458 22.7686c-0.0625 0.0957031 -0.120117 0.195312 -0.169922 0.294922c-47.5322 82.3115 -29.1934 186.859 43.5137 248.075c72.707 61.2207 178.849 61.4873 251.863 0.632812
c73.0156 -60.8535 91.8789 -165.306 44.7598 -247.854c-0.220703 -0.50293 -0.483398 -0.986328 -0.791016 -1.44043l-0.424805 -0.616211c-4.23438 -7.23926 -8.93457 -14.1963 -14.0801 -20.8203l-81.1875 -96.8994c46.374 -4.44141 122.262 -16.5068 122.262 -47.748
c0 -40.4668 -128.282 -51.1582 -196.105 -51.1582c-67.8271 0 -196.105 10.6914 -196.105 51.1582zM55.3672 141.485l117.495 -139.526c0.166016 -0.146484 0.320312 -0.287109 0.482422 -0.441406c1.69043 -1.69922 3.20605 -3.38477 4.66309 -5.02539
c3.98828 -6.30762 11.1328 -9.89551 18.5723 -9.33398c8.19336 0.224609 15.7705 4.38867 20.3623 11.1787c1.05762 1.22754 2.02734 2.32715 2.88086 3.18066c0.154297 0.154297 0.316406 0.294922 0.470703 0.432617l117.807 140.556
c4.72559 6.12793 9.05566 12.5557 12.9609 19.2383c0.0332031 0.0742188 0.0791016 0.145508 0.125 0.211914c0.0703125 0.128906 0.136719 0.253906 0.21582 0.375c43.4521 75.25 26.5996 170.839 -39.9668 226.696c-66.5625 55.8545 -163.624 55.8545 -230.189 0
c-66.5664 -55.8574 -83.415 -151.446 -39.9639 -226.696l0.125 -0.212891v-0.0498047c4.17188 -7.17676 8.83887 -14.0547 13.96 -20.583zM136.213 18.9863v0.00878906c-82.9688 -6.43652 -118.948 -24.085 -118.948 -31.8369c0 -11.5693 63.1943 -34.1055 179.053 -34.1055
c115.854 0 179.053 22.5361 179.053 34.1055c0 7.72266 -35.8623 25.3418 -118.561 31.8281l-24.2637 -28.9883c-0.408203 -0.483398 -0.865234 -0.920898 -1.36523 -1.30371c-0.428711 -0.469727 -0.870117 -0.982422 -1.34863 -1.53613
c-7.79395 -10.5869 -20.1045 -16.9023 -33.252 -17.0527c-12.2988 -0.561523 -24.0596 5.08789 -31.3076 15.042c-1.02441 1.15723 -2.08203 2.35254 -3.23926 3.54688c-0.515625 0.375 -0.982422 0.8125 -1.39062 1.30371zM136.213 18.9863z" />
    <glyph glyph-name="123-left-arrow-2" unicode="&#xf17a;" 
d="M165.647 191.881l222.492 -222.492c7.37305 -7.63379 7.37305 -19.7383 0 -27.373c-7.55859 -7.82715 -20.0312 -8.04395 -27.8584 -0.485352l-236.421 236.422c-7.69043 7.69336 -7.69043 20.165 0 27.8584l236.421 236.421c7.69336 7.69043 20.1641 7.69043 27.8584 0
c7.69141 -7.69336 7.69141 -20.165 0 -27.8584z" />
    <glyph glyph-name="003-timetable" unicode="&#xf102;" 
d="M482 155.75c18.75 -23.1875 30 -52.6797 30 -84.75c0 -74.4375 -60.5625 -135 -135 -135c-46.707 0 -87.9453 23.8477 -112.195 60h-249.805c-8.28516 0 -15 6.71484 -15 15v391c0 8.28516 6.71484 15 15 15h76v16c0 8.28516 6.71484 15 15 15s15 -6.71484 15 -15v-16h60
v16c0 8.28516 6.71484 15 15 15s15 -6.71484 15 -15v-16h60v16c0 8.28516 6.71484 15 15 15s15 -6.71484 15 -15v-16h60v16c0 8.28516 6.71484 15 15 15s15 -6.71484 15 -15v-16h76c8.28516 0 15 -6.71484 15 -15v-246.25zM91 387h-61v-60h422v60h-61v-15
c0 -8.28516 -6.71484 -15 -15 -15s-15 6.71484 -15 15v15h-60v-15c0 -8.28516 -6.71484 -15 -15 -15s-15 6.71484 -15 15v15h-60v-15c0 -8.28516 -6.71484 -15 -15 -15s-15 6.71484 -15 15v15h-60v-15c0 -8.28516 -6.71484 -15 -15 -15s-15 6.71484 -15 15v15zM30 26
h219.723c-3.39062 9.55469 -5.73047 19.6016 -6.88281 30h-15.8398c-8.28516 0 -15 6.71484 -15 15s6.71484 15 15 15h15.8398c1.15234 10.3984 3.49609 20.4453 6.88281 30h-22.7227c-8.28516 0 -15 6.71484 -15 15s6.71484 15 15 15h30
c2.42969 0 4.71484 -0.589844 6.74219 -1.61328c24.0938 37.0547 65.8594 61.6133 113.258 61.6133c27.7305 0 53.5352 -8.41016 75 -22.8047v113.805h-422v-271zM377 -34c57.8984 0 105 47.1016 105 105s-47.1016 105 -105 105s-105 -47.1016 -105 -105
s47.1016 -105 105 -105zM377 -34zM437 86c8.28516 0 15 -6.71484 15 -15s-6.71484 -15 -15 -15h-60c-8.28516 0 -15 6.71484 -15 15v60c0 8.28516 6.71484 15 15 15s15 -6.71484 15 -15v-45h45zM437 86zM136 266c8.28516 0 15 -6.71484 15 -15s-6.71484 -15 -15 -15h-30
c-8.28516 0 -15 6.71484 -15 15s6.71484 15 15 15h30zM136 266zM136 206c8.28516 0 15 -6.71484 15 -15s-6.71484 -15 -15 -15h-30c-8.28516 0 -15 6.71484 -15 15s6.71484 15 15 15h30zM136 206zM136 146c8.28516 0 15 -6.71484 15 -15s-6.71484 -15 -15 -15h-30
c-8.28516 0 -15 6.71484 -15 15s6.71484 15 15 15h30zM136 146zM227 236c-8.28516 0 -15 6.71484 -15 15s6.71484 15 15 15h30c8.28516 0 15 -6.71484 15 -15s-6.71484 -15 -15 -15h-30zM227 236zM227 176c-8.28516 0 -15 6.71484 -15 15s6.71484 15 15 15h30
c8.28516 0 15 -6.71484 15 -15s-6.71484 -15 -15 -15h-30zM227 176zM136 86c8.28516 0 15 -6.71484 15 -15s-6.71484 -15 -15 -15h-30c-8.28516 0 -15 6.71484 -15 15s6.71484 15 15 15h30zM136 86zM347 236c-8.28516 0 -15 6.71484 -15 15s6.71484 15 15 15h30
c8.28516 0 15 -6.71484 15 -15s-6.71484 -15 -15 -15h-30zM347 236z" />
    <glyph glyph-name="007-trophy" unicode="&#xf106;" 
d="M497 411.047c8.28516 0 15 -6.71484 15 -15c0 -67.2109 -17.5625 -130.621 -49.457 -178.555c-31.5312 -47.3867 -73.5273 -74.5664 -118.891 -77.2109c-10.2852 -11.1914 -21.1602 -20.3203 -32.4844 -27.2773v-66.668h25.1641c30.4219 0 55.168 -24.75 55.168 -55.168
v-25.1641h1.06641c8.28516 0 15 -6.71875 15 -15c0 -8.28516 -6.71484 -15 -15 -15h-273.133c-8.28516 0 -15 6.71484 -15 15c0 8.28125 6.71484 15 15 15h1.06641v25.1641c0 30.418 24.7461 55.168 55.168 55.168h25.1641v66.668
c-11.3242 6.96094 -22.1953 16.0859 -32.4805 27.2773c-45.3672 2.64453 -87.3633 29.8242 -118.891 77.2109c-31.8945 47.9336 -49.4609 111.344 -49.4609 178.555c0 8.28516 6.71484 15 15 15h65.7031c-0.238281 7.27734 -0.371094 14.5977 -0.371094 21.9531
c0 8.28516 6.71875 15 15 15h321.336c8.28125 0 15 -6.71484 15 -15c0 -7.35547 -0.132812 -14.6758 -0.371094 -21.9531h65.7031zM74.4375 234.109c19.0234 -28.5938 42.1133 -48.2891 67.0625 -57.7109c-4.33984 7.11719 -8.52344 14.6758 -12.5234 22.6758
c-25.1172 50.2305 -41.1875 113.512 -46.5977 181.973h-52.0625c2.35547 -55.6914 17.8125 -107.402 44.1211 -146.938zM361.5 -8.83203c0 13.875 -11.2891 25.168 -25.168 25.168h-160.664c-13.8789 0 -25.168 -11.293 -25.168 -25.168v-25.168h211v25.168z
M281.168 46.3359v53.6328c-8.24609 -2.17188 -16.6484 -3.30078 -25.168 -3.30078s-16.9219 1.12891 -25.168 3.30078v-53.6328h50.3359zM290.457 135.656c11.7617 6.22266 23.1445 15.6094 33.9062 27.9531c0.5625 0.808594 1.20703 1.55859 1.91797 2.23828
c10.6797 12.6836 20.7305 28.2852 29.9102 46.6445c27.5625 55.125 43.4844 127.617 45.3008 205.508h-290.984c1.8125 -77.8906 17.7344 -150.379 45.3008 -205.508c9.17969 -18.3594 19.2305 -33.9609 29.9141 -46.6445
c0.707031 -0.679688 1.34375 -1.42578 1.91016 -2.23438c10.7617 -12.3398 22.1406 -21.7305 33.9023 -27.9492c0.683594 -0.285156 1.33594 -0.621094 1.96484 -1c10.5977 -5.26562 21.4883 -7.99609 32.5 -7.99609c11.0156 0 21.9102 2.73047 32.5117 8.00391
c0.621094 0.371094 1.26953 0.707031 1.94531 0.984375zM437.562 234.109c26.3086 39.5352 41.7656 91.2461 44.1211 146.938h-52.0625c-5.41406 -68.4609 -21.4805 -131.742 -46.5977 -181.973c-4 -8 -8.18359 -15.5586 -12.5234 -22.6758
c24.9492 9.42188 48.0391 29.1172 67.0625 57.7109zM437.562 234.109z" />
    <glyph glyph-name="085-cancel" unicode="&#xf154;" 
d="M437.01 373.01c48.377 -48.377 74.9902 -112.592 74.9902 -181.01s-26.6133 -132.633 -74.9902 -181.01s-112.592 -74.9902 -181.01 -74.9902s-132.633 26.6133 -181.01 74.9902s-74.9902 112.592 -74.9902 181.01s26.6133 132.633 74.9902 181.01
s112.592 74.9902 181.01 74.9902s132.633 -26.6133 181.01 -74.9902zM416.431 31.5693c88.458 88.458 88.458 232.403 0 320.861c-42.8818 42.8828 -99.8789 66.4785 -160.431 66.4785s-117.549 -23.5957 -160.431 -66.4785c-88.458 -88.458 -88.458 -232.403 0 -320.861
c42.8818 -42.8828 99.8789 -66.4785 160.431 -66.4785s117.549 23.5957 160.431 66.4785zM368.808 304.808c5.71094 -5.70996 5.71094 -14.8682 0 -20.5791l-92.2285 -92.2285l92.0137 -92.2285c5.70996 -5.71094 5.70996 -14.8691 0 -20.5791
c-2.80176 -2.90918 -6.46484 -4.31055 -10.2363 -4.31055c-3.66309 0 -7.43359 1.50879 -10.2354 4.31055l-92.2285 92.2285l-92.2295 -92.2285c-2.80078 -2.90918 -6.57227 -4.31055 -10.2354 -4.31055s-7.43457 1.50879 -10.2354 4.31055
c-5.71094 5.70996 -5.71094 14.8682 0 20.5791l92.2285 92.2285l-92.2285 92.2285c-5.71094 5.71094 -5.71094 14.8691 0 20.5791c5.70996 5.71094 14.8682 5.71094 20.5791 0l92.2285 -92.2285l92.2285 92.2285c5.71094 5.71094 14.8691 5.71094 20.5791 0z" />
    <glyph glyph-name="011-settings" unicode="&#xf10a;" 
d="M485.793 245.746c15.2939 -2.56738 26.418 -15.7227 26.2041 -31.2314v-45.0283c0 -15.5088 -11.124 -28.6641 -26.418 -31.2314l-35.9375 -5.98926c-3.63672 -11.9785 -8.55664 -23.6367 -14.4395 -34.8672l21.1777 -29.7334
c8.98438 -12.6211 7.4873 -29.8408 -3.42285 -40.751l-31.873 -31.8721c-5.98926 -5.99023 -13.9033 -9.30566 -22.3535 -9.30566v0c-6.63086 0 -13.0479 2.03223 -18.3965 5.88281l-29.626 21.1768c-11.124 -5.88184 -22.7822 -10.6953 -34.8682 -14.4385
l-6.09668 -35.9375c-2.56641 -15.2939 -15.7217 -26.418 -31.2305 -26.418h-45.1357c-15.5078 0 -28.6641 11.124 -31.2305 26.418l-5.99023 35.9375c-11.6582 3.63672 -22.9951 8.23535 -33.7979 13.9043l-30.0547 -21.3916
c-5.34766 -3.85059 -11.6582 -5.88184 -18.2891 -5.88184c-8.44922 0 -16.3643 3.31543 -22.3535 9.30469l-31.873 31.873c-11.0166 10.9092 -12.4062 28.1289 -3.42285 40.75l21.0703 29.3057c-5.98926 11.123 -10.9092 22.7812 -14.6523 34.7607l-36.3652 6.20312
c-15.2949 2.56738 -26.418 15.7227 -26.418 31.2314v45.0283c0 15.5088 11.123 28.6641 26.418 31.2305l35.5098 5.99023c3.63574 12.0859 8.3418 23.7441 14.2246 34.9746l-21.3906 30.0537c-8.98438 12.6211 -7.4873 29.8408 3.42188 40.751l31.9805 31.8721
c5.88184 5.99023 13.9033 9.30566 22.3535 9.30566c6.63086 0 13.0488 -2.03223 18.3965 -5.88281l29.4121 -21.1768c11.124 5.98926 22.7822 10.9092 34.7607 14.6523l6.2041 36.3652c2.56641 15.2949 15.7217 26.418 31.2305 26.418h45.0283
c15.5088 0 28.6641 -11.123 31.2314 -26.418l5.98926 -35.5098c12.5137 -3.74316 24.5996 -8.77051 36.1514 -14.8662l29.7334 21.1768c5.34766 3.85059 11.6582 5.88281 18.2891 5.88281c8.4502 0 16.3643 -3.31543 22.3545 -9.30566l31.8721 -31.8721
c11.0166 -10.9102 12.4072 -28.1299 3.42285 -40.75l-21.1768 -29.627c5.88184 -11.124 10.6953 -22.7812 14.4385 -34.8682zM483.333 169.486h0.106445v45.0283c0 1.39062 -0.962891 2.56738 -2.35254 2.78125l-44.9219 7.59375
c-5.56152 0.855469 -10.1602 5.02637 -11.5508 10.5879c-4.06445 15.7227 -10.2676 30.8037 -18.6104 44.8145c-2.8877 4.91992 -2.67383 11.124 0.641602 15.7227l26.418 37.1143c0.749023 1.17578 0.641602 2.67383 -0.321289 3.63574l-31.8721 31.873
c-0.749023 0.749023 -1.60449 0.855469 -2.03223 0.855469c-0.535156 0 -1.06934 -0.213867 -1.60449 -0.53418l-36.8994 -26.5254c-4.70605 -3.31543 -10.8027 -3.5293 -15.7227 -0.641602c-14.332 8.44922 -29.7334 14.7598 -45.8838 18.8242
c-5.5625 1.39062 -9.7334 5.98926 -10.6963 11.6582l-7.48633 44.6006c-0.213867 1.39062 -1.39062 2.35254 -2.78125 2.35254h-45.0283c-1.39062 0 -2.56641 -0.961914 -2.78027 -2.35254l-7.70117 -45.2422c-0.962891 -5.56152 -5.13379 -10.0537 -10.5889 -11.5518
c-15.7227 -4.06445 -30.8027 -10.4814 -44.707 -18.8242c-4.91992 -2.8877 -11.124 -2.67383 -15.8301 0.641602l-36.8994 26.3115c-0.427734 0.321289 -0.962891 0.535156 -1.60449 0.535156c-0.53418 0 -1.2832 -0.107422 -2.03223 -0.856445l-31.8721 -31.8721
c-0.962891 -0.962891 -1.07031 -2.56738 -0.321289 -3.63672l26.6318 -37.4346c3.31543 -4.59863 3.63672 -10.6953 0.749023 -15.6152c-8.23535 -14.0117 -14.332 -29.1992 -18.29 -44.9219c-1.38965 -5.56152 -5.98926 -9.73242 -11.6572 -10.6953l-44.6006 -7.4873
c-1.39062 -0.213867 -2.35352 -1.38965 -2.35352 -2.78027v-45.0283c0 -1.39062 0.962891 -2.56738 2.35352 -2.78125l45.2422 -7.7002c5.56152 -0.962891 10.0537 -5.13379 11.5508 -10.5889c4.06445 -15.7227 10.4814 -30.8037 18.8242 -44.708
c2.8877 -4.91992 2.67383 -11.123 -0.641602 -15.8291l-26.3115 -36.8994c-0.748047 -1.17676 -0.641602 -2.67383 0.321289 -3.63672l31.873 -31.873c0.748047 -0.748047 1.60449 -0.855469 2.03223 -0.855469c0.53418 0 1.06934 0.213867 1.60352 0.535156
l37.4346 26.6318c2.45996 1.81836 5.45508 2.67383 8.34277 2.67383c2.45996 0 5.02734 -0.641602 7.27344 -1.92578c13.7969 -7.91406 28.5566 -14.0107 43.8516 -17.9678c5.45508 -1.39062 9.62598 -5.88281 10.5889 -11.5518l7.48633 -44.9209
c0.213867 -1.39062 1.39062 -2.35352 2.78125 -2.35352h45.0283c1.39062 0 2.56641 0.962891 2.78027 2.35352l7.59473 44.9209c0.855469 5.56152 5.02637 10.1611 10.5879 11.5518c15.7227 4.06445 30.8037 10.2676 44.8145 18.6104
c4.91992 2.8877 11.124 2.67383 15.7227 -0.642578l37.1133 -26.418c0.428711 -0.320312 0.962891 -0.53418 1.60449 -0.53418c0.535156 0 1.28418 0.106445 2.03223 0.855469l31.873 31.873c0.962891 0.961914 1.06934 2.56641 0.321289 3.63574l-26.4189 37.2207
c-3.31543 4.70605 -3.5293 10.8027 -0.641602 15.7227c8.34277 14.0117 14.5459 29.0918 18.6104 44.8145c1.39062 5.45508 5.88281 9.62598 11.5518 10.5889l44.9209 7.48633c1.39062 0.213867 2.35352 1.39062 2.35352 2.78125zM256.052 302.539
c60.9648 0 110.485 -49.5205 110.485 -110.485s-49.5205 -110.485 -110.485 -110.485s-110.485 49.5205 -110.485 110.485s49.5205 110.485 110.485 110.485zM256.052 110.447c45.0283 0 81.6074 36.5781 81.6074 81.6064s-36.5791 81.6074 -81.6074 81.6074
s-81.6074 -36.5791 -81.6074 -81.6074s36.5791 -81.6064 81.6074 -81.6064z" />
    <glyph glyph-name="060-down-arrow-1" unicode="&#xf13b;" 
d="M505.744 324.411c8.34082 -8.34082 8.34082 -21.8242 0.000976562 -30.165l-234.662 -234.662c-4.16016 -4.15918 -9.62109 -6.25098 -15.082 -6.25098c-5.46191 0 -10.9229 2.0918 -15.083 6.25098l-234.662 234.662c-8.34082 8.34082 -8.34082 21.8242 0 30.165
s21.8232 8.34082 30.1641 0l219.579 -219.58l219.581 219.58c8.34082 8.34082 21.8232 8.34082 30.1641 0z" />
    <glyph glyph-name="153-shopping-bag-2" unicode="&#xf197;" 
d="M447.988 308.304l28 -368.004c0.0839844 -1.10742 -0.299805 -2.2041 -1.05664 -3.01953c-0.755859 -0.816406 -1.81934 -1.28027 -2.93164 -1.28027h-432c-1.1123 0 -2.17578 0.463867 -2.93164 1.28418c-0.760742 0.81543 -1.14062 1.91211 -1.05664 3.01953l28 368
c0.15625 2.08398 1.90039 3.69629 3.98828 3.69629h72v20c0 63.9639 52.04 116 116 116s116 -52.0361 116 -116v-20h72c2.08789 0 3.83203 -1.6123 3.98828 -3.69629zM172 332v-20h168v20c0 46.3164 -37.6797 84 -84 84s-84 -37.6836 -84 -84zM156 200
c22.0596 0 40 17.9443 40 40c0 15.832 -8 30.3242 -24 36.6357v-36.6357c0 -8.82422 -7.17969 -16 -16 -16s-16 7.17578 -16 16v36.6602c-16 -6.3125 -24 -20.6963 -24 -36.6602c0 -22.0557 17.9404 -40 40 -40zM356 200c22.0596 0 40 17.9443 40 40
c0 15.832 -8 30.3242 -24 36.6357v-36.6357c0 -8.82422 -7.17969 -16 -16 -16s-16 7.17578 -16 16v36.6602c-16 -6.3125 -24 -20.6963 -24 -36.6602c0 -22.0557 17.9404 -40 40 -40z" />
    <glyph glyph-name="089-link" unicode="&#xf158;" 
d="M270.635 226.041c5.62012 5.62109 14.7402 5.62109 20.2549 0c34.3594 -34.3594 34.3594 -90.3525 0 -124.712l-121.955 -121.955c-17.1797 -17.1797 -39.7676 -25.7705 -62.3564 -25.7705c-22.5879 0 -45.1768 8.59082 -62.3564 25.7705l-18.3457 18.3457
c-16.7559 16.6494 -25.876 38.8135 -25.876 62.3564s9.22656 45.707 25.876 62.3564l121.955 121.955c5.62012 5.62012 14.6348 5.62012 20.2549 0c5.62109 -5.62012 5.62109 -14.6348 0 -20.2549l-121.955 -121.955c-23.2246 -23.2246 -23.2246 -60.9785 0 -84.2021
l18.3467 -18.3467c23.2246 -23.2246 60.9775 -23.2246 84.2021 0l121.955 121.955c23.2246 23.2246 23.2246 60.9775 0 84.2021c-5.62109 5.62109 -5.62109 14.6348 0 20.2549zM486.23 386.28c16.6494 -16.6494 25.7695 -38.8135 25.7695 -62.3564
s-9.22656 -45.707 -25.876 -62.3564l-121.955 -121.955c-2.75684 -2.86328 -6.46875 -4.24219 -10.0742 -4.24219s-7.31738 1.48535 -10.0752 4.24219c-5.62012 5.62012 -5.62012 14.6348 0 20.2549l121.956 121.955c23.2236 23.2246 23.2236 60.9785 0 84.2021
l-18.3467 18.3467c-23.2246 23.2246 -60.9775 23.2246 -84.2021 0l-121.955 -121.955c-23.2246 -23.2246 -23.2246 -60.9775 0 -84.2021c5.62012 -5.62109 5.62012 -14.6348 0 -20.2549c-5.62109 -5.62109 -14.6348 -5.62109 -20.2559 0
c-34.3594 34.3594 -34.3594 90.3525 0 124.712l121.956 121.955c34.3594 34.3604 90.3525 34.3604 124.712 0z" />
    <glyph glyph-name="062-play" unicode="&#xf13d;" 
d="M473.343 214.322c8.03809 -4.55664 13.0557 -13.0557 13.0557 -22.3232c0 -9.2666 -5.01758 -17.7666 -13.0557 -22.3232l-409.599 -230.399c-3.8916 -2.20117 -8.24316 -3.27637 -12.5439 -3.27637c-4.45508 0 -8.90918 1.17773 -12.9023 3.48145
c-7.88477 4.6084 -12.6982 13.0049 -12.6982 22.1182v460.799c0 9.11328 4.81348 17.5107 12.6982 22.1182c7.83301 4.55664 17.5098 4.65918 25.4463 0.205078z" />
    <glyph glyph-name="044-tick-1" unicode="&#xf12b;" 
d="M506.232 372.492c7.68945 -7.69043 7.68945 -20.1582 0 -27.8496l-333.134 -333.137c-7.68945 -7.68848 -20.1621 -7.68652 -27.8496 0l-139.481 139.481c-7.68945 7.69141 -7.68945 20.1592 0 27.8496c7.69141 7.69043 20.1602 7.69043 27.8496 0l125.555 -125.557
l319.211 319.212c7.69141 7.68945 20.1602 7.68945 27.8496 0z" />
    <glyph glyph-name="084-shopping-bag" unicode="&#xf153;" 
d="M460.8 5.41797c0.104492 -0.417969 0.104492 -0.836914 0.104492 -1.25586c0 -37.5889 -34.4473 -68.1621 -76.8516 -68.1621h-256.105c-42.4043 0 -76.8516 30.5732 -76.8516 68.1621c0 0.418945 0.104492 0.837891 0.104492 1.25586l29.3164 330.131
c0.628906 7.3291 6.70117 12.8779 14.0303 12.8779h60.3096c0.837891 55.0742 45.8604 99.5732 101.144 99.5732s100.306 -44.499 101.144 -99.5732h60.3096c7.22461 0 13.4014 -5.54883 14.0303 -12.8779zM256 419.73c-39.6826 0 -72.0361 -31.8301 -72.874 -71.3037
h145.748c-0.837891 39.4736 -33.1914 71.3037 -72.874 71.3037zM384.053 -35.7305c26.4893 0 48.1631 17.5908 48.582 39.2646l-28.165 316.519h-47.3262v-42.9287c0 -7.85254 -6.28223 -14.1348 -14.1348 -14.1348s-14.1348 6.28223 -14.1348 14.1348v42.9287h-145.853
v-42.9287c0 -7.85254 -6.28223 -14.1348 -14.1348 -14.1348s-14.1348 6.28223 -14.1348 14.1348v42.9287h-47.3262l-28.0605 -316.519c0.418945 -21.6738 21.9873 -39.2646 48.582 -39.2646h256.105z" />
    <glyph glyph-name="073-play-1" unicode="&#xf148;" 
d="M208.035 104.022v87.9893c0 8.83594 7.16309 15.998 15.998 15.998s15.998 -7.16211 15.998 -15.998v-55.0742l70.0947 55.0732l-95.9766 75.4102c-6.94727 5.45996 -8.15332 15.5166 -2.69531 22.4639c5.45801 6.94824 15.5166 8.15332 22.4629 2.69531
l111.986 -87.9902c8.1543 -6.40625 8.13965 -18.7637 0 -25.1592l-111.986 -87.9873c-10.4062 -8.1748 -25.8818 -0.81543 -25.8818 12.5791zM496 174.987c-8.94434 0 -16.0947 7.30469 -16 16.1689c0.00585938 0.572266 0.00585938 1.13867 0 1.70898
c-0.09375 8.83496 6.99121 16.0732 15.8262 16.168c8.63672 0.146484 16.0723 -6.85156 16.168 -15.8262c0.00878906 -0.799805 0.00878906 -1.5918 0 -2.39258c-0.09375 -8.77637 -7.23828 -15.8271 -15.9941 -15.8271zM75.0293 11.0137
c-100.032 100.032 -100.047 261.947 0 361.993c57.4707 57.4727 136.354 82.584 212.994 72.9736c110.884 -13.8945 194.608 -96.3721 217.53 -196.763c1.9668 -8.61426 -3.42188 -17.1914 -12.0352 -19.1582c-8.61328 -1.96582 -17.1914 3.42188 -19.1582 12.0361
c-20.0918 87.999 -93.5264 160.009 -190.316 172.137c-134.293 16.834 -251.99 -87.7061 -251.99 -222.223c0 -156.267 155.078 -262.039 298.867 -211.137c70.9727 25.0996 126.479 85.6426 143.601 161.759c1.93945 8.62012 10.501 14.0312 19.1191 12.0977
c8.61914 -1.93945 14.0361 -10.499 12.0967 -19.1201c-43.8955 -195.142 -287.716 -267.588 -430.708 -124.596z" />
    <glyph glyph-name="119-pin" unicode="&#xf176;" 
d="M256 448c104.291 0 189.135 -84.8438 189.135 -189.135c0 -34.3447 -15.3867 -71.2705 -16.0312 -72.8174c-4.97363 -11.8047 -14.7754 -30.1396 -21.8623 -40.8867l-129.691 -196.5c-5.30664 -8.04395 -13.1611 -12.6611 -21.5498 -12.6611
s-16.2432 4.61719 -21.5498 12.6719l-129.681 196.489c-7.0752 10.7471 -16.8887 29.082 -21.8613 40.8867c-0.645508 1.55762 -16.043 38.4834 -16.043 72.8174c0 104.291 84.8438 189.135 189.135 189.135zM408.588 194.682
c0.144531 0.333008 14.2959 34.4111 14.2959 64.1836c0 92.0195 -74.8643 166.884 -166.884 166.884s-166.884 -74.8643 -166.884 -166.884c0 -29.7275 14.1182 -63.7168 14.3076 -64.1729c4.43848 -10.5801 13.5732 -27.6475 19.9258 -37.2822l129.691 -196.5
c2.55859 -3.88281 3.37109 -3.88281 5.92969 0l129.691 196.5c6.35254 9.63477 15.4863 26.6904 19.9258 37.2715zM256 358.984c55.2168 0 100.131 -44.9258 100.131 -100.131s-44.9141 -100.13 -100.131 -100.13s-100.131 44.9248 -100.131 100.13
s44.9141 100.131 100.131 100.131zM256 180.975c42.9336 0 77.8789 34.9346 77.8789 77.8789c0 42.9453 -34.9453 77.8789 -77.8789 77.8789s-77.8789 -34.9336 -77.8789 -77.8789c0 -42.9443 34.9453 -77.8789 77.8789 -77.8789z" />
    <glyph glyph-name="125-right-arrow-3" unicode="&#xf17c;" 
d="M486.471 199.881c4.3623 -4.36426 4.3623 -11.3975 0.0214844 -15.7607l-244.87 -244.87c-2.0918 -2.07031 -4.91992 -3.25 -7.87988 -3.25h-200.348c-4.49609 0 -8.54785 2.71582 -10.2842 6.87891s-0.780273 8.94824 2.40332 12.1318l237.012 236.988l-237.012 236.99
c-3.16016 3.20508 -4.11816 7.96973 -2.40332 12.1318c1.71387 4.16309 5.78809 6.87891 10.2842 6.87891h200.348c2.96094 0 5.78809 -1.17969 7.8584 -3.25z" />
    <glyph glyph-name="104-menu-3" unicode="&#xf167;" 
d="M16 336c-8.83105 0 -16 7.16699 -16 16c0 8.83203 7.16895 15.999 16 15.999h479.999c8.83105 0 16 -7.16699 16 -15.999c0 -8.83105 -7.16797 -16 -16 -16h-479.999zM495.999 208c8.83203 0 16 -7.16895 16 -16s-7.16797 -16 -16 -16h-479.999
c-8.83105 0 -16 7.16895 -16 16s7.16699 16 16 16h479.999zM495.999 48c8.83203 0 16.001 -7.16699 16 -16c0 -8.83105 -7.16797 -15.999 -16 -15.999h-479.999c-8.83105 0 -16 7.16699 -16 15.999c0 8.83105 7.16699 16 16 16h479.999z" />
    <glyph glyph-name="127-quote-3" unicode="&#xf17e;" 
d="M0 155.429v219.428h219.429v-219.428l-73.1436 -146.285h-109.714l73.1426 146.285h-109.714zM292.571 374.856h219.429v-219.428l-73.1436 -146.285h-109.714l73.1436 146.285h-109.715v219.428z" />
    <glyph glyph-name="099-planet-earth" unicode="&#xf162;" 
d="M437.019 373.019c48.3525 -48.3516 74.9814 -112.639 74.9814 -181.019s-26.6289 -132.667 -74.9814 -181.019c-48.3506 -48.3525 -112.639 -74.9814 -181.019 -74.9814s-132.667 26.6289 -181.019 74.9814c-48.3525 48.3516 -74.9814 112.639 -74.9814 181.019
s26.6289 132.667 74.9814 181.019c48.3516 48.3525 112.639 74.9814 181.019 74.9814s132.668 -26.6289 181.019 -74.9814zM375.98 337.969c-2.28809 -9.50391 -10.3574 -16.5596 -20.0801 -17.5596l-51.1045 -5.2627
c-0.0722656 -0.00878906 -0.139648 -0.0390625 -0.19043 -0.0888672l-33.9561 -32.043c-2.76367 -2.60742 -6.16504 -4.50977 -9.83887 -5.5l-27.7656 -7.4834c-0.113281 -0.0322266 -0.170898 -0.0625 -0.18457 -0.0712891
c-0.0537109 -0.0732422 -0.0869141 -0.335938 -0.0419922 -0.44043v0.00195312c0.00488281 0 0.0546875 -0.0439453 0.148438 -0.0966797c0.0439453 -0.0244141 0.09375 -0.0400391 0.144531 -0.0429688l92.4863 -5.06348
c8.67773 -0.474609 16.2715 -5.69922 19.8164 -13.6357l3.05469 -6.83789c4.45117 -9.96777 1.24219 -21.8174 -7.62988 -28.1768l-32.9316 -23.6045c-4.625 -3.31543 -10.2783 -4.80469 -15.9443 -4.18848l-49.7061 5.40332
c-2.19727 0.238281 -4.34766 0.791992 -6.39062 1.64258l-35.8887 14.9717c-0.108398 0.0439453 -0.232422 0.0302734 -0.326172 -0.0410156l-37.0371 -27.9443c-0.0693359 -0.0517578 -0.114258 -0.128906 -0.126953 -0.214844l-6.06738 -40.3369
c-0.00976562 -0.0732422 0.00292969 -0.150391 0.0410156 -0.21582l24.1221 -41.5908c0.0537109 -0.0947266 0.150391 -0.155273 0.256836 -0.164062l42.4023 -3.6875c8.83008 -0.767578 16.5361 -6.63086 19.6318 -14.9395l9.26465 -24.8682
c0.380859 -1.02441 10.5723 -47.2686 10.5723 -47.2686c0.0195312 -0.0888672 0.0761719 -0.166992 0.15625 -0.213867l21.0059 -12.3057c0.126953 -0.0742188 0.291992 -0.0546875 0.399414 0.0507812l32.3945 31.7529
c0.0605469 0.0585938 0.0957031 0.137695 0.0986328 0.220703l2.11133 52.793c0.168945 4.20312 1.4834 8.28027 3.79688 11.7891l24.3262 36.875c0.0888672 0.133789 0.0683594 0.311523 -0.0498047 0.421875l-14.9258 13.9668
c-5.6377 5.27441 -8.25781 12.9707 -7.00977 20.5859l2.20801 13.4932c1.26074 7.70703 6.27637 14.2002 13.4141 17.3701c7.13867 3.1709 15.3193 2.5332 21.8818 -1.70215l28.6201 -18.4658c0.138672 -0.0898438 0.322266 -0.0615234 0.429688 0.0605469l10.6172 12.2109
c0.0673828 0.0751953 0.114258 0.130859 0.0722656 0.296875c-0.0419922 0.167969 -0.110352 0.192383 -0.204102 0.227539l-0.807617 0.302734c-8.64355 3.24512 -14.3623 10.9824 -14.9297 20.1934c-0.568359 9.21191 4.15723 17.5928 12.333 21.873l17.0459 8.92383
c7.83789 4.10547 17.4775 3.32617 24.5576 -1.9834l13.6592 -10.2432c0.0859375 -0.0644531 0.142578 -0.106445 0.307617 -0.046875c0.166992 0.0585938 0.18457 0.126953 0.208984 0.230469l2.28711 9.21777c2.1582 8.70312 9.24316 15.4189 18.0459 17.1123
l5.89551 1.13379c-14.9746 53.5322 -48.6104 99.3467 -93.4229 129.958zM202.878 356.756c-0.145508 -0.27832 -1.30078 -2.90723 0.198242 -4.5752c0.386719 -0.429688 1.21387 -1.16895 2.55273 -1.10938c0.881836 0.0380859 1.71582 0.442383 2.28906 1.1123
l42.1572 49.2744c2.70996 3.16602 6.18555 5.65918 10.0518 7.21094l27.0566 10.8535c0.473633 0.188477 3.20996 3.18066 3.20996 3.18066c-11.2275 1.66602 -22.7109 2.54102 -34.3945 2.54102c-11.585 0 -22.9707 -0.861328 -34.1084 -2.50098l2.59473 -12.6455
c1.20996 -5.89453 0.319336 -12.0684 -2.50293 -17.3838zM103.424 368.282c-35.7832 -31.0146 -62.0488 -72.7207 -73.8096 -120.093l22.2334 32.5791c3.8125 5.58789 8.625 10.2861 14.3027 13.9727l24.4971 15.8955c7.99707 5.18848 12.7764 13.9717 12.7764 23.5059
v34.1396zM118.295 32.415c0.205078 1.66113 -0.420898 3.33398 -1.66113 4.46094l-28.4785 25.9746c-1.79785 1.63867 -3.36816 3.50488 -4.68848 5.55273l-29.2744 45.6133c-0.956055 1.49023 -2.59473 2.38965 -4.36914 2.38965h-14.4863
c15.1729 -44.1719 43.2627 -82.3887 79.7354 -110.13zM256 -41.2441c128.611 0 233.244 104.632 233.248 233.241c0 13.832 -1.21777 27.3838 -3.54102 40.5605l-6.64746 -1.27734c-0.126953 -0.0244141 -0.227539 -0.121094 -0.257812 -0.245117l-2.28711 -9.2168
c-1.86816 -7.53418 -7.34961 -13.5859 -14.6611 -16.1895s-15.3848 -1.37891 -21.5947 3.2793l-13.6592 10.2432c-0.100586 0.0751953 -0.236328 0.0869141 -0.349609 0.0273438l-17.0459 -8.9248c-0.0966797 -0.0507812 -0.145508 -0.0908203 -0.155273 -0.100586
c-0.0429688 -0.0839844 -0.0292969 -0.342773 0.0341797 -0.428711c0.00195312 0 0.0537109 -0.0332031 0.158203 -0.0722656l0.807617 -0.303711c7.08105 -2.65723 12.4121 -8.62012 14.2686 -15.9473c1.85449 -7.32812 0.000976562 -15.1094 -4.96094 -20.8135
l-10.6182 -12.2109c-7.48535 -8.60742 -20.3545 -10.4307 -29.9365 -4.24805l-28.6182 18.4658c-0.0947266 0.0605469 -0.152344 0.0976562 -0.311523 0.0244141c-0.164062 -0.0732422 -0.172852 -0.138672 -0.191406 -0.248047l-2.20996 -13.4941
c-0.0166016 -0.109375 0.0205078 -0.21875 0.100586 -0.293945l14.9268 -13.9668c8.24121 -7.70996 9.71289 -20.1455 3.5 -29.5674l-24.3271 -36.875c-0.0351562 -0.0478516 -0.0527344 -0.107422 -0.0546875 -0.168945l-2.11133 -52.7891
c-0.236328 -5.90137 -2.68848 -11.4287 -6.90918 -15.5645l-32.3945 -31.7529c-4.42383 -4.33496 -10.2783 -6.58887 -16.1836 -6.58887c-4 0 -8.02441 1.0332 -11.6445 3.1543l-21.0068 12.3057c-5.54297 3.24902 -9.50977 8.71191 -10.8828 14.9873l-9.65234 44.1416
l-9.27734 24.9121c-0.0439453 0.120117 -0.154297 0.203125 -0.279297 0.214844l-42.4033 3.6875c-7.48438 0.652344 -14.2021 4.91992 -17.9697 11.418l-24.123 41.5938c-2.61914 4.51758 -3.63574 9.84961 -2.85938 15.0137l6.06836 40.3379
c0.902344 6.00879 4.07129 11.334 8.92188 14.9941l37.0381 27.9453c6.52148 4.91895 15.2539 6.02344 22.793 2.87598l35.8838 -14.9697l49.7959 -5.4248c0.0830078 -0.00878906 0.160156 0.0117188 0.226562 0.0595703l32.9316 23.6055
c0.12793 0.0908203 0.173828 0.260742 0.110352 0.40332l-3.05469 6.83594c-0.0498047 0.112305 -0.15918 0.1875 -0.282227 0.194336l-92.4863 5.06445c-3.57031 0.196289 -7.09961 1.23828 -10.2041 3.01367c-8.14453 4.66211 -12.6299 13.6855 -11.4297 22.9902
c1.19922 9.30469 7.82812 16.8955 16.8877 19.3369l27.7666 7.48438c0.0546875 0.0126953 0.101562 0.0410156 0.140625 0.0761719l33.9561 32.0439c3.66895 3.46387 8.45605 5.65527 13.4775 6.17383l51.1074 5.2627c0.138672 0.0136719 0.254883 0.115234 0.286133 0.25
c0 0 12.8789 53.2002 13.1426 53.8037c-16.0039 8.69629 -33.1396 15.5605 -51.1172 20.3398l-10.2129 -11.875c-2.70215 -3.1416 -6.16309 -5.61816 -10.0107 -7.16113l-27.0557 -10.8525c-0.473633 -0.189453 -0.902344 -0.49707 -1.23535 -0.886719l-42.1562 -49.2715
c-8.36816 -9.61426 -19.3691 -9.07812 -19.7383 -9.07812c-7.58398 0 -14.7021 3.2627 -19.6699 9.05762c-5.20996 6.07617 -7.30762 14.0635 -5.75684 21.916c0 0 1.54688 5.9043 2.74121 8.14844l19.1016 35.957c0.347656 0.652344 0.456055 1.41113 0.308594 2.13672
l-2.62598 12.8008c-26.541 -6.62012 -51.3008 -17.7891 -73.3896 -32.6436v-51.543c0 -17.2705 -8.65918 -33.1992 -23.1533 -42.5977l-24.4854 -15.8828c-3.13965 -2.03613 -5.79102 -4.62988 -7.89648 -7.72559l-47.8145 -70.0684
c-0.0478516 -1.9502 -0.0742188 -3.9043 -0.0742188 -5.86621c0 -18.166 2.08984 -35.8535 6.03809 -52.8379h21.0303c9.55664 0 18.3516 -4.80176 23.5176 -12.8574l29.2754 -45.6123c0.250977 -0.375977 29.3545 -27 29.3545 -27
c6.67969 -6.08691 10.0137 -15.0869 8.90918 -24.0645l-4.64648 -37.7002c35.0303 -21.0488 76.0078 -33.1719 119.767 -33.1719z" />
    <glyph glyph-name="075-trophy-1" unicode="&#xf14a;" 
d="M364.373 130.986c-4.9707 0 -9.40723 3.47754 -10.4316 8.5332c-1.17383 5.78223 2.53906 11.4141 8.32031 12.5654c62.0801 12.6514 126.229 94.3154 129.962 210.561h-76.2236c-5.8877 0.0214844 -10.667 4.7998 -10.667 10.6875
c0 5.88867 4.7793 10.667 10.667 10.667h87.04c5.8877 0 10.667 -4.77832 10.667 -10.667c0 -137.792 -75.8408 -227.584 -147.2 -242.133c-0.725586 -0.12793 -1.42969 -0.213867 -2.13379 -0.213867zM147.435 131.413c-0.767578 0 -1.55762 0.0859375 -2.34668 0.255859
c-70.3359 15.7871 -145.088 105.835 -145.088 241.664c0 5.88867 4.77832 10.667 10.667 10.667h85.333c5.8877 0 11.5195 -4.77832 11.5195 -10.667c0 -5.8877 -3.9248 -10.666 -9.8125 -10.666h-76.2031c3.71191 -114.646 67.0078 -196.438 128.234 -210.177
c5.76074 -1.30078 9.36523 -6.99707 8.06445 -12.7354c-1.08789 -4.9707 -5.48242 -8.3418 -10.3682 -8.3418zM288 0h-64c-5.8877 0 -10.667 4.77832 -10.667 10.667v77.6533c0 5.8877 4.7793 10.666 10.667 10.666s10.667 -4.77832 10.667 -10.666v-66.9873h42.666v66.9873
c0 5.8877 4.7793 10.666 10.667 10.666s10.667 -4.77832 10.667 -10.666v-77.6533c0 -5.88867 -4.7793 -10.667 -10.667 -10.667zM352 -64h-192c-5.8877 0 -10.667 4.77832 -10.667 10.667v21.333c0 29.3975 23.9365 53.333 53.334 53.333h106.666
c29.3975 0 53.334 -23.9355 53.334 -53.333v-21.333c0 -5.88867 -4.7793 -10.667 -10.667 -10.667zM170.667 -42.667h170.666v10.667c0 17.6426 -14.3574 32 -32 32h-106.666c-17.6426 0 -32 -14.3574 -32 -32v-10.667zM256 64
c-1.15234 0 -2.28223 0.192383 -3.3916 0.554688c-6.80566 2.28223 -166.379 57.3018 -167.275 191.381v160.064c0 17.6426 14.3574 32 32 32h277.334c17.6426 0 32 -14.3574 32 -32v-160c0 -134.144 -160.448 -189.184 -167.296 -191.445
c-1.08887 -0.362305 -2.24023 -0.554688 -3.37109 -0.554688zM117.333 426.667c-5.8877 0 -10.666 -4.7793 -10.666 -10.667v-160c0.724609 -108.672 126.891 -161.45 149.333 -169.984c22.5283 8.5127 149.333 61.2695 149.333 169.984v160
c0 5.8877 -4.77832 10.667 -10.666 10.667h-277.334z" />
    <glyph glyph-name="135-microsoft-word-document-file" unicode="&#xf186;" 
d="M355.866 448l89.3506 -97.0869v-383.509c0 -17.3252 -14.0762 -31.4033 -31.3936 -31.4033h-315.648c-17.2998 0 -31.3926 14.0781 -31.3926 31.4033v449.197c0 17.2988 14.0938 31.3984 31.3926 31.3984h257.691zM363.275 401.016v-42.5635h39.1641zM418.852 -32.5967
h-0.000976562v364.696h-68.7598c-7.27344 0 -13.1963 5.89355 -13.1963 13.1631v76.3574h-238.72c-2.77539 0 -5.02637 -2.24707 -5.02637 -5.01855v-449.198c0 -2.76562 2.25098 -5.03613 5.02637 -5.03613h315.635c2.77734 0 5.04199 2.27051 5.04199 5.03613z
M143.462 272.779l-27.5156 108.445h19.9883l12.7168 -54.1768c1.79004 -7.56641 3.51367 -15.2383 4.99609 -22.3223c1.69141 7.27051 3.72559 14.9863 5.73535 22.5469l14.2773 53.9473h18.3467l13.0225 -54.3232c1.68848 -7.09082 3.36621 -14.4082 4.78125 -21.4795
c1.45703 6.29297 3.07227 12.749 4.73145 19.3994l0.611328 2.41211l14.1318 53.9844h19.5801l-30.7344 -108.445h-18.3154l-13.4863 55.6768c-1.66504 6.84277 -3.12207 13.1133 -4.32422 19.25c-1.40625 -6.1123 -3.0459 -12.3662 -5.05176 -19.3594l-15.1924 -55.5674
h-18.2998v0.0117188h0.000976562zM263.958 295.828h117.991c5.45508 0 9.87891 -4.42676 9.87891 -9.87793c0 -5.45312 -4.42383 -9.87793 -9.87891 -9.87793h-117.991c-5.45312 0 -9.87793 4.4248 -9.87793 9.87793c0.000976562 5.4502 4.42578 9.87793 9.87793 9.87793z
M391.829 219.991c0 -5.45312 -4.42383 -9.87793 -9.87793 -9.87793h-245.583c-5.45312 0 -9.87793 4.4248 -9.87793 9.87793c0 5.4541 4.42383 9.87793 9.87793 9.87793h245.583c5.45312 0 9.87793 -4.4248 9.87793 -9.87793zM391.829 161.547
c0 -5.45312 -4.42383 -9.87793 -9.87793 -9.87793h-245.583c-5.45312 0 -9.87793 4.4248 -9.87793 9.87793c0 5.4541 4.42383 9.87793 9.87793 9.87793h245.583c5.45312 0 9.87793 -4.4248 9.87793 -9.87793zM391.829 103.103
c0 -5.4541 -4.42383 -9.87793 -9.87793 -9.87793h-245.583c-5.45312 0 -9.87793 4.42383 -9.87793 9.87793c0 5.45312 4.42383 9.87793 9.87793 9.87793h245.583c5.45312 0 9.87793 -4.4248 9.87793 -9.87793zM391.829 43.834
c0 -5.4541 -4.42383 -9.87793 -9.87793 -9.87793h-245.583c-5.45312 0 -9.87793 4.42383 -9.87793 9.87793s4.42383 9.87793 9.87793 9.87793h245.583c5.45312 0 9.87793 -4.42383 9.87793 -9.87793z" />
    <glyph glyph-name="040-plus" unicode="&#xf127;" 
d="M287.943 223.943h224.057v-63.8867h-224.057v-224.057h-63.8867v224.057h-224.057v63.8867h224.057v224.057h63.8867v-224.057z" />
    <glyph glyph-name="131-right-arrow-2" unicode="&#xf182;" 
d="M292.428 -27.4287l-25.8574 25.7139l175.429 175.429h-441.999v36.5723h442l-175.357 175.357l25.8574 25.7852l219.499 -219.429z" />
    <glyph glyph-name="023-pdf" unicode="&#xf116;" 
d="M494.479 309.443c1.76562 -1.83496 2.75293 -4.28223 2.75293 -6.82812v-327.265c0 -21.6973 -17.7012 -39.3506 -39.458 -39.3506h-295.238c-21.7568 0 -39.458 17.6631 -39.458 39.373v88.627h-78.7871c-16.2783 0 -29.5215 13.2393 -29.5215 29.5117v147.744
c0 16.2744 13.2432 29.5127 29.5215 29.5127h78.7871v137.789c0 21.748 17.7012 39.4424 39.458 39.4424h194.41c2.67578 0 5.2373 -1.08984 7.09473 -3.01758zM359.385 421.419v-111.265h107.079zM44.29 83.6924h265.882c5.41895 0 9.82812 4.4043 9.82812 9.81934v147.744
c0 5.41504 -4.4082 9.82129 -9.82812 9.82129h-265.882c-5.41895 0 -9.82812 -4.40625 -9.82812 -9.82129v-147.744c0 -5.41504 4.4082 -9.81934 9.82812 -9.81934zM477.538 -24.6494v315.111h-128c-5.4375 0 -9.8457 4.4082 -9.8457 9.8457v128h-177.157
c-10.8994 0 -19.7666 -8.8584 -19.7666 -19.75v-137.789h167.403c16.2783 0 29.5215 -13.2383 29.5215 -29.5127v-147.744c0 -16.2725 -13.2432 -29.5117 -29.5215 -29.5117h-167.403v-88.6279c0 -10.8525 8.86719 -19.6797 19.7666 -19.6797h295.237
c10.8984 0 19.7656 8.81836 19.7656 19.6582zM132.481 198.106c3.26855 -4.25 4.90332 -9.74023 4.9043 -16.4717c0 -5.19141 -0.941406 -9.55762 -2.82715 -13.0957c-1.88477 -3.53809 -4.27832 -6.31738 -7.18262 -8.33594
c-2.9043 -2.02051 -5.85645 -3.35645 -8.85645 -4.00977c-4.07617 -0.808594 -9.98047 -1.21191 -17.7119 -1.21191h-11.1348v-31.9043h-17.0771v84.5771h27.4043c10.3848 0 17.1543 -0.422852 20.3076 -1.26953c4.84668 -1.26855 8.9043 -4.02832 12.1738 -8.27832z
M117.856 174.827c1.28711 1.88477 1.93262 4.07715 1.93164 6.57715c0 3.07617 -0.904297 5.61426 -2.71191 7.61426s-4.0957 3.25 -6.86523 3.75c-2.03809 0.385742 -6.13379 0.577148 -12.2881 0.577148h-8.25v-24h9.3457c6.73145 0 11.2305 0.442383 13.5 1.32715
c2.27051 0.884766 4.0498 2.26953 5.33789 4.1543zM219.481 184.548c1.8457 -5.4043 2.76855 -12.0664 2.76855 -19.9902c0 -6.96094 -0.865234 -12.9609 -2.5957 -18c-2.11621 -6.15332 -5.13574 -11.1338 -9.05859 -14.9414
c-2.96094 -2.88477 -6.96094 -5.13477 -12 -6.75c-3.76855 -1.19336 -8.80664 -1.78906 -15.1143 -1.78906h-32.1357v84.5771h31.2119c7.03809 0 12.4043 -0.538086 16.0967 -1.61523c4.96094 -1.46191 9.21191 -4.05762 12.75 -7.78906s6.23047 -8.29785 8.07715 -13.7021z
M202.865 149.817c1.15332 3.78906 1.73047 8.95117 1.73047 15.4893c0 6.53906 -0.577148 11.5586 -1.73047 15.0586c-1.1543 3.5 -2.76953 6.22949 -4.84668 8.19141c-2.07617 1.96191 -4.71191 3.28906 -7.90332 3.98145
c-2.38379 0.539062 -7.05859 0.807617 -14.0195 0.807617h-7.67285v-56.0186v0h12.75c4.76953 0 8.21191 0.268555 10.3271 0.807617c2.76855 0.692383 5.06738 1.86523 6.89355 3.51953c1.82715 1.65234 3.31738 4.37402 4.47168 8.16309zM294.827 193.346h-40.9043
v-20.0186h35.3086v-14.3086h-35.3086v-35.9414h-17.0771v84.5771h57.9814v-14.3086z" />
    <glyph glyph-name="056-chat-bubble" unicode="&#xf137;" 
d="M16 -64c-4.1709 0 -8.26562 1.64062 -11.3125 4.6875c-4.3125 4.3125 -5.79688 10.7188 -3.82812 16.4844l35.4531 103.719c-23.7812 39.7666 -36.3125 84.9219 -36.3125 131.109c0 141.156 114.844 256 256 256s256 -114.844 256 -256s-114.844 -256 -256 -256
c-46.1875 0 -91.3438 12.5312 -131.109 36.3125l-103.719 -35.4521c-1.6875 -0.578125 -3.4375 -0.859375 -5.17188 -0.860352zM126.875 5.90723c3.0166 0 6.0166 -0.859375 8.625 -2.5166c36.1729 -23.1553 77.8438 -35.3906 120.5 -35.3906c123.515 0 224 100.484 224 224
s-100.485 224 -224 224s-224 -100.484 -224 -224c0 -42.6562 12.2344 -84.3271 35.3906 -120.5c2.625 -4.10938 3.23438 -9.1875 1.65723 -13.7969l-27.3594 -80.0146l80.0146 27.3594c1.6875 0.578125 3.4375 0.859375 5.17188 0.859375z" />
    <glyph glyph-name="116-chat-3" unicode="&#xf173;" 
d="M85.333 230.698c-4.71875 0 -8.5332 3.82324 -8.5332 8.53418c0 4.70996 3.81445 8.5332 8.5332 8.5332h110.934c4.71875 0 8.5332 -3.82324 8.5332 -8.5332c0 -4.71094 -3.81445 -8.53418 -8.5332 -8.53418h-110.934zM307.2 196.565
c4.71875 0 8.5332 -3.82324 8.5332 -8.5332c0 -4.71094 -3.81445 -8.5332 -8.5332 -8.5332h-221.867c-4.71875 0 -8.5332 3.82227 -8.5332 8.5332c0 4.70996 3.81445 8.5332 8.5332 8.5332h221.867zM307.2 145.365c4.71875 0 8.5332 -3.82324 8.5332 -8.5332
s-3.81445 -8.5332 -8.5332 -8.5332h-221.867c-4.71875 0 -8.5332 3.82324 -8.5332 8.5332s3.81445 8.5332 8.5332 8.5332h221.867zM461.414 426.368c27.8955 -0.00878906 50.5859 -22.707 50.5859 -50.6025v-180.421c0 -27.8955 -22.6982 -50.5938 -50.6025 -50.5938
h-9.13086v-85.333c0 -3.52441 -2.16699 -6.69043 -5.46094 -7.96191c-0.999023 -0.383789 -2.04004 -0.572266 -3.07227 -0.572266c-2.35547 0 -4.66797 0.981445 -6.31445 2.79102l-44.8857 49.374v-0.964844c0 -27.8955 -22.6982 -50.5938 -50.6025 -50.5938
l-141.875 -0.580078l-82.8076 -91.0938c-1.64746 -1.80859 -3.95996 -2.79004 -6.31445 -2.79004c-1.0332 0 -2.07422 0.1875 -3.07227 0.571289c-3.29395 1.27148 -5.46094 4.4375 -5.46094 7.96191v85.333h-51.7979c-27.9043 0 -50.6025 22.6904 -50.6025 50.5947v180.402
c0 27.9043 22.6982 50.6035 50.6025 50.6035l68.8643 0.144531v43.7246c0 27.9043 22.6982 50.6035 50.6025 50.6035zM375.467 102.093v23.0488v157.363c0 18.4912 -15.0439 33.5361 -33.5361 33.5361l-213.914 -0.444336h-0.0166016v0l-77.3799 -0.162109
c-18.5088 0 -33.5537 -15.0439 -33.5537 -33.5361v-180.403c0 -18.4824 15.0449 -33.5273 33.5361 -33.5273h60.3311c4.71875 0 8.5332 -3.82227 8.5332 -8.5332v-71.7998l70.4854 77.543c1.60449 1.7666 3.89062 2.78125 6.28027 2.79004l145.664 0.597656
c18.5264 0 33.5703 15.0352 33.5703 33.5273zM494.934 195.362h0.0078125v180.411c0 18.4922 -15.0439 33.5361 -33.5352 33.5361h-0.0175781l-291.336 0.597656c-18.4756 0 -33.5195 -15.0439 -33.5195 -33.5361v-43.6904l205.381 0.417969
c27.9209 0 50.6191 -22.6982 50.6191 -50.6025v-154.061l42.667 -46.9336v71.7998c0 4.70996 3.81445 8.5332 8.5332 8.5332h17.6641c18.4912 0 33.5361 15.0352 33.5361 33.5273z" />
    </font>
</defs>
</svg>
