<?xml version="1.0" standalone="no"?>
<!DOCTYPE svg PUBLIC "-//W3C//DTD SVG 1.1//EN" "http://www.w3.org/Graphics/SVG/1.1/DTD/svg11.dtd" >
<svg xmlns="http://www.w3.org/2000/svg">
<metadata>Generated by IcoMoon</metadata>
<defs>
<font id="trevlo-one" horiz-adv-x="1024">
<font-face units-per-em="1024" ascent="960" descent="-64" />
<missing-glyph horiz-adv-x="1024" />
<glyph unicode="&#x20;" horiz-adv-x="512" d="" />
<glyph unicode="&#xe900;" glyph-name="bicycle-rider" d="M668.657 726.022c43.674-25.693 99.925-11.068 125.555 32.594 25.697 43.674 11.141 99.902-32.534 125.578-43.749 25.68-99.935 11.072-125.599-32.59-25.664-43.695-11.141-99.902 32.577-125.582zM818.557 410.030c-5.027 0-9.996-0.404-14.929-0.754l-30.051 149.111 9.792 3.659c22.211 8.303 33.512 33.044 25.193 55.267-8.317 22.242-33.206 33.494-55.249 25.176l-107.917-40.357-4.833 39.283c13.119 27.473 11.539 62.014-9.927 86.383-44.197 50.17-98.123 26.047-114.931 12.445l-222.543-180.293c-6.912-6.024-12.68-13.504-16.368-22.578-4.563-11.237-5.406-23.046-3.257-34.118-17.707-1.393-31.767-15.766-31.767-33.831 0-18.919 15.297-34.235 34.218-34.318l-14.154-33.123c-17.95 5.133-36.805 8.051-56.363 8.051-113.283-0.002-205.472-92.153-205.472-205.436 0-113.29 92.188-205.457 205.468-205.457 113.29 0 205.434 92.168 205.434 205.457 0 75.442-40.988 141.327-101.743 177.055l22.817 53.418h36.998l125.53-50.94-67.056-109.895c-17.278-28.346-8.317-65.35 20.022-82.641 9.769-5.956 20.57-8.807 31.236-8.807 20.26 0 40.053 10.264 51.388 28.816l61.096 100.154 39.716-23.971c-11.343-25.462-17.784-53.572-17.784-83.192 0-113.29 92.155-205.457 205.434-205.457 113.287 0 205.443 92.168 205.443 205.457 0 113.285-92.155 205.436-205.443 205.436zM205.468 50.67c-84.871 0-153.938 69.055-153.938 153.926s69.067 153.909 153.938 153.909c12.378 0 24.258-1.866 35.793-4.631l-42.64-99.733c-24.485-3.371-43.404-24.152-43.404-49.545 0-27.744 22.507-50.253 50.249-50.253 18.257 0 34.083 9.881 42.875 24.489h108.421c-12.34-72.597-75.244-128.162-151.294-128.162zM356.763 230.358h-108.421c-0.739 1.224-1.474 2.449-2.316 3.607l42.64 99.75c35.522-22.961 60.748-60.067 68.097-103.356zM618.021 355.736l15.964 26.163c9.196 15.062 11.31 33.398 5.777 50.153-5.541 16.755-18.154 30.226-34.489 36.867l-109.795 44.553 67.56 54.728 3.757-30.593c1.574-13.050 9.092-24.658 20.326-31.486 6.812-4.125 14.533-6.222 22.278-6.222 5.071 0 10.162 0.906 15.031 2.72l100.268 37.486 28.377-140.961c-38.042-12.832-71.046-36.463-95.475-67.291l-39.578 23.883zM781.73 256.908l-79.138 47.771c16.403 18.987 37.040 33.983 60.817 43.177l18.321-90.947zM818.557 50.67c-84.873 0-153.905 69.055-153.905 153.926 0 19.875 4.092 38.727 10.97 56.19l92.753-55.992c0-0.067-0.033-0.133-0.033-0.198 0-27.744 22.507-50.253 50.215-50.253 27.742 0 50.224 22.511 50.224 50.253 0 21.82-13.996 40.205-33.444 47.146l-21.401 106.293c1.574 0.050 3.047 0.471 4.623 0.471 84.873 0 153.913-69.038 153.913-153.909-0.002-84.871-69.042-153.926-153.915-153.926z" />
<glyph unicode="&#xe901;" glyph-name="bike" d="M661.334 714.666c46.934 0 85.334 38.4 85.334 85.334s-38.4 85.334-85.334 85.334-85.334-38.4-85.334-85.334 38.4-85.334 85.334-85.334zM213.334 437.334c-117.334 0-213.334-96-213.334-213.334s96-213.334 213.334-213.334c117.334 0 213.334 96 213.334 213.334s-96.002 213.334-213.334 213.334zM213.334 74.666c-83.2 0-149.334 66.134-149.334 149.334s66.134 149.334 149.334 149.334c83.2 0 149.334-66.134 149.334-149.334s-66.134-149.334-149.334-149.334zM808.534 482.134v85.334c-64 0-117.334 23.466-155.734 61.866l-83.2 81.066c-12.8 14.934-34.134 25.6-57.6 25.6s-44.8-8.534-59.734-25.6l-117.334-117.334c-14.934-14.934-25.6-36.266-25.6-59.734s10.666-44.8 25.6-61.866l134.4-119.466v-213.334h85.334v266.668l-93.866 93.866 100.266 102.4 32-32c53.334-55.466 128-87.466 215.468-87.466zM810.666 437.334c-117.334 0-213.334-96-213.334-213.334s96-213.334 213.334-213.334c117.334 0 213.334 96 213.334 213.334s-96 213.334-213.334 213.334zM810.666 74.666c-83.2 0-149.334 66.134-149.334 149.334s66.134 149.334 149.334 149.334c83.2 0 149.334-66.134 149.334-149.334s-66.134-149.334-149.334-149.334z" />
<glyph unicode="&#xe902;" glyph-name="buddhist-yoga-pose" d="M720.734 90.806c-9.238 1.431-16.212 2.422-21.889 3.221-17.438 2.477-22.121 3.141-42.507 9.487-8.034 2.502-39.463 34.202-39.463 96.242 0 79.924 18.977 150.505 27.13 177.138 0.216 0.695 0.747 2.707 1.483 5.43 1.348 5.001 11.242 35.201 11.242 35.201 5.364 15.363 10.915 31.254 14.521 47.577l0.194 0.836c5.444 23.635 23.314 110.027 24.581 229.528 0 12.058-10.024 22.55-16.010 28.816-1.096 1.151-2.067 2.159-2.792 3.006-5.765 6.703-13.353 14.978-22.143 24.554-5.79 6.316-12.166 13.273-19.038 20.884-10.993 12.158-23.25 23.281-35.109 34.033-14.582 13.215-29.652 26.881-42.036 42.288-18.509 23.018-35.621 63.305-32.524 95.774 0.47 4.899-0.673 9.13-3.216 11.925-2.823 3.108-7.251 4.077-11.15 2.535-3.905 1.542-8.336 0.573-11.153-2.535-2.541-2.795-3.689-7.027-3.213-11.925 3.091-32.469-14.020-72.756-32.524-95.774-12.39-15.407-27.46-29.073-42.042-42.288-11.853-10.752-24.119-21.875-35.106-34.033-6.869-7.611-13.254-14.568-19.041-20.884-8.793-9.576-16.376-17.851-22.146-24.554-0.725-0.847-1.688-1.854-2.787-3.006-5.986-6.266-16.013-16.758-16.013-28.877 1.27-119.44 19.14-205.832 24.584-229.467l0.191-0.836c3.606-16.323 9.161-32.217 14.519-47.577 0 0 9.891-30.2 11.239-35.201 0.739-2.723 1.273-4.735 1.489-5.43 8.15-26.632 27.125-97.213 27.125-177.138 0-62.043-31.426-93.74-39.457-96.242-20.386-6.346-25.071-7.010-42.512-9.487-5.676-0.8-12.645-1.791-21.883-3.221-100.122-10.655-110.932-60.358-110.932-81.236 0-5.596 2.898-23.779 16.113-40.542 11.876-15.061 35.527-33.025 80.799-33.025 6.792 0 13.976 0.404 21.36 1.201 30.13 3.238 60.496 8.103 89.857 12.806 10.666 1.708 21.313 3.412 31.979 5.048 14.209 2.178 39.817 3.623 76.102 4.287 1.699 0.033 2.881 0.058 3.454 0.075 0.573-0.017 1.755-0.044 3.448-0.075 36.291-0.664 61.896-2.109 76.108-4.287 10.661-1.636 21.31-3.34 31.974-5.048 29.364-4.702 59.732-9.567 89.857-12.806 7.384-0.794 14.568-1.201 21.36-1.201 45.28 0 68.937 17.956 80.804 33.025 13.215 16.76 16.107 34.949 16.107 40.542-0.006 20.878-10.81 70.581-110.932 81.236zM564.948 497.718c-1.492 0-2.906 0.324-4.337 1.002-4.658 1.857-10.63 10.755-11.186 14.209 23.198 16.14 38.87 46.799 38.87 81.989 0 51.966-5.485 94.097-76.293 94.097s-76.293-42.131-76.293-94.097c0-35.19 15.673-65.849 38.868-81.989-0.545-3.446-6.653-11.92-11.184-14.209-1.428-0.678-2.84-1.002-4.337-1.002-14.909-0.006-33.595 32.649-38.502 45.643-8.361 22.077-18.797 60.023-21.036 115.399l-0.091 2.131c-0.573 11.665 16.998 41.497 19.326 46.6 3.199 7.027 44.707 70.296 57.034 85.285 4.364 5.3 26.474 34.658 36.219 47.616 9.742-12.958 31.849-42.316 36.211-47.616 12.335-14.989 53.832-78.258 57.037-85.285 2.33-5.103 19.902-34.935 19.331-46.6l-0.091-2.131c-2.242-55.379-12.673-93.325-21.042-115.399-4.907-12.991-23.588-45.643-38.502-45.643z" />
<glyph unicode="&#xe903;" glyph-name="check" d="M358.086 89.113c-12.865 0-25.729 4.923-35.53 14.724l-307.815 307.824c-19.656 19.647-19.656 51.413 0 71.060 19.647 19.647 51.404 19.647 71.060 0l272.285-272.285 580.118 580.108c19.647 19.647 51.404 19.647 71.060 0 19.647-19.656 19.647-51.413 0-71.069l-615.638-615.638c-9.8-9.8-22.674-14.724-35.539-14.724z" />
<glyph unicode="&#xe904;" glyph-name="email" d="M597.578 332.614c-25.476-16.984-55.068-25.962-85.578-25.962-30.508 0-60.1 8.978-85.576 25.962l-419.606 279.746c-2.328 1.552-4.596 3.17-6.818 4.834v-458.394c0-52.556 42.65-94.266 94.266-94.266h835.466c52.556 0 94.266 42.65 94.266 94.266v458.396c-2.226-1.668-4.498-3.29-6.832-4.844zM40.1 662.284l419.606-279.748c15.884-10.59 34.088-15.884 52.292-15.884 18.206 0 36.412 5.296 52.296 15.884l419.606 279.748c25.11 16.73 40.1 44.73 40.1 74.95 0 51.962-42.274 94.234-94.234 94.234h-835.532c-51.96-0.002-94.234-42.274-94.234-94.284 0-30.17 14.992-58.17 40.1-74.9z" />
<glyph unicode="&#xe905;" glyph-name="gps" d="M833.328 0h-609.328c-52.944 0-96 35.888-96 80s43.056 80 96 80h192c88.224 0 160 64.592 160 144s-71.776 144-160 144h-224c-17.664 0-32-14.336-32-32s14.336-32 32-32h224c52.944 0 96-35.888 96-80s-43.056-80-96-80h-192c-88.224 0-160-64.592-160-144s71.776-144 160-144h609.328c17.664 0 32 14.336 32 32s-14.32 32-32 32zM175.536 516.56c5.072-3.040 10.768-4.56 16.464-4.56s11.392 1.52 16.464 4.56c7.168 4.304 175.536 106.992 175.536 251.44 0 105.872-86.128 192-192 192s-192-86.128-192-192c0-144.448 168.368-247.136 175.536-251.44zM192 832c17.664 0 32-14.336 32-32s-14.336-32-32-32-32 14.336-32 32 14.336 32 32 32zM832 512c-105.872 0-192-86.128-192-192 0-144.448 168.368-247.136 175.536-251.44 5.072-3.040 10.768-4.56 16.464-4.56s11.392 1.52 16.464 4.56c7.168 4.304 175.536 106.992 175.536 251.44 0 105.872-86.128 192-192 192zM832 320c-17.664 0-32 14.336-32 32s14.336 32 32 32 32-14.336 32-32-14.336-32-32-32z" />
<glyph unicode="&#xe906;" glyph-name="hard-hat" d="M960 464c0-26.496-21.504-48-48-48h-800c-26.496 0-48 21.504-48 48s21.504 48 48 48h21.536c21.056 124.928 102.496 229.184 213.312 282.176l9.792-100.48c1.28-13.184 12.768-23.104 26.208-21.568 13.184 1.28 22.848 12.992 21.568 26.176l-16.672 171.328c-1.408 14.304 9.824 26.368 23.872 26.368h200.736c14.048 0 25.28-12.064 23.904-26.336l-16.672-171.328c-1.28-13.184 8.384-24.896 21.568-26.176 0.8-0.128 1.568-0.16 2.336-0.16 12.192 0 22.656 9.28 23.872 21.696l9.792 100.48c110.816-52.96 192.256-157.216 213.312-282.176h21.536c26.496 0 48-21.504 48-48zM944 288h-48c0 35.296-28.704 64-64 64h-640c-35.296 0-64-28.704-64-64h-48c-8.832 0-16-7.168-16-16v-64c0-8.832 7.168-16 16-16h48v-64c0-8.512 3.36-16.64 9.376-22.624l64-64c5.984-6.016 14.144-9.376 22.624-9.376h192c10.688 0 20.672 5.344 26.624 14.24 23.744 35.552 54.976 71.552 69.376 80.512 14.4-8.928 45.632-44.928 69.376-80.512 5.952-8.896 15.936-14.24 26.624-14.24h192c8.48 0 16.64 3.36 22.624 9.376l64 64c6.016 5.984 9.376 14.112 9.376 22.624v64h48c8.832 0 16 7.168 16 16v64c0 8.832-7.168 16-16 16zM832 141.248l-45.248-45.248h-161.856c-32.768 46.688-76.064 96-112.896 96s-80.128-49.312-112.896-96h-161.856l-45.248 45.248-0.032 146.752h640.032z" />
<glyph unicode="&#xe907;" glyph-name="hiking" d="M869.12 137.76h-37.12v321.44c-8.255-3.634-17.879-5.752-27.997-5.76h-4.003v-315.68h-109.92l-36.32 49.76c-1.925 2.61-3.081 5.89-3.081 9.44 0 1.832 0.308 3.593 0.875 5.233l-0.034-0.112 36.48 107.52c0.68 1.71 1.075 3.691 1.075 5.765 0 2.751-0.694 5.339-1.917 7.6l0.042-0.085c-2 4.142-5.511 7.289-9.801 8.764l-0.119 0.036-114.24 39.36h-80c-18.627-29.036-50.741-48.001-87.285-48.001-0.195 0-0.39 0.001-0.585 0.002h-65.090l-98.72-314.4h-76.48c-8.837 0-16-7.163-16-16s7.163-16 16-16v0h280.64c0.009 0 0.021 0 0.032 0 6.274 0 11.704 3.611 14.326 8.867l0.042 0.093 58.72 120.16h360.48c8.837 0 16 7.163 16 16s-7.163 16-16 16v0zM566.4 137.76h-67.68c-0.009 0-0.021 0-0.032 0-6.274 0-11.704-3.611-14.326-8.867l-0.042-0.093-58.72-120.16h-56.8l-30.24 42.88c-1.779 2.542-2.842 5.699-2.842 9.104 0 2.507 0.577 4.879 1.604 6.991l-0.042-0.095 84.64 174.56c9.679 19.116 29.175 31.993 51.679 32h0.001l101.44-1.44c0.106 0.003 0.232 0.004 0.358 0.004 8.837 0 16-7.163 16-16 0-1.192-0.13-2.353-0.377-3.47l0.020 0.106zM245.28 378.88c-8.056 10.387-12.915 23.605-12.915 37.959 0 5.385 0.684 10.61 1.969 15.593l-0.095-0.432 30.72 124.32c9.761 39.143 44.611 67.685 86.127 67.685 0.321 0 0.641-0.002 0.961-0.005h79.951c0.501 0.014 1.091 0.022 1.683 0.022 35.346 0 64-28.654 64-64 0-5.172-0.614-10.202-1.772-15.019l0.089 0.436-30.4-134.72c-7.168-32.336-35.599-56.161-69.594-56.161-0.115 0-0.229 0-0.344 0.001h-100.782c-20.069 0.2-37.9 9.605-49.5 24.189l-0.1 0.131zM259.040 679.84c0.091 28.473 23.194 51.52 51.68 51.52 0 0 0 0 0 0h200.16c28.454 0 51.52-23.066 51.52-51.52s-23.066-51.52-51.52-51.52h-10.4c-17.328 17.114-41.153 27.686-67.447 27.686-0.363 0-0.726-0.002-1.088-0.006h-79.945c-24.819-0.146-47.842-7.715-66.995-20.595l0.435 0.275c-15.726 8.754-26.229 25.211-26.4 44.136v0.024zM804 593.76h-4v60.48c0 8.837 7.163 16 16 16s16-7.163 16-16v0-66.4c-8.202 3.74-17.79 5.92-27.887 5.92-0.040 0-0.080 0-0.12 0h0.006zM577.12 629.6l76.32-58.4c7.744-5.872 17.536-9.415 28.154-9.44h122.406c0.739 0.051 1.602 0.080 2.472 0.080 21.119 0 38.24-17.121 38.24-38.24s-17.121-38.24-38.24-38.24c-0.87 0-1.733 0.029-2.588 0.086l0.116-0.006h-129.12c-13.58 0.089-26.225 4.009-36.933 10.732l0.293-0.172-39.52 24c-2.377 1.477-5.262 2.353-8.351 2.353-2.364 0-4.609-0.513-6.629-1.433l0.1 0.041c-4.74-2.109-8.213-6.32-9.262-11.417l-0.018-0.103-21.6-106.4h-56.96l30.24 134.72c1.48 6.342 2.328 13.623 2.328 21.103 0 13.584-2.798 26.514-7.849 38.246l0.241-0.629c23.155 3.075 42.974 15.318 56.002 32.896l0.158 0.224zM684 796c0-8.837-7.163-16-16-16v0h-71.36v-13.92c0.001-0.112 0.001-0.244 0.001-0.376 0-16.464-5.213-31.711-14.080-44.179l0.159 0.235c-14.664 24.939-41.307 41.45-71.818 41.6h-71.222c-0.037 0.407-0.058 0.881-0.058 1.36s0.021 0.953 0.062 1.421l-0.004-0.061v42.56c-0.011 0.5-0.018 1.089-0.018 1.68 0 43.309 35.109 78.418 78.418 78.418 42.718 0 77.459-34.158 78.398-76.65l0.002-0.088h71.68c8.767-0.090 15.84-7.219 15.84-15.999 0 0 0-0.001 0-0.001v0z" />
<glyph unicode="&#xe908;" glyph-name="instagram" d="M1022.998 658.941c-2.399 54.409-11.198 91.815-23.802 124.227-13.003 34.405-33.006 65.208-59.215 90.815-25.607 26.005-56.613 46.212-90.619 59.012-32.6 12.604-69.811 21.403-124.22 23.802-54.815 2.602-72.217 3.204-211.244 3.204s-156.429-0.602-211.041-3.001c-54.409-2.399-91.815-11.205-124.22-23.802-34.413-13.003-65.216-33.006-90.822-59.215-26.005-25.607-46.204-56.613-59.012-90.619-12.604-32.608-21.403-69.811-23.802-124.22-2.602-54.815-3.204-72.217-3.204-211.244s0.602-156.429 3.001-211.041c2.399-54.409 11.205-91.815 23.809-124.227 13.003-34.405 33.202-65.208 59.207-90.815 25.607-26.005 56.613-46.212 90.619-59.012 32.608-12.604 69.811-21.403 124.227-23.802 54.604-2.407 72.014-3.001 211.041-3.001s156.429 0.594 211.041 3.001c54.409 2.399 91.815 11.198 124.22 23.802 68.818 26.607 123.227 81.016 149.834 149.826 12.596 32.608 21.403 69.818 23.802 124.227 2.399 54.612 3.001 72.014 3.001 211.041s-0.203 156.429-2.602 211.041zM930.785 240.86c-2.204-50.010-10.604-77.015-17.605-95.019-17.206-44.61-52.612-80.016-97.222-97.222-18.004-7.001-45.204-15.401-95.019-17.597-54.011-2.407-70.209-3.001-206.837-3.001s-153.030 0.594-206.845 3.001c-50.010 2.196-77.015 10.596-95.019 17.597-22.2 8.205-42.407 21.207-58.808 38.211-17.003 16.605-30.006 36.609-38.211 58.808-7.001 18.004-15.401 45.212-17.597 95.019-2.407 54.011-3.001 70.217-3.001 206.845s0.594 153.030 3.001 206.837c2.196 50.010 10.596 77.015 17.597 95.019 8.205 22.207 21.207 42.407 38.414 58.816 16.597 17.003 36.601 30.006 58.808 38.203 18.004 7.001 45.212 15.401 95.019 17.605 54.011 2.399 70.217 3.001 206.837 3.001 136.831 0 153.030-0.602 206.845-3.001 50.010-2.204 77.015-10.604 95.019-17.605 22.2-8.197 42.407-21.199 58.808-38.203 17.003-16.605 30.006-36.609 38.211-58.816 7.001-18.004 15.401-45.204 17.605-95.019 2.399-54.011 3.001-70.209 3.001-206.837s-0.602-152.631-3.001-206.642zM513.899 710.951c-145.224 0-263.051-117.82-263.051-263.051s117.828-263.051 263.051-263.051c145.231 0 263.051 117.82 263.051 263.051s-117.82 263.051-263.051 263.051zM513.899 277.265c-94.214 0-170.635 76.413-170.635 170.635s76.421 170.635 170.635 170.635c94.222 0 170.635-76.413 170.635-170.635s-76.413-170.635-170.635-170.635zM848.769 721.352c0-33.913-27.498-61.41-61.418-61.41-33.913 0-61.41 27.498-61.41 61.41 0 33.921 27.498 61.41 61.41 61.41 33.921 0 61.418-27.49 61.418-61.41z" />
<glyph unicode="&#xe909;" glyph-name="low-price" d="M814.353 657.648c0 166.718-135.634 302.352-302.352 302.352s-302.354-135.634-302.354-302.352 135.634-302.352 302.352-302.352 302.354 135.634 302.354 302.352zM394.706 585.249h59.996c0-20.787 16.911-37.698 37.698-37.698h38.528c21.459 0 38.918 17.459 38.918 38.918s-17.457 38.918-38.918 38.918h-37.854c-54.541 0-98.914 44.373-98.914 98.914 0 50.797 38.496 92.754 87.843 98.278v49.925h59.996v-50.037c48.951-5.918 87.017-47.689 87.017-98.21h-59.996c0 21.483-17.477 38.96-38.958 38.96h-36.986c-21.459 0-38.918-17.457-38.918-38.916s17.459-38.918 38.918-38.918h37.854c54.541 0 98.914-44.373 98.914-98.912 0-50.797-38.496-92.754-87.843-98.278v-49.927h-59.996v49.851c-48.999 5.206-87.299 46.777-87.299 97.132zM711.411 355.263c-57.239-37.872-125.788-59.964-199.41-59.964s-142.173 22.091-199.41 59.964v-131.318h-102.050v-43.377l301.46-244.567 301.458 244.567v43.377h-102.050v131.318z" />
<glyph unicode="&#xe90a;" glyph-name="maps-and-flags" d="M512 960c-204.49 0-370.854-166.364-370.854-370.852 0-253.776 331.878-626.334 346.008-642.070 13.272-14.782 36.444-14.756 49.692 0 14.13 15.736 346.008 388.294 346.008 642.070-0.004 204.488-166.366 370.852-370.854 370.852zM512 402.562c-102.884 0-186.584 83.702-186.584 186.586s83.702 186.584 186.584 186.584 186.582-83.702 186.582-186.586-83.7-186.584-186.582-186.584z" />
<glyph unicode="&#xe90b;" glyph-name="multiple-users-silhouette" d="M617.94 730.971c47.347-29.686 80.548-79.921 86.592-138.233 19.309-9.022 40.74-14.211 63.462-14.211 82.95 0 150.182 67.232 150.182 150.169 0 82.95-67.232 150.182-150.182 150.182-82.158-0.026-148.801-66.056-150.054-147.907zM519.553 423.477c82.95 0 150.182 67.244 150.182 150.182s-67.244 150.169-150.182 150.169c-82.937 0-150.207-67.244-150.207-150.182s67.27-150.169 150.207-150.169zM583.257 413.24h-127.435c-106.029 0-192.289-86.273-192.289-192.302v-155.843l0.396-2.441 10.735-3.361c101.186-31.616 189.094-42.159 261.45-42.159 141.326 0 223.24 40.293 228.288 42.862l10.032 5.073h1.073v155.868c0.038 106.029-86.221 192.302-192.251 192.302zM831.724 568.278h-126.451c-1.367-50.593-22.964-96.151-57.123-128.917 94.247-28.025 163.204-115.422 163.204-218.653v-48.024c124.853 4.575 196.8 39.961 201.541 42.338l10.032 5.086h1.073v155.894c0 106.017-86.26 192.276-192.276 192.276zM256.032 578.502c29.379 0 56.714 8.575 79.87 23.182 7.361 48.012 33.098 89.966 69.864 118.54 0.153 2.811 0.422 5.597 0.422 8.434 0 82.95-67.244 150.182-150.156 150.182-82.963 0-150.182-67.232-150.182-150.182 0-82.912 67.219-150.156 150.182-150.156zM390.904 439.361c-33.993 32.6-55.513 77.915-57.085 128.201-4.69 0.345-9.329 0.716-14.108 0.716h-127.422c-106.029 0-192.289-86.26-192.289-192.276v-155.868l0.396-2.402 10.735-3.386c81.174-25.341 153.619-37.021 216.544-40.702v47.066c0.026 103.231 68.957 190.602 163.229 218.653z" />
<glyph unicode="&#xe90c;" glyph-name="paper-plane" d="M373.333 208.555v-197.888c0-13.824 8.875-26.069 22.016-30.421 3.285-1.067 6.656-1.579 9.984-1.579 9.984 0 19.627 4.693 25.771 13.056l115.755 157.525zM1010.56 954.069c-9.813 6.955-22.699 7.893-33.365 2.304l-960-501.333c-11.349-5.931-18.048-18.048-17.109-30.805 0.981-12.8 9.472-23.723 21.547-27.861l266.88-91.221 568.363 485.973-439.808-529.877 447.275-152.875c3.328-1.109 6.827-1.707 10.325-1.707 5.803 0 11.563 1.579 16.64 4.651 8.107 4.949 13.611 13.269 15.019 22.613l117.333 789.333c1.749 11.947-3.285 23.808-13.099 30.805z" />
<glyph unicode="&#xe90d;" glyph-name="photo-camera" d="M901.565 715.13h-106.852l-58.991 89.043c-22.261 33.391-61.217 53.426-101.287 53.426h-244.87c-40.070 0-79.026-20.035-101.287-53.426l-58.991-89.043h-106.852c-67.896 0-122.435-54.539-122.435-122.435v-431.861c0-67.896 54.539-122.435 122.435-122.435h779.13c67.896 0 122.435 54.539 122.435 122.435v431.861c0 67.896-54.539 122.435-122.435 122.435zM512 138.574c-152.487 0-276.035 123.548-276.035 276.035s123.548 274.922 276.035 274.922 276.035-123.548 276.035-276.035c0-151.374-123.548-274.922-276.035-274.922zM885.983 542.609c-1.113 0-2.226 0-4.452 0h-44.522c-20.035 1.113-35.617 17.809-34.504 37.843 1.113 18.922 15.583 33.391 34.504 34.504h44.522c20.035 1.113 36.73-14.47 37.843-34.504s-13.357-36.73-33.391-37.843zM512 567.096c-84.591 0-153.6-69.009-153.6-153.6s69.009-152.487 153.6-152.487 153.6 69.009 153.6 153.6c0 84.591-69.009 152.487-153.6 152.487z" />
<glyph unicode="&#xe90e;" glyph-name="secure-payment" d="M646.996 574.090c-6.609 6.606-15.821 10.396-25.276 10.396-9.589 0-18.561-3.689-25.273-10.396l-125.156-125.153-43.219 43.225c-6.749 6.729-15.718 10.436-25.25 10.436-9.541 0-18.515-3.712-25.273-10.464-6.752-6.755-10.473-15.735-10.473-25.282 0-9.555 3.724-18.535 10.47-25.279l68.492-68.498c6.695-6.681 15.664-10.359 25.247-10.359 0.003 0 0.003 0 0.003 0 9.589 0 18.555 3.681 25.282 10.384l150.432 150.429c13.934 13.934 13.936 36.61-0.006 50.561zM929.354 748.963c-0.566 6.512-4.51 12.249-10.387 15.106l-398.834 194.058c-5.134 2.5-11.134 2.5-16.267 0l-398.831-194.055c-5.877-2.86-9.824-8.594-10.387-15.106-0.509-5.851-11.946-145.284 32.114-315.584 25.954-100.318 65.918-190.311 118.781-267.48 66.302-96.783 153.069-173.432 257.9-227.813 2.683-1.393 5.623-2.088 8.56-2.088s5.877 0.695 8.56 2.088c104.828 54.382 191.601 131.028 257.903 227.813 52.863 77.169 92.828 167.163 118.779 267.48 44.057 170.3 32.62 309.73 32.111 315.582zM511.999 240.153c-130.378 0-236.447 106.069-236.447 236.447s106.069 236.447 236.447 236.447 236.447-106.069 236.447-236.447-106.069-236.447-236.447-236.447z" />
<glyph unicode="&#xe90f;" glyph-name="solar-panel" d="M224.97 381.956c-11.318 0-21.672-6.372-26.776-16.474l-89.152-176.504h372.958v192.978h-257.030zM825.8 365.482c-5.104 10.102-15.458 16.474-26.776 16.474h-257.028v-192.978h372.956l-89.152 176.504zM1020.746-20.474l-75.486 149.452h-403.264v-192.978h451.974c22.31 0 36.848 23.58 26.776 43.526zM78.738 128.978l-75.486-149.452c-10.056-19.912 4.43-43.526 26.774-43.526h451.974v192.978h-403.262zM511.998 805.978c-60.652 0-109.994-49.346-109.994-110s49.344-110 109.994-110 109.994 49.346 109.994 110c0 60.654-49.342 110-109.994 110zM511.998 960c-16.568 0-30-13.432-30-30v-66.014c0-16.568 13.432-30 30-30s30 13.432 30 30v66.014c0 16.568-13.432 30-30 30zM511.998 557.968c-16.568 0-30-13.432-30-30v-66.014c0-16.568 13.432-30 30-30s30 13.432 30 30v66.014c0 16.568-13.432 30-30 30zM414.418 835.99l-46.674 46.678c-11.716 11.716-30.71 11.716-42.428 0-11.714-11.714-11.716-30.71 0-42.426l46.674-46.678c11.72-11.718 30.716-11.714 42.428 0 11.714 11.716 11.716 30.71 0 42.426zM698.68 551.71l-46.674 46.678c-11.716 11.716-30.71 11.716-42.428 0-11.714-11.714-11.716-30.71 0-42.426l46.674-46.678c11.722-11.718 30.716-11.712 42.428 0 11.714 11.716 11.716 30.71 0 42.426zM343.998 725.978h-66.010c-16.568 0-30-13.432-30-30s13.432-30 30-30h66.010c16.568 0 30 13.432 30 30s-13.432 30-30 30zM746.008 725.978h-66.010c-16.568 0-30-13.432-30-30s13.432-30 30-30h66.010c16.568 0 30 13.432 30 30s-13.432 30-30 30zM414.418 598.39c-11.718 11.716-30.708 11.714-42.428 0l-46.674-46.678c-11.716-11.716-11.714-30.71 0-42.426 11.72-11.716 30.71-11.714 42.428 0l46.674 46.678c11.716 11.716 11.714 30.712 0 42.426zM698.68 882.668c-11.718 11.714-30.708 11.714-42.428 0l-46.674-46.678c-11.716-11.716-11.714-30.71 0-42.426 11.72-11.716 30.71-11.714 42.428 0l46.674 46.678c11.716 11.716 11.714 30.712 0 42.426z" />
<glyph unicode="&#xe910;" glyph-name="star" d="M1021.322 567.236c-6.742 20.735-25.133 35.415-46.805 37.376l-295.599 26.836-116.822 273.505c-8.625 20.094-28.25 33.063-50.095 33.063s-41.477-12.969-50.048-33.063l-116.822-273.505-295.646-26.836c-21.672-2-40.024-16.68-46.805-37.376-6.742-20.735-0.516-43.477 15.875-57.853l223.449-195.933-65.884-290.177c-4.82-21.336 3.461-43.399 21.164-56.196 9.516-6.914 20.696-10.367 31.915-10.367 9.641 0 19.289 2.563 27.907 7.719l254.895 152.409 254.848-152.409c18.696-11.172 42.204-10.149 59.868 2.648 17.703 12.797 25.985 34.86 21.164 56.196l-65.884 290.177 223.449 195.933c16.383 14.375 22.618 37.071 15.875 57.853z" />
<glyph unicode="&#xe911;" glyph-name="swimming" d="M357.604 234.375c12.902-8.843 17.249-11.821 31.645-11.821 14.394 0 18.739 2.979 31.641 11.821 17.569 12.042 44.121 30.241 91.095 30.241 46.976 0 73.525-18.197 91.097-30.241 12.902-8.843 17.249-11.821 31.645-11.821 14.398 0 18.745 2.979 31.647 11.823 13.162 9.021 31.365 21.496 59.419 27.188l-82.462 152.392 69.004 188.665 174.903 150.078c23.713 20.348 26.442 56.066 6.094 79.779-20.35 23.713-56.066 26.442-79.779 6.094l-186.118-159.702c-7.352-6.31-12.964-14.404-16.291-23.503l-84.449-230.883-0.428-1.27-303.428-164.648c12.228 3.639 26.594 6.050 43.671 6.050 46.974 0 73.525-18.199 91.095-30.241zM923.211 447.449c7.038-62.464-37.893-118.806-100.357-125.844s-118.806 37.893-125.844 100.357c-7.038 62.464 37.893 118.806 100.357 125.844s118.806-37.893 125.844-100.357zM70.509 173.657c16.065-11.011 36.060-24.715 73.259-24.715 37.201 0 57.195 13.704 73.259 24.715 14.142 9.693 25.311 17.347 49.482 17.347 24.169 0 35.338-7.654 49.478-17.347 16.067-11.011 36.060-24.715 73.261-24.715 37.199 0 57.193 13.704 73.257 24.715 14.14 9.693 25.309 17.347 49.478 17.347s35.338-7.656 49.48-17.347c16.065-11.011 36.060-24.715 73.259-24.715 37.201 0 57.197 13.704 73.261 24.715 14.142 9.693 25.311 17.347 49.482 17.347 24.173 0 35.342-7.656 49.486-17.349 16.067-11.011 36.062-24.713 73.265-24.713s57.199 13.704 73.263 24.713c14.142 9.693 25.313 17.349 49.486 17.349 11.615 0 21.032 9.417 21.032 21.032s-9.417 21.032-21.032 21.032c-37.203 0-57.199-13.704-73.265-24.713-14.142-9.693-25.313-17.349-49.484-17.349-24.173 0-35.342 7.656-49.486 17.349-16.067 11.011-36.062 24.713-73.265 24.713-37.201 0-57.197-13.704-73.261-24.713-14.142-9.693-25.311-17.349-49.482-17.349-24.169 0-35.338 7.656-49.48 17.347-16.065 11.011-36.060 24.715-73.259 24.715s-57.195-13.704-73.259-24.715c-14.14-9.693-25.309-17.347-49.476-17.347-24.169 0-35.338 7.656-49.48 17.347-16.065 11.011-36.058 24.715-73.259 24.715s-57.197-13.704-73.261-24.715c-14.142-9.693-25.311-17.347-49.48-17.347s-35.338 7.654-49.476 17.347c-16.065 11.011-36.060 24.715-73.259 24.715-11.615 0-21.032-9.417-21.032-21.032s9.417-21.032 21.032-21.032c24.169 0.002 35.336-7.654 49.476-17.347zM707.986 68.501c-16.065-11.011-36.060-24.715-73.261-24.715s-57.195 13.704-73.259 24.715c-14.142 9.693-25.311 17.347-49.48 17.347s-35.338-7.654-49.478-17.347c-16.065-11.011-36.058-24.715-73.257-24.715-37.201 0-57.195 13.704-73.261 24.715-14.14 9.693-25.309 17.347-49.478 17.347s-35.34-7.656-49.482-17.347c-16.065-11.011-36.060-24.715-73.259-24.715-67.878 0-71.425 42.062-122.736 42.062-11.615 0-21.032 9.417-21.032 21.032s9.417 21.032 21.032 21.032c67.878 0 71.425-42.062 122.736-42.062 50.211 0 55.69 42.062 122.742 42.062 37.201 0 57.195-13.704 73.259-24.715 14.142-9.693 25.311-17.347 49.48-17.347 24.167 0 35.336 7.654 49.476 17.347 16.065 11.011 36.058 24.715 73.259 24.715s57.195-13.704 73.259-24.715c14.142-9.693 25.311-17.347 49.48-17.347 24.171 0 35.34 7.656 49.482 17.349 16.065 11.011 36.060 24.713 73.261 24.713 37.203 0 57.199-13.704 73.265-24.713 14.142-9.693 25.313-17.349 49.486-17.349 24.171 0 35.342 7.656 49.484 17.349 16.067 11.011 36.062 24.713 73.265 24.713 11.615 0 21.032-9.417 21.032-21.032s-9.417-21.032-21.032-21.032c-24.173 0-35.342-7.656-49.486-17.349-16.067-11.011-36.062-24.713-73.263-24.713-37.203 0-57.199 13.704-73.265 24.713-14.142 9.693-25.313 17.349-49.486 17.349-24.169 0-35.34-7.656-49.482-17.347zM806.953 68.499c16.067-11.011 36.062-24.713 73.265-24.713s57.199 13.704 73.263 24.713c14.142 9.693 25.313 17.349 49.486 17.349 11.615 0 21.032 9.417 21.032 21.032s-9.417 21.032-21.032 21.032c-37.203 0-57.199-13.704-73.265-24.713-14.142-9.693-25.313-17.349-49.484-17.349-24.173 0-35.342 7.656-49.486 17.349-16.067 11.011-36.062 24.713-73.265 24.713-37.201 0-57.197-13.704-73.261-24.713-14.142-9.693-25.311-17.349-49.482-17.349-24.169 0-35.338 7.656-49.48 17.347-16.065 11.011-36.060 24.715-73.259 24.715s-57.195-13.704-73.259-24.715c-14.14-9.693-25.309-17.347-49.476-17.347-24.169 0-35.338 7.656-49.48 17.347-16.065 11.011-36.058 24.715-73.259 24.715-67.882 0-71.429-42.062-122.742-42.062-24.169 0-35.338 7.654-49.476 17.347-16.065 11.011-36.060 24.715-73.259 24.715-11.613-0.002-21.030-9.417-21.030-21.032s9.417-21.032 21.032-21.032c50.209 0 55.688-42.062 122.736-42.062 37.201 0 57.195 13.704 73.259 24.715 14.142 9.693 25.311 17.347 49.482 17.347 24.169 0 35.338-7.654 49.478-17.347 16.067-11.011 36.060-24.715 73.261-24.715 37.199 0 57.193 13.704 73.257 24.715 14.14 9.693 25.309 17.347 49.478 17.347s35.338-7.656 49.48-17.347c16.065-11.011 36.060-24.715 73.259-24.715 37.201 0 57.197 13.704 73.261 24.715 14.142 9.693 25.311 17.347 49.482 17.347 24.173 0 35.342-7.656 49.484-17.349z" />
<glyph unicode="&#xe912;" glyph-name="telephone" d="M778.514 282.604c-33.454 33.028-75.219 33.028-108.46 0-25.357-25.144-50.714-50.288-75.645-75.858-6.819-7.032-12.572-8.523-20.882-3.836-16.408 8.95-33.88 16.194-49.649 25.996-73.514 46.239-135.096 105.69-189.645 172.599-27.062 33.241-51.14 68.826-67.974 108.886-3.409 8.097-2.77 13.424 3.836 20.030 25.357 24.505 50.075 49.649 75.006 74.793 34.733 34.946 34.733 75.858-0.213 111.017-19.817 20.030-39.634 39.634-59.451 59.664-20.456 20.456-40.699 41.125-61.368 61.368-33.454 32.602-75.219 32.602-108.46-0.213-25.57-25.144-50.075-50.927-76.071-75.645-24.079-22.8-36.224-50.714-38.781-83.316-4.049-53.058 8.95-103.133 27.275-151.929 37.503-101.002 94.61-190.711 163.862-272.962 93.544-111.23 205.201-199.234 335.822-262.733 58.811-28.553 119.754-50.501 186.023-54.124 45.6-2.557 85.234 8.95 116.984 44.535 21.735 24.292 46.239 46.452 69.253 69.679 34.094 34.52 34.307 76.284 0.426 110.378-40.486 40.699-81.185 81.185-121.884 121.671zM737.814 452.432l78.628 13.424c-12.359 72.236-46.452 137.653-98.232 189.645-54.763 54.763-124.015 89.283-200.3 99.937l-11.080-79.054c59.024-8.31 112.722-34.946 155.126-77.35 40.060-40.060 66.269-90.774 75.858-146.602zM860.764 794.22c-90.774 90.774-205.627 148.094-332.412 165.78l-11.080-79.054c109.526-15.342 208.823-64.991 287.238-143.193 74.367-74.367 123.163-168.337 140.849-271.683l78.628 13.424c-20.669 119.754-77.137 228.427-163.223 314.726z" />
<glyph unicode="&#xe913;" glyph-name="travel" d="M1003.185 144.702c-27.658-8.774-53.748-21.884-77.294-38.841-21.751-14.601-57.009-30.014-76.129-12.835-27.436 24.717 26.642 86.14 26.642 150.246-0.194 49.664-35.081 85.839-95.797 99.257-16.233 3.305-31.289 10.888-43.608 21.963 7.596 20.843 9.24 43.388 4.749 65.112 29.308 30.526 77.312 31.921 127.223 86.51 131.991-72.25 189.53-231.476 134.215-371.412zM718.301 553.807c40.039 0.822 79.825-6.525 116.93-21.592-41.084-39.689-73.357-41.048-104.889-65.324l-24.717 74.275zM677.129 634.633c11.864 11.882 14.265 15.89 21.186 16.031 6.020 0.388 6.762-1.942 28.054-23.27 4.25-4.97 3.756-12.424-1.112-16.79l-32.079-32.062-18.202 54.607c0.753 0.442 1.472 0.938 2.154 1.483zM445.069 890.668c2.415 2.46 5.682 3.901 9.128 4.025 2.86 0.136 5.651-0.911 7.715-2.895l20.321-20.339c4.216-4.994 3.725-12.43-1.112-16.825l-4.714-4.714-56.638 15.448zM314.086 711.662c-0.7-0.088-1.396-0.212-2.083-0.371-2.899-0.753-5.982 0.041-8.157 2.101-2.054 2.192-2.852 5.279-2.119 8.192 0.162 0.668 0.28 1.347 0.353 2.030 1.724 6.834 4.088 13.49 7.062 19.88l37.076-18.52c-9.982-6.025-20.814-10.512-32.132-13.312zM522.911 611.699c-59.939-59.904-104.271-88.7-183.014-144.949-10.728-7.628-15.642-21.080-12.359-33.827l15.537-62.146-10.964-10.964-137.71 137.71 10.964 10.946 62.146-15.554c12.771-3.216 26.206 1.742 33.827 12.482 55.879 78.212 85.292 123.321 144.967 182.996 4.001 4.013 5.833 9.703 4.924 15.297s-4.448 10.411-9.514 12.951l-262.903 131.46c21.081 22.748 53.049 31.91 82.979 23.782l274.22-74.823c9.158-2.456 18.93 0.147 25.653 6.833l77.683 77.683c64.106 64.088 115.147 63.294 135.945 59.198 2.454-13.895 5.297-64.512-59.78-136.545-33.651-37.252-76.359-80.49-88.629-92.831-7.074-7.069-9.518-17.543-6.303-27.012l85.786-257.218c8.141-29.927-1.015-61.899-23.764-82.979l-131.407 262.938c-2.54 5.077-7.367 8.622-12.971 9.528s-11.302-0.938-15.313-4.956zM559.457 511.612l18.52-37.076c-6.982-3.331-14.346-5.792-21.928-7.327-2.902-0.827-6.024-0.016-8.158 2.118s-2.944 5.256-2.118 8.158c2.628 12.042 7.253 23.559 13.683 34.074zM433.311 327.945c11.926-21.671 30.774-38.716 53.53-48.41 38.841-16.084 89.582-10.222 86.881-42.461-2.486-18.161-7.576-35.868-15.113-52.577-21.186-54.166-19.88-68.996-13.524-105.931 5.462-21.283 5.151-43.637-0.9-64.759-97.566 72.301-141.441 196.613-110.874 314.138zM679.883-43.043c38.841 25.971 80.525 39.194 153.6 33.863 9.384-0.749 18.724-1.975 27.983-3.672-55.846-28.912-119.387-39.477-181.583-30.19zM903.468 13.347c-55.473 16.297-114.156 18.362-170.637 6.003-36.147-9.551-69.569-27.396-97.615-52.118-20.839 6.492-40.903 15.248-59.833 26.112 10.068 29.334 11.629 60.917 4.502 91.101-5.297 30.738-6.921 39.83 11.599 87.111 8.857 19.854 14.729 40.909 17.426 62.482 2.645 24.973-11.743 48.629-35.134 57.768-26.289 11.511-51.853 11.352-73.446 20.286-26.051 13.107-44.313 37.825-49.187 66.578 12.452 27.447 29.027 52.828 49.152 75.264 3.531 4.025 7.574 7.574 11.352 11.37 1.727-7.884 5.629-15.126 11.264-20.904 19.862-19.88 45.903-13.047 70.886-1.448l59.233-118.537c4.617-9.203 13.37-15.631 23.533-17.281s20.5 1.678 27.791 8.947c5.43 5.107 10.47 10.613 15.078 16.472 15.86-11.99 34.147-20.371 53.583-24.558 30.967-6.833 67.919-23.676 68.078-64.847 0-45.568-33.298-85.38-34.251-129.554-0.918-42.778 35.151-68.202 76.412-62.729 42.372 5.473 66.154 31.197 97.103 47.016-19.952-32.862-46.059-61.565-76.888-84.533zM236.774-12.588c-106.125 47.775-169.684 119.702-188.804 213.786-28.036 137.869 48.322 296.978 131.125 386.472 6.453 7.178 5.945 18.209-1.141 24.763s-18.122 6.204-24.777-0.788c-91.683-99.098-170.478-266.611-139.811-417.492 21.522-105.825 91.807-186.227 208.896-238.945 8.893-4.008 19.35-0.047 23.358 8.845s0.047 19.35-8.845 23.358zM167.583 223.32c-5.858 45.051 8.45 90.393 39.106 123.922 6.691 6.928 6.595 17.939-0.215 24.749s-17.822 6.906-24.749 0.215c-38.126-41.017-56.175-96.787-49.311-152.364 7.998-80.614 57.803-155.366 140.253-210.255 8.113-5.412 19.076-3.222 24.488 4.89s3.222 19.076-4.89 24.488c-73.481 48.993-117.76 114.458-124.681 184.355zM295.583 189.775c-4.696 24.445 1.528 49.721 17.037 69.191 6.691 6.928 6.595 17.939-0.215 24.749s-17.822 6.906-24.749 0.215c-44.403-44.403-40.801-143.007 35.31-219.171 6.928-6.691 17.939-6.595 24.749 0.215s6.906 17.822 0.215 24.749c-27.982 26.682-46.382 61.85-52.348 100.052zM229.517 642.207c0-9.751-7.904-17.655-17.655-17.655s-17.655 7.904-17.655 17.655c0 9.751 7.904 17.655 17.655 17.655s17.655-7.904 17.655-17.655z" />
<glyph unicode="&#xe914;" glyph-name="travel-guide" d="M448 864h-336c-8.836 0-16-7.164-16-16v-688c0-8.836 7.164-16 16-16h384v703.802c-13.394 10.102-29.969 16.198-48 16.198zM147.375 670.312c7.906 15.805 27.148 22.203 42.937 14.312l45.461-22.734 48.887 39.998-74.973 37.486c-15.805 7.906-22.211 27.125-14.312 42.937 7.914 15.812 27.148 22.211 42.937 14.312l100.638-50.318 56.784 46.459c13.664 11.203 33.828 9.18 45.031-4.5 11.195-13.68 9.18-33.844-4.5-45.031l-176-144c-5.836-4.773-13.023-7.234-20.273-7.234-4.867 0-9.766 1.109-14.305 3.375l-64 32c-15.805 7.906-22.211 27.125-14.312 42.937zM432 208h-128c-8.836 0-16 7.164-16 16s7.164 16 16 16h128c8.836 0 16-7.164 16-16s-7.164-16-16-16zM432 272h-272c-8.836 0-16 7.164-16 16s7.164 16 16 16h272c8.836 0 16-7.164 16-16s-7.164-16-16-16zM432 336h-272c-8.836 0-16 7.164-16 16s7.164 16 16 16h272c8.836 0 16-7.164 16-16s-7.164-16-16-16zM432 400h-176c-8.836 0-16 7.164-16 16s7.164 16 16 16h176c8.836 0 16-7.164 16-16s-7.164-16-16-16zM432 464h-272c-8.836 0-16 7.164-16 16s7.164 16 16 16h272c8.836 0 16-7.164 16-16s-7.164-16-16-16zM432 528h-272c-8.836 0-16 7.164-16 16s7.164 16 16 16h272c8.836 0 16-7.164 16-16s-7.164-16-16-16zM724.516 554.937l-5.336-16c-0.789-2.352-2.109-4.492-3.867-6.25l-30.164-30.164-30.836-61.68c-1.758-3.508-4.734-6.242-8.375-7.703l-16-6.398c-1.914-0.766-3.93-1.141-5.937-1.141-3.156 0-6.281 0.93-8.969 2.75-4.398 2.977-7.031 7.937-7.031 13.25v118.398c0 8.836 7.164 16 16 16h85.336c5.141 0 9.977-2.477 12.984-6.648 3-4.172 3.82-9.531 2.195-14.414zM912 864h-336c-18.031 0-34.606-6.097-48-16.198v-703.802h384c8.836 0 16 7.164 16 16v688c0 8.836-7.164 16-16 16zM864 208h-272c-8.836 0-16 7.164-16 16s7.164 16 16 16h272c8.836 0 16-7.164 16-16s-7.164-16-16-16zM864 272h-192c-8.836 0-16 7.164-16 16s7.164 16 16 16h192c8.836 0 16-7.164 16-16s-7.164-16-16-16zM880 352c0-8.836-7.164-16-16-16h-272c-8.836 0-16 7.164-16 16v240c0 8.836 7.164 16 16 16h272c8.836 0 16-7.164 16-16zM576 656c0 8.836 7.164 16 16 16h176c8.836 0 16-7.164 16-16s-7.164-16-16-16h-176c-8.836 0-16 7.164-16 16zM864 704h-272c-8.836 0-16 7.164-16 16s7.164 16 16 16h272c8.836 0 16-7.164 16-16s-7.164-16-16-16zM864 768h-160c-8.836 0-16 7.164-16 16s7.164 16 16 16h160c8.836 0 16-7.164 16-16s-7.164-16-16-16zM992 704v-544c0-44.109-35.891-80-80-80h-326.906c-12.539-28.789-41.039-48-73.094-48s-60.555 19.211-73.094 48h-326.906c-44.109 0-80 35.891-80 80v544c0 26.030 12.688 48.973 32 63.591v-607.591c0-26.469 21.531-48 48-48h800c26.469 0 48 21.531 48 48v607.591c19.312-14.618 32-37.56 32-63.591zM848 501.336v-117.336c0-8.836-7.164-16-16-16h-144c-6.469 0-12.305 3.898-14.781 9.875-2.477 5.984-1.109 12.859 3.469 17.437l32 32c1.211 1.219 2.617 2.227 4.156 3l60.203 30.102 29.641 44.461c1.977 2.961 4.875 5.18 8.25 6.305l16 5.336c4.859 1.617 10.234 0.82 14.414-2.195 4.172-3.008 6.648-7.844 6.648-12.984z" />
<glyph unicode="&#xe915;" glyph-name="video-camera" d="M579.221 748.814h-467.186c-61.619 0-112.035-50.416-112.035-112.035v-377.558c0-61.619 50.416-112.035 112.035-112.035h467.186c61.619 0 112.035 50.416 112.035 112.035v377.558c0 62.74-50.416 112.035-112.035 112.035zM941.094 687.195c-6.722-1.12-13.444-4.481-19.046-7.842l-174.775-100.832v-259.921l175.895-100.832c32.49-19.046 72.823-7.842 91.869 24.648 5.602 10.083 8.963 21.287 8.963 33.611v346.188c0 41.453-39.212 75.063-82.906 64.98z" />
<glyph unicode="&#xe916;" glyph-name="wifi" d="M440.762 219.767c-39.334-39.339-39.334-103.152 0-142.492 39.355-39.332 103.158-39.332 142.511 0 39.332 39.341 39.332 103.154 0 142.492-39.353 39.341-103.156 39.341-142.511 0zM512.019 459.386c-83.014 0-161.11-32.335-219.778-91.061-23.048-23.037-23.048-60.377 0-83.399 23.029-23.037 60.352-23.037 83.399 0 36.389 36.441 84.839 56.502 136.378 56.502s99.991-20.061 136.38-56.502c11.533-11.519 26.661-17.276 41.709-17.276 15.127 0 30.176 5.757 41.69 17.276 23.048 23.023 23.048 60.36 0 83.399-58.67 58.726-136.766 91.061-219.78 91.061zM512.019 653.59c-134.916 0-261.75-52.543-357.131-147.936-23.029-23.037-23.029-60.381 0-83.399 23.046-23.037 60.389-23.037 83.397 0 73.102 73.123 170.331 113.386 273.731 113.386 103.359 0 200.587-40.263 273.692-113.386 11.512-11.521 26.642-17.28 41.69-17.28 15.127 0 30.197 5.759 41.709 17.28 23.029 23.019 23.029 60.362 0 83.399-95.381 95.393-222.173 147.936-357.089 147.936zM1006.766 643.266c-132.133 132.178-307.825 204.957-494.747 204.957s-362.614-72.779-494.747-204.957c-23.029-23.039-23.029-60.383 0-83.401 11.533-11.519 26.621-17.274 41.709-17.274s30.217 5.755 41.69 17.274c109.857 109.896 255.964 170.407 411.348 170.407 155.386 0 301.449-60.511 411.31-170.407 23.025-23.037 60.348-23.017 83.399-0.021 23.025 23.039 23.025 60.383 0.037 83.422z" />
<glyph unicode="&#xe917;" glyph-name="cart" d="M814.547 149.331h-383.742c-55.338 0-104.405 36.307-119.381 88.32l-129.707 439.51c-4.608 15.914-19.925 26.837-37.418 26.837h-101.632c-23.595 0-42.667 19.115-42.667 42.667s19.072 42.666 42.667 42.666h101.632c55.338 0 104.362-36.309 119.338-88.32l24.278-82.346h652.584c26.624 0 51.885-12.672 67.546-33.92 15.526-21.078 20.006-47.446 12.288-72.363l-88.026-279.384c-17.235-50.432-64.467-83.667-117.76-83.667zM469.333-64c-47.061 0-85.333 38.272-85.333 85.338 0 47.059 38.272 85.331 85.333 85.331s85.334-38.272 85.334-85.331c0-47.066-38.272-85.338-85.334-85.338zM768-64c-47.066 0-85.338 38.272-85.338 85.338 0 47.059 38.272 85.331 85.338 85.331 47.059 0 85.331-38.272 85.331-85.331 0-47.066-38.272-85.338-85.331-85.338z" />
<glyph unicode="&#xe918;" glyph-name="search" d="M1012.339 3.962l-249.907 249.901c62.118 74.7 99.539 170.621 99.539 275.137 0 237.654-193.338 431-430.982 431-237.649 0-430.989-193.346-430.989-431 0-237.64 193.34-430.971 430.989-430.971 104.511 0 200.438 37.421 275.135 99.539l249.914-249.907c7.77-7.776 17.965-11.661 28.147-11.661 10.189 0 20.378 3.885 28.16 11.661 15.546 15.552 15.546 40.755-0.006 56.301zM79.625 529c0 193.749 157.62 351.375 351.364 351.375 193.738 0 351.353-157.626 351.353-351.375 0-193.733-157.615-351.342-351.353-351.342-193.744 0-351.364 157.609-351.364 351.342z" />
<glyph unicode="&#xe919;" glyph-name="up-right-arrow" d="M0 44.4l762.322 762.312h-497.761v153.288h759.438v-759.438h-153.288v497.758l-762.312-762.32-108.4 108.4z" />
<glyph unicode="&#xe91a;" glyph-name="bag" d="M288 480h32v-352h-32v352zM192 480h32v-352h-32v352zM96 480h32v-352h-32v352zM384 480h32v-352h-32v352zM820.821 437.926l27.524 43.255 40.226-24.137c3.059-1.839 6.647-2.598 10.189-2.163s6.835 2.044 9.361 4.565c2.522 2.526 4.13 5.82 4.565 9.361 0.435 3.546-0.324 7.13-2.163 10.189l-24.137 40.23 98.202 62.49c2.022 1.286 3.729 3.010 4.996 5.044s2.061 4.327 2.321 6.709c0.26 2.382-0.017 4.792-0.811 7.052s-2.086 4.314-3.78 6.008l-33.941 33.94c-1.993 1.994-4.48 3.426-7.206 4.149s-5.598 0.713-8.316-0.029l-113.643-30.992c-3.098 3.86-6.259 7.673-9.472 11.438l-76.971 89.794 179.042 115.852c3.486 2.254 5.956 5.774 6.895 9.816s0.269 8.291-1.865 11.85l-33.941 56.568c-1.835 3.060-4.642 5.418-7.97 6.7-3.332 1.282-6.997 1.413-10.411 0.374l-241.237-73.42-13.555 15.808c-31.633 37.006-76.181 60.564-124.574 65.876l-32.811 3.644c-2.385 0.265-4.8-0.010-7.061-0.804-2.266-0.794-4.322-2.087-6.020-3.784-1.694-1.697-2.991-3.753-3.785-6.017s-1.067-4.678-0.802-7.063l3.644-32.818c5.312-48.392 28.868-92.94 65.873-124.574l15.812-13.552-53.44-175.584c-6.643 13.297-16.853 24.484-29.491 32.307s-27.206 11.974-42.069 11.989h-64v240c0 21.217-8.428 41.565-23.431 56.569s-35.351 23.431-56.569 23.431c-21.217 0-41.565-8.429-56.569-23.431s-23.431-35.351-23.431-56.569v-240h-64c-21.21-0.024-41.544-8.461-56.541-23.458s-23.434-35.332-23.459-56.542v-416c0.026-18.978 6.789-37.333 19.085-51.793s29.325-24.085 48.055-27.157c-2.749-7.223-3.712-15.006-2.81-22.682s3.645-15.019 7.995-21.406c4.349-6.387 10.177-11.631 16.988-15.283 6.811-3.657 14.403-5.611 22.13-5.7s15.363 1.69 22.257 5.184c6.894 3.49 12.842 8.597 17.338 14.882s7.41 13.564 8.491 21.218c1.081 7.65 0.298 15.454-2.282 22.737h165.504c-2.736-7.718-3.451-16.009-2.077-24.085 1.374-8.073 4.79-15.659 9.924-22.042 5.135-6.379 11.816-11.341 19.409-14.409 7.593-3.072 15.845-4.147 23.971-3.127s15.856 4.105 22.455 8.956c6.596 4.851 11.844 11.311 15.241 18.761 3.396 7.454 4.834 15.65 4.169 23.812-0.666 8.166-3.409 16.021-7.97 22.822 12.186 7.010 22.315 17.109 29.359 29.278 7.044 12.164 10.756 25.975 10.769 40.034v354.859l35.221-21.129c0.192-0.115 0.397-0.196 0.597-0.307l27.179-119.373c-24.474-43.324-34.88-93.18-29.777-142.673 5.103-49.498 25.459-96.183 58.257-133.602 32.798-37.414 76.416-63.714 124.817-75.26 48.397-11.546 99.187-7.761 145.344 10.825 46.157 18.59 85.393 51.059 112.286 92.924s40.111 91.051 37.824 140.757c-2.287 49.702-19.964 97.468-50.586 136.687s-72.674 67.951-120.341 82.223v-0.004zM787.618 445.355c-8.798 1.31-17.655 2.129-26.539 2.458l20.42 74.876c9.344-6.519 18.889-12.715 28.634-18.581l10.761-6.455-33.276-52.297zM742.532 552.834c3.763-3.215 7.578-6.374 11.435-9.474l-26.351-96.631c-19.089-1.899-37.871-6.101-55.949-12.51l-120.247 39.006 101.316 156.577 89.796-76.968zM937.314 611.28l13.269-13.274-80.666-51.334-6.455 10.76c-5.845 9.742-12.041 19.288-18.581 28.64l92.433 25.208zM866.88 881.74l19.558-32.594-169.685-109.798-65.741 76.694 215.868 65.698zM475.115 880.948l-1.438 12.94 12.941-1.44c40.324-4.426 77.449-24.056 103.812-54.894l200.009-233.342c16.939-19.767 32.183-40.922 45.581-63.24l14.135-23.558-23.561 14.135c-22.315 13.396-43.469 28.644-63.236 45.58l-233.344 200.010c-30.839 26.362-50.466 63.485-54.895 103.812l-0.004-0.004zM208 848c0 12.73 5.057 24.94 14.059 33.941s21.211 14.059 33.941 14.059c12.73 0 24.94-5.057 33.941-14.059s14.059-21.211 14.059-33.941v-240h-96v240zM160 16c0-3.166-0.938-6.259-2.697-8.887-1.758-2.633-4.257-4.685-7.18-5.897-2.924-1.207-6.141-1.527-9.245-0.909s-5.955 2.142-8.192 4.378c-2.238 2.24-3.762 5.090-4.379 8.192-0.617 3.106-0.301 6.323 0.911 9.246s3.261 5.423 5.893 7.181c2.631 1.758 5.725 2.697 8.889 2.697 4.242-0.004 8.308-1.694 11.308-4.693s4.687-7.066 4.692-11.307zM416 16c0-3.166-0.938-6.259-2.697-8.887-1.758-2.633-4.257-4.685-7.18-5.897-2.924-1.207-6.141-1.527-9.245-0.909s-5.955 2.142-8.192 4.378c-2.237 2.24-3.761 5.090-4.378 8.192-0.617 3.106-0.301 6.323 0.911 9.246s3.261 5.423 5.893 7.181c2.631 1.758 5.725 2.697 8.889 2.697 4.242-0.004 8.308-1.694 11.308-4.693s4.687-7.066 4.692-11.307zM448 112c-0.013-12.727-5.077-24.926-14.076-33.924s-21.198-14.063-33.924-14.076h-288c-12.726 0.013-24.927 5.077-33.926 14.076s-14.060 21.197-14.074 33.924v416c0.014 12.726 5.076 24.927 14.074 33.926s21.199 14.060 33.926 14.074h64v-48h32v48h96v-48h32v48h64c12.726-0.014 24.927-5.076 33.924-14.074s14.063-21.199 14.076-33.926v-416zM551.526 716.552l76.693-65.736-109.798-169.69-32.597 19.558 65.702 215.867zM752 0c-36.821 0.009-72.981 9.788-104.789 28.343-31.804 18.556-58.116 45.218-76.245 77.269s-27.43 68.335-26.948 105.156c0.482 36.817 10.726 72.849 29.687 104.414 2.138 3.546 2.816 7.778 1.899 11.81l-25.749 113.101 117.21-38.020c3.477-1.131 7.236-1.033 10.654 0.273 28.506 10.893 59.055 15.381 89.489 13.146s60.002-11.136 86.609-26.078c26.611-14.938 49.604-35.55 67.358-60.369s29.824-53.244 35.366-83.251c5.538-30.007 4.412-60.868-3.307-90.389-7.723-29.525-21.841-56.986-41.361-80.444-19.516-23.454-43.959-42.33-71.586-55.283-27.631-12.958-57.771-19.674-88.286-19.678zM848 224c-3.358 0-6.63-1.058-9.357-3.021-2.722-1.963-4.762-4.732-5.824-7.919l-16.209-48.636-49.318 160.282c-1.007 3.268-3.034 6.131-5.786 8.162-2.752 2.035-6.084 3.132-9.506 3.132h-0.162c-3.447-0.034-6.793-1.186-9.536-3.277s-4.736-5.013-5.687-8.329l-28.681-100.395h-131.934v-32h144c3.477 0 6.861 1.135 9.634 3.226 2.778 2.095 4.796 5.039 5.751 8.38l17.182 60.143 48.141-156.454c0.998-3.238 2.995-6.080 5.713-8.107 2.714-2.031 6.003-3.145 9.391-3.187h0.188c3.358 0 6.63 1.058 9.357 3.021 2.722 1.963 4.762 4.732 5.824 7.919l28.352 85.060h68.467v32h-80z" />
<glyph unicode="&#xe91b;" glyph-name="chevron-down" d="M512 279.040c-10.24 0-20.48 5.12-25.6 10.24l-256 256c-15.36 20.48-15.36 40.96 0 56.32s40.96 15.36 56.32 0l230.4-230.4 225.28 230.4c15.36 15.36 40.96 15.36 56.32 0s15.36-40.96 0-56.32l-256-256c-10.24-5.12-20.48-10.24-30.72-10.24z" />
<glyph unicode="&#xe91c;" glyph-name="chevron-up" d="M768 279.040c-10.24 0-20.48 5.12-25.6 10.24l-230.4 230.4-230.4-225.28c-15.36-15.36-40.96-15.36-56.32 0s-15.36 40.96 0 56.32l256 256c15.36 15.36 40.96 15.36 56.32 0l256-256c15.36-15.36 15.36-40.96 0-56.32-5.12-10.24-15.36-15.36-25.6-15.36z" />
<glyph unicode="&#xe91d;" glyph-name="clock" d="M512 960c-282.312 0-512-229.688-512-512s229.688-512 512-512c282.313 0 512 229.687 512 512s-229.687 512-512 512zM512 0c-247.031 0-448 200.969-448 448s200.968 448 448 448c247.031 0 448-200.968 448-448s-200.969-448-448-448zM544 767.999h-64v-333.247l201.374-201.378 45.252 45.252-182.626 182.626v306.747z" />
<glyph unicode="&#xe91e;" glyph-name="location" d="M785.527 920c-105.984 0-191.868-85.83-191.868-191.668 0-81.716 48.521-152.923 100.164-205.226 25.545-25.873 51.157-46.404 70.4-60.467 8.589-6.276 15.872-11.238 21.265-14.788 5.402 3.575 12.698 8.58 21.299 14.903 19.251 14.148 44.873 34.782 70.426 60.727 51.682 52.468 100.186 123.673 100.186 204.85 0 105.839-85.884 191.668-191.872 191.668zM785.527 424.162c-10.159-17.225-10.167-17.225-10.172-17.22l-0.068 0.043-0.158 0.094c-0.132 0.077-0.311 0.188-0.542 0.324-0.461 0.277-1.118 0.678-1.954 1.195-1.673 1.037-4.079 2.547-7.113 4.518-6.063 3.942-14.639 9.732-24.9 17.229-20.48 14.967-47.834 36.881-75.26 64.657-54.289 54.985-111.701 135.863-111.701 233.33 0 127.966 103.829 231.668 231.868 231.668 128.043 0 231.872-103.702 231.872-231.668 0-96.959-57.434-177.839-111.689-232.921-27.413-27.831-54.758-49.839-75.234-64.887-10.253-7.539-18.829-13.363-24.887-17.331-3.029-1.984-5.431-3.507-7.108-4.548-0.836-0.521-1.489-0.922-1.95-1.203-0.102-0.060-0.196-0.119-0.282-0.171-0.102-0.060-0.188-0.111-0.256-0.154l-0.158-0.094-0.051-0.030-0.017-0.013c-0.009-0.004-0.013-0.009-10.24 17.182zM785.527 424.162l10.227-17.19c-6.281-3.733-14.097-3.746-20.386-0.034l10.159 17.225zM785.532 807.062c-43.554 0-78.827-35.267-78.827-78.73s35.273-78.73 78.827-78.73c43.55 0 78.822 35.267 78.822 78.73s-35.273 78.73-78.822 78.73zM666.705 728.332c0 65.591 53.218 118.73 118.827 118.73 65.604 0 118.822-53.139 118.822-118.73s-53.218-118.73-118.822-118.73c-65.609 0-118.827 53.14-118.827 118.73zM785.527 404.16c-15.91 0-28.779-12.881-28.779-28.732s12.868-28.736 28.779-28.736c15.915 0 28.783 12.885 28.783 28.736s-12.868 28.732-28.783 28.732zM716.749 375.428c0 37.978 30.814 68.732 68.779 68.732 37.969 0 68.783-30.754 68.783-68.732s-30.814-68.736-68.783-68.736c-37.965 0-68.779 30.758-68.779 68.736zM271.655 645.366c-124.314 0-225.056-100.674-225.056-224.822 0-95.748 56.82-178.863 116.76-239.569 29.692-30.071 59.453-53.926 81.808-70.268 10.923-7.983 20.035-14.14 26.449-18.321 6.418 4.215 15.543 10.419 26.484 18.462 22.362 16.435 52.132 40.41 81.833 70.562 59.977 60.894 116.775 144.009 116.775 239.134 0 124.148-100.739 224.822-225.053 224.822zM271.655 68.736c-10.162-17.225-10.168-17.225-10.175-17.22l-0.074 0.047-0.176 0.102c-0.147 0.090-0.352 0.209-0.613 0.367-0.523 0.316-1.271 0.772-2.23 1.365-1.918 1.186-4.68 2.923-8.166 5.188-6.969 4.531-16.844 11.196-28.658 19.827-23.593 17.246-55.097 42.483-86.668 74.458-62.588 63.39-128.296 156.177-128.296 267.674 0 146.276 118.687 264.822 265.056 264.822s265.053-118.546 265.053-264.822c0-110.908-65.728-203.695-128.277-267.2-31.562-32.047-63.056-57.391-86.641-74.726-11.81-8.683-21.681-15.386-28.647-19.947-3.484-2.283-6.245-4.032-8.161-5.222-0.958-0.597-1.706-1.058-2.228-1.374-0.261-0.158-0.465-0.282-0.612-0.371l-0.175-0.107-0.055-0.030-0.019-0.013c-0.007-0.004-0.013-0.009-10.238 17.182zM271.655 68.736l10.225-17.19c-6.279-3.733-14.095-3.746-20.387-0.034l10.162 17.225zM271.654 542.348c-67.363 0-121.938-54.549-121.938-121.8s54.575-121.805 121.938-121.805c67.363 0 121.938 54.554 121.938 121.805s-54.576 121.8-121.938 121.8zM109.716 420.548c0 89.378 72.52 161.8 161.938 161.8s161.937-72.422 161.937-161.8c0-89.382-72.52-161.805-161.937-161.805s-161.938 72.422-161.938 161.805zM271.654 48.734c-20.134 0-36.422-16.299-36.422-36.365 0-20.070 16.289-36.369 36.422-36.369s36.422 16.299 36.422 36.369c0 20.066-16.289 36.365-36.422 36.365zM195.232 12.369c0 42.193 34.234 76.365 76.422 76.365s76.422-34.172 76.422-76.365c0-42.197-34.234-76.369-76.422-76.369s-76.422 34.172-76.422 76.369zM785.527 262.519c11.046 0 20.002-8.951 20.002-19.998 0-37.764-30.635-68.343-68.39-68.343h-72.546c-15.403 0-27.857-12.471-27.857-27.81 0-15.343 12.454-27.814 27.857-27.814h218.906c39.616 0 71.761-32.090 71.761-71.71 0-39.625-32.145-71.714-71.761-71.714h-469.262c-11.046 0-20 8.956-20 20.002 0 11.042 8.954 19.998 20 19.998h469.262c17.562 0 31.761 14.217 31.761 31.714 0 17.493-14.199 31.71-31.761 31.71h-218.906c-37.461 0-67.857 30.345-67.857 67.814s30.4 67.81 67.857 67.81h72.546c15.697 0 28.39 12.706 28.39 28.343 0 11.046 8.956 19.998 19.998 19.998z" />
<glyph unicode="&#xe91f;" glyph-name="people" d="M885.615 482.441c29.986 25.749 49.843 68.577 49.843 116.851 0 78.972-52.275 142.843-116.907 142.843s-116.907-63.871-116.907-142.843c0-48.274 19.652-91.102 49.843-116.851-25.732-10.889-49.237-27.725-69.090-49.51-27.354 28.471-59.571 50.257-94.822 63.13 42.748 31.689 71.522 89.369 71.522 154.973 0 100.015-66.257 180.968-148.109 180.968-81.856 0-148.111-81.2-148.111-180.968 0-65.604 28.568-123.284 71.52-154.973-34.848-12.873-66.657-34.411-93.807-62.387-19.856 21.291-42.954 37.879-68.28 48.521 29.987 25.749 49.843 68.576 49.843 116.851 0 78.972-52.274 142.843-116.907 142.843s-116.907-63.871-116.907-142.843c0-48.275 19.653-91.102 49.842-116.851-80.437-33.916-138.181-127.245-138.181-236.915v-16.337c0-0.495 0.405-0.99 0.81-0.99h247.794c-1.418-13.619-2.228-27.729-2.228-41.839v-16.836c0-72.781 48.221-131.703 107.789-131.703h314.050c59.567 0 107.789 58.923 107.789 131.703v16.836c0 14.11-0.811 28.22-2.231 41.839h249.417c0.405 0 0.811 0.495 0.811 0.99v16.337c-0.405 109.918-57.946 203.247-138.385 237.163zM734.063 599.539c0 56.94 37.888 103.234 84.489 103.234s84.489-46.294 84.489-103.234c0-56.196-37.077-101.995-82.867-103.232h-3.243c-45.99 0.99-82.867 46.788-82.867 103.232zM394.89 651.032c0 77.982 51.868 141.358 115.693 141.358 63.821 0 115.691-63.376 115.691-141.358 0-75.259-48.427-136.903-109.005-141.11h-13.372c-60.582 4.207-109.007 65.851-109.007 141.11zM120.149 599.539c0 56.94 37.888 103.234 84.489 103.234s84.489-46.294 84.489-103.234c0-56.196-37.078-101.995-82.868-103.232h-3.242c-45.79 0.99-82.868 46.788-82.868 103.232zM254.278 267.806h-221.455c9.118 105.463 82.058 188.147 170.599 188.89h2.431c42.144-0.247 80.64-19.311 110.423-50.253-29.176-38.622-50.855-86.153-61.999-138.637zM743.181 169.276c0-50.748-33.839-92.092-75.371-92.092h-314.050c-41.535 0-75.372 41.344-75.372 92.092v16.836c0 153.737 100.495 279.497 225.509 283.951 2.227-0.247 4.659-0.247 6.886-0.247s4.659 0 6.891 0.247c125.009-4.454 225.506-130.214 225.506-283.951v-16.836zM767.292 267.806c-11.145 52.237-32.418 99.025-61.393 137.647 29.986 31.684 68.89 50.748 111.437 51.243h2.432c88.542-0.742 161.481-83.426 170.598-188.89h-223.074z" />
<glyph unicode="&#xe920;" glyph-name="check-2" d="M541.5 737.274c12.416-15.359 29.022-26.783 47.804-32.886s38.933-6.622 58.005-1.494l33.033 8.88c11.063 2.976 22.059-5.010 22.647-16.456l1.762-34.158c1.015-19.723 7.735-38.726 19.345-54.703 11.605-15.977 27.605-28.241 46.046-35.302l31.945-12.23c10.705-4.098 14.899-17.022 8.653-26.628l-18.654-28.672c-10.773-16.55-16.503-35.874-16.503-55.625s5.73-39.074 16.503-55.625l18.654-28.672c6.246-9.604 2.052-22.528-8.653-26.628l-31.945-12.228c-18.441-7.061-34.441-19.324-46.046-35.302-11.61-15.979-18.33-34.982-19.345-54.703l-1.762-34.159c-0.589-11.447-11.584-19.43-22.647-16.457l-33.033 8.879c-19.072 5.129-39.223 4.612-58.005-1.493-18.782-6.101-35.388-17.523-47.804-32.883l-21.504-26.603c-7.202-8.913-20.791-8.913-27.998 0l-21.5 26.603c-12.416 15.36-29.022 26.782-47.805 32.883-18.782 6.106-38.932 6.622-58.004 1.493l-33.032-8.879c-11.066-2.974-22.060 5.009-22.65 16.457l-1.76 34.159c-1.017 19.721-7.737 38.724-19.345 54.703s-27.605 28.241-46.049 35.302l-31.942 12.228c-10.702 4.1-14.902 17.024-8.652 26.628l18.654 28.672c10.77 16.55 16.503 35.874 16.503 55.625s-5.733 39.074-16.503 55.625l-18.654 28.672c-6.248 9.606-2.050 22.53 8.652 26.628l31.942 12.23c18.444 7.061 34.441 19.325 46.049 35.302s18.329 34.981 19.345 54.703l1.76 34.158c0.59 11.446 11.584 19.432 22.65 16.456l33.032-8.88c19.072-5.128 39.222-4.609 58.004 1.494s35.389 17.527 47.805 32.886l21.5 26.6c7.206 8.912 20.796 8.912 27.998 0l21.504-26.6zM552.661 790.276c-24.017 29.708-69.308 29.708-93.325 0l-21.5-26.6c-7.305-9.034-17.073-15.754-28.122-19.344s-22.902-3.895-34.121-0.878l-33.030 8.88c-36.89 9.92-73.534-16.704-75.5-54.854l-1.76-34.158c-0.598-11.602-4.551-22.781-11.38-32.179s-16.239-16.612-27.088-20.765l-31.942-12.232c-35.676-13.658-49.672-56.734-28.84-88.753l18.656-28.672c6.336-9.737 9.708-21.103 9.708-32.721s-3.373-22.985-9.708-32.721l-18.654-28.672c-20.834-32.017-6.838-75.093 28.838-88.751l31.942-12.233c10.849-4.151 20.259-11.366 27.088-20.766s10.782-20.578 11.38-32.179l1.76-34.159c1.966-38.148 38.61-64.772 75.5-54.852l33.030 8.879c11.218 3.017 23.072 2.714 34.121-0.879 11.049-3.588 20.818-10.308 28.122-19.345l21.5-26.598c24.017-29.709 69.308-29.709 93.325 0l21.5 26.598c7.305 9.037 17.071 15.757 28.122 19.345 11.051 3.593 22.903 3.895 34.121 0.879l33.033-8.879c36.89-9.92 73.532 16.704 75.499 54.852l1.758 34.159c0.602 11.601 4.553 22.78 11.383 32.179 6.827 9.399 16.235 16.614 27.085 20.766l31.945 12.233c35.674 13.658 49.673 56.734 28.838 88.751l-18.654 28.672c-6.336 9.737-9.711 21.103-9.711 32.721s3.375 22.985 9.711 32.721l18.654 28.672c20.834 32.019 6.835 75.095-28.838 88.753l-31.945 12.232c-10.85 4.153-20.258 11.367-27.089 20.765-6.827 9.398-10.782 20.577-11.379 32.179l-1.758 34.158c-1.967 38.15-38.609 64.774-75.499 54.854l-33.033-8.88c-11.217-3.017-23.070-2.712-34.121 0.878s-20.817 10.31-28.122 19.344l-21.5 26.6zM658.97 556.724c8.137-8.268 8.026-21.564-0.247-29.697l-160.107-157.457c-24.32-23.915-63.522-23.245-87.008 1.489l-56.836 59.857c-7.986 8.41-7.642 21.7 0.768 29.692 8.41 7.983 21.702 7.642 29.688-0.772l56.838-59.857c7.317-7.701 19.529-7.91 27.102-0.461l160.107 157.455c8.269 8.132 21.568 8.022 29.696-0.248z" />
<glyph unicode="&#xe921;" glyph-name="quote" horiz-adv-x="1306" d="M0 357.642h301.179l-200.787-401.569h301.178l200.788 401.569v602.358h-602.358v-602.358zM679.946 960v-602.358h301.179l-200.786-401.569h301.179l200.786 401.569v602.358h-602.358z" />
<glyph unicode="&#xe922;" glyph-name="comment" d="M512.002 934.417c-282.317 0-512-206.711-512-460.8 0-88.815 28.092-174.848 81.374-249.242-10.086-111.565-37.12-194.389-76.373-233.626-5.188-5.188-6.485-13.124-3.209-19.678 2.901-5.854 8.875-9.455 15.275-9.455 0.785 0 1.57 0.051 2.372 0.171 6.912 0.973 167.476 24.081 283.614 91.119 65.946-26.607 136.192-40.090 208.947-40.090 282.316 0 511.998 206.711 511.998 460.8s-229.682 460.8-511.998 460.8zM273.068 405.35c-37.649 0-68.267 30.618-68.267 68.267s30.618 68.267 68.267 68.267c37.649 0 68.267-30.618 68.267-68.267s-30.618-68.267-68.267-68.267zM512.002 405.35c-37.649 0-68.267 30.618-68.267 68.267s30.618 68.267 68.267 68.267c37.649 0 68.266-30.618 68.266-68.267s-30.617-68.267-68.266-68.267zM750.934 405.35c-37.648 0-68.266 30.618-68.266 68.267s30.618 68.267 68.266 68.267c37.649 0 68.267-30.618 68.267-68.267s-30.618-68.267-68.267-68.267z" />
<glyph unicode="&#xe923;" glyph-name="user" d="M512.070 428.262c146.287 0 265.869 119.582 265.869 265.869s-119.582 265.869-265.869 265.869c-146.287 0-265.867-119.582-265.867-265.869s119.583-265.869 265.867-265.869zM968.346 215.806c-6.972 17.416-16.256 33.669-26.701 48.763-53.41 78.949-135.84 131.193-228.72 143.964-11.609 1.16-24.38-1.16-33.669-8.126-48.762-35.991-106.811-54.567-167.184-54.567s-118.422 18.576-167.184 54.567c-9.289 6.967-22.060 10.448-33.669 8.126-92.88-12.771-176.471-65.015-228.715-143.964-10.449-15.094-19.738-32.509-26.702-48.763-3.482-6.967-2.322-15.093 1.16-22.060 9.289-16.253 20.898-32.509 31.346-46.44 16.253-22.060 33.669-41.792 53.407-60.369 16.253-16.256 34.829-31.351 53.407-46.438 91.718-68.506 202.014-104.491 315.791-104.491s224.073 35.985 315.791 104.491c18.575 13.926 37.152 30.182 53.408 46.438 18.577 18.577 37.154 38.311 53.402 60.369 11.614 15.094 22.067 30.187 31.351 46.44 5.803 6.967 6.963 15.095 3.482 22.060z" />
</font>
</defs>
</svg>
